osu file format v5

[General]
AudioFilename: Sharp Dressed Man.mp3
AudioLeadIn: 3000
PreviewTime: -1
Countdown: 1
SampleSet: Normal
StackLeniency: 0.7
Mode: 0
LetterboxInBreaks: 1
EditorBookmarks: 27980,30620,42380,66140,69260,69860,72860,98180,100100,103220,104180,107060,107780,153620,159740,161420,185540,186260,187700,188300,198260,199940

[Metadata]
Title:Sharp Dressed Man
Artist:ZZ Top
Creator:Cysma
Version:Normal
Source:
Tags:

[Difficulty]
HPDrainRate:5
CircleSize:5
OverallDifficulty:5
SliderMultiplier:1.4
SliderTickRate:1

[Events]
//Background and Video events
//Break Periods
2,46420,53300
2,77140,90980
2,107979,114140
2,169300,183140
//Storyboard Layer 0 (Background)
//Storyboard Layer 1 (Failing)
//Storyboard Layer 2 (Passing)
//Storyboard Layer 3 (Foreground)
//Storyboard Sound Samples
//Background Colour Transformations
3,100,163,162,255

[TimingPoints]
1100,480,4,1,0,100,1

[HitObjects]
320,128,1580,1,0
320,256,2540,1,0
192,256,3260,1,0
32,192,4940,5,0
192,192,5420,1,0
352,192,6380,1,0
512,192,7100,1,0
160,96,8780,5,0
224,160,9260,1,0
256,192,9500,1,0
320,256,10220,1,0
352,288,10460,1,0
416,352,10940,1,0
256,352,11420,2,0,B|96:352|96:160,1,280
192,128,13100,5,0
256,128,13340,1,0
352,192,14060,1,0
416,192,14300,1,0
416,288,14780,1,0
256,288,16460,5,0
96,288,16940,1,0
96,192,17180,1,0
96,64,17900,1,0
160,64,18140,1,0
256,64,18620,1,0
352,64,19100,2,0,B|384:64|416:96|416:128|416:160|384:192|352:224|352:256,1,210
256,288,20300,5,0
192,224,20780,1,0
160,160,21020,1,0
256,96,21740,1,0
320,128,21980,1,0
288,224,22460,1,0
192,64,24140,5,0
320,64,24620,1,0
320,192,26060,1,0
192,192,26540,1,0
256,192,27980,2,0,B|224:160|192:160|192:128|224:128|224:96|256:64|288:64|320:96|352:128|384:96|416:64|416:32|448:32|480:64|480:96|448:128|416:160|416:192|416:224|384:224|352:224|352:256|320:256|288:288|256:320|224:288|192:288|160:256|128:224|96:224,1,770
160,128,31820,5,0
224,128,32300,1,0
288,128,33740,1,0
352,128,34220,1,0
480,192,35420,5,0
352,192,36140,1,0
224,192,36620,1,0
224,64,37100,2,0,B|384:64,2,140
256,192,39260,5,0
256,192,39500,1,0
256,64,39860,2,0,B|288:64|320:96|352:160|416:224|384:256|320:352|224:320|96:288|64:192|96:128,1,595
256,192,42380,12,0,46220
256,32,54860,5,0
256,128,55220,1,0
256,224,56420,1,0
256,320,56900,1,0
448,64,58460,5,0
448,64,58700,1,0
384,128,59180,1,0
384,128,59420,1,0
320,192,59660,1,0
256,256,59900,1,0
192,192,60140,1,0
192,192,60380,1,0
128,128,60620,2,0,B|256:32|416:160,1,280
64,320,62420,5,0
128,256,62900,1,0
192,192,64220,1,0
256,128,64820,1,0
0,0,66140,2,0,B|384:288,2,455
64,64,69860,6,0,B|256:64|256:64|256:288|256:288|64:288|64:288|64:0,1,875
256,192,73340,12,0,76940
160,192,92420,1,0
256,192,92900,1,0
256,192,93140,1,0
256,192,93380,1,0
256,192,93620,1,0
384,192,94340,5,0
384,96,94820,1,0
384,96,95060,1,0
384,96,95300,1,0
384,96,95540,1,0
256,96,96260,5,0
160,96,96740,1,0
160,96,96980,1,0
160,96,97220,1,0
160,96,97460,1,0
160,192,98180,2,0,B|160:256|224:256|224:160|352:128|288:64|128:128|32:160|64:256|224:352|352:224,1,560
352,128,100340,5,0
352,224,100820,1,0
256,224,101300,1,0
160,224,101780,1,0
160,128,102260,1,0
256,128,102740,1,0
256,224,103220,2,0,B|256:64,2,140
256,224,104660,5,0
352,224,105140,1,0
352,128,105620,1,0
448,128,106100,1,0
448,32,106580,1,0
352,32,107060,2,0,B|352:128|224:192,1,210
256,352,115580,2,0,B|256:224|256:192,6,140
96,128,119420,1,0
192,128,120020,1,0
288,128,120500,1,0
384,128,120980,1,0
384,224,121460,1,0
288,224,121940,1,0
192,224,122420,1,0
256,64,123140,6,0,B|256:256,6,175
352,64,127340,1,0
352,192,128180,1,0
256,192,129140,1,0
128,192,129860,1,0
256,32,131540,5,0
256,96,132020,1,0
256,160,132260,1,0
256,224,132980,1,0
256,288,133220,1,0
256,352,133700,1,0
32,192,135380,5,0
128,192,135860,1,0
192,192,136100,1,0
288,192,136820,1,0
352,192,137060,1,0
448,192,137540,1,0
480,352,139220,5,0
384,288,139700,1,0
288,224,139940,1,0
192,160,140660,1,0
128,96,140900,1,0
32,32,141380,1,0
160,128,143060,5,0
256,128,143540,1,0
352,128,143780,1,0
352,256,144500,1,0
256,256,144740,1,0
160,256,145220,1,0
128,64,146900,5,0
192,128,147380,1,0
320,64,148820,1,0
384,128,149300,1,0
448,256,150740,1,0
384,320,151220,1,0
320,256,151700,1,0
256,192,152180,1,0
192,256,152660,2,0,B|96:352|96:352|0:224,1,280
64,192,154580,5,0
64,96,155060,1,0
160,96,156380,1,0
160,192,156860,1,0
256,192,158300,2,0,B|256:96,2,70
384,64,159740,2,0,B|384:320,2,245
0,192,162020,5,0
64,192,162260,1,0
128,192,162740,1,0
128,192,162980,1,0
192,192,163220,1,0
256,192,163460,1,0
320,192,163700,1,0
384,192,163940,1,0
448,192,164180,1,0
512,192,164420,1,0
256,192,165260,12,0,169100
256,288,184580,5,0
256,192,184820,1,0
256,192,185060,1,0
160,192,185300,1,0
160,96,185540,2,0,B|256:32|384:96,1,210
384,128,186500,5,0
288,192,186980,1,0
288,192,187220,1,0
288,192,187460,1,0
224,128,187700,2,0,B|128:160|96:224,1,140
108,203,188420,5,0
108,203,188660,1,0
128,256,188900,1,0
128,256,189140,1,0
192,192,189620,1,0
224,256,189860,1,0
256,192,190100,1,0
256,128,190340,1,0
128,96,190820,5,0
192,96,191060,1,0
288,96,191540,1,0
288,96,191780,1,0
288,192,192260,1,0
224,224,192740,1,0
224,224,192980,1,0
256,320,193460,1,0
256,320,193700,1,0
256,192,194420,5,0
160,192,194900,1,0
352,192,195380,1,0
288,128,195860,1,0
192,128,196340,1,0
96,64,196820,1,0
32,160,197300,1,0
128,160,197780,1,0
