osu file format v3

[General]
AudioFilename: ZZ - Samurai Blue.mp3
AudioLeadIn: 0
AudioHash: cad3ae77acf7f381a14ce0fee1849afa
PreviewTime: -1
SampleSet: Normal

[Metadata]
Title:Samurai Blue
Artist:ZZ
Creator:elzamxrai
Version:Normal

[Difficulty]
HPDrainRate:5
CircleSize:4
OverallDifficulty:6
SliderMultiplier: 1.4
SliderTickRate: 2

[Events]
2,30696,47573
2,76015,88859
3,0,163,162,255

[TimingPoints]
3735,431.623624199698

[HitObjects]
64,64,16899,1,0,
160,64,17115,2,0,B|160:64|352:64,1,140
384,64,17762,1,0,
384,160,17978,2,0,B|384:160|224:160,1,140
160,160,18626,1,0,
160,256,18841,6,0,B|160:256|352:256,3,140
384,256,20352,1,0,
384,256,20568,1,0,
384,256,20784,1,0,
384,352,20999,2,0,B|384:352|224:352,3,140
96,352,22726,1,0,
32,192,23158,1,0,
96,32,23589,1,4,
448,64,24237,5,0,
352,64,24453,2,0,B|352:64|160:64,1,140
128,64,25100,1,0,
128,160,25316,2,0,B|128:160|288:160,1,140
352,160,25964,1,0,
352,256,26179,6,0,B|352:256|160:256,1,140
128,256,27042,1,0,
128,256,27258,1,0,
128,256,27474,1,0,
128,256,27690,1,0,
128,352,27905,2,0,B|128:352|288:352,3,140
416,352,29632,1,0,
480,192,30064,1,0,
416,32,30496,1,4,
416,224,48623,6,0,B|416:224|416:320|288:320,2,140
256,192,49918,1,4,
256,192,50134,1,4,
64,320,51213,5,0,
192,256,51645,1,0,
320,192,52076,1,0,
453,103,52508,1,0,
453,103,52724,1,0,
453,103,52940,2,2,B|453:103|388:72|303:110,2,140
160,352,54234,5,4,
96,192,54666,1,4,
160,32,55098,1,4,
416,96,55529,6,0,B|416:96|256:96,2,140
96,288,56824,2,0,B|96:288|288:288,2,140
96,192,58119,5,0,
192,32,58550,1,0,
256,192,58982,1,0,
352,352,59414,1,0,
416,192,59846,1,0,
160,32,60709,5,0,
64,192,61140,1,0,
160,352,61572,1,0,
224,192,62004,1,0,
416,160,62435,6,0,B|416:160|416:64|288:64,2,140
256,192,63730,1,4,
256,192,63946,1,4,
64,64,65025,5,0,
192,128,65457,1,0,
320,192,65888,1,0,
449,285,66320,1,0,
449,285,66536,1,0,
449,285,66752,2,2,B|449:285|385:320|307:283,2,140
160,32,68046,5,6,
96,192,68478,1,6,
160,352,68910,1,6,
416,288,69341,6,0,B|416:288|256:288,2,140
96,96,70636,2,0,B|96:96|288:96,2,140
96,192,71931,5,0,
192,352,72362,1,0,
256,192,72794,1,0,
352,32,73226,1,0,
416,192,73658,1,0,
448,192,74521,5,0,
320,192,74952,1,0,
192,192,75384,1,0,
64,192,75816,1,0,
96,320,90059,5,4,
96,320,90491,1,4,
192,224,90922,5,0,
192,224,91138,1,0,
192,224,91354,1,0,
288,128,91786,5,0,
288,128,92002,1,0,
288,128,92217,1,0,
288,128,92433,1,0,
384,32,92865,5,4,
384,32,93081,1,4,
416,288,93512,6,0,B|416:288|256:288,1,140
276,192,94375,2,0,B|276:192|416:192,1,140
416,96,95239,2,0,B|416:96|277:97,1,140
192,96,96102,5,0,
192,96,96318,1,0,
192,96,96534,1,0,
192,96,96749,1,0,
192,96,96965,6,0,B|192:96|32:96,1,140
52,192,97828,2,0,B|52:192|192:192,1,140
288,192,98692,2,0,B|288:192|448:192,1,140
416,288,99555,5,0,
416,288,99771,1,0,
416,288,99987,1,0,
416,288,100202,1,0,
320,288,100418,2,0,B|320:288|0:288,1,280
44,192,101713,1,0,
128,192,102145,2,4,B|128:192|194:161|268:193,2,140
416,64,103655,5,0,
416,64,103871,1,0,
416,64,104087,1,0,
320,64,104303,2,4,B|320:64|254:33|180:65,1,140
123,124,104950,1,0,
184,188,105166,2,4,B|184:188|250:219|324:187,1,140
384,256,105813,1,0,
315,314,106029,2,4,B|315:314|248:347|174:315,1,140
448,64,107108,5,0,
352,64,107324,2,0,L|352:64|224:192,1,140
352,192,107972,1,0,
448,224,108187,2,0,L|448:224|320:384,1,140
288,288,108835,1,0,
224,224,109051,2,0,L|224:224|96:96,1,140
64,192,109698,1,0,
128,256,109914,2,0,L|128:256|256:384,1,140
288,288,110561,5,0,
288,288,110777,2,0,L|288:288|352:224,1,70
416,160,111425,1,0,
416,160,111640,2,0,L|416:160|352:96,1,70
256,64,112288,5,0,
256,64,112504,2,0,B|256:64|256:224,2,140
64,64,114014,5,0,
160,64,114230,2,0,B|160:64|288:192,1,140
320,96,114878,1,0,
384,160,115093,2,0,B|384:160|256:320,1,140
224,224,115741,1,0,
160,160,115957,2,0,B|160:160|32:288,1,140
128,320,116604,1,0,
224,320,116820,2,0,B|224:320|352:192,1,140
256,192,117683,12,0,121999
160,192,122647,1,4,
352,192,123078,1,4,
256,128,123510,1,4,
256,128,123726,1,4,
256,256,124157,1,6,
96,160,124589,6,0,B|96:160|96:64|224:64,2,140
256,192,125884,1,4,
256,192,126100,1,4,
448,192,127179,5,0,
384,32,127610,1,0,
320,192,128042,1,0,
192,192,128474,1,0,
192,192,128690,1,0,
192,192,128905,2,0,B|192:192|128:158|52:196,2,140
192,320,130200,5,2,
288,224,130632,1,2,
384,128,131063,1,2,
320,32,131495,2,0,B|320:32|256:-1|149:45,2,140
128,288,132790,2,0,B|128:288|256:384|403:277,1,280
385,190,134085,6,0,B|385:190|318:162|245:191,1,140
192,320,134948,1,0,
96,256,135380,1,0,
32,160,135811,2,0,B|32:160|97:124|191:167,1,140
256,192,136675,5,0,
352,32,137106,1,0,
448,192,137538,1,0,
352,352,137969,1,0,
96,224,138401,6,0,B|96:224|96:320|224:320,2,140
256,192,139696,1,4,
256,192,139912,1,4,
448,192,140991,5,0,
384,352,141422,1,0,
320,192,141854,1,0,
192,192,142286,1,0,
192,192,142502,1,0,
192,192,142717,2,0,B|192:192|128:226|52:188,2,140
192,64,144012,5,2,
288,160,144444,1,2,
384,256,144875,1,2,
320,352,145307,2,0,B|320:352|256:385|149:339,2,140
128,96,146602,2,0,B|128:96|256:0|403:107,1,280
256,192,147897,12,4,151781
