osu file format v3

[General]
AudioFilename: ZZ - Samurai Blue.mp3
AudioLeadIn: 0
AudioHash: cad3ae77acf7f381a14ce0fee1849afa
PreviewTime: -1
SampleSet: Normal

[Metadata]
Title:Samurai Blue
Artist:ZZ
Creator:elzamxrai
Version:Hard

[Difficulty]
HPDrainRate:6
CircleSize:4
OverallDifficulty:7
SliderMultiplier: 1.4
SliderTickRate: 2

[Events]
2,30696,47573
2,76015,88859
3,0,163,162,255

[TimingPoints]
3735,431.623624199698

[HitObjects]
416,96,16899,1,0,
352,32,17115,1,0,
288,96,17331,1,0,
224,160,17546,1,0,
160,96,17762,1,0,
160,96,17870,1,0,
64,256,18194,5,0,
128,320,18410,1,0,
192,256,18626,1,0,
192,256,18733,1,0,
448,320,19057,5,0,
384,256,19273,1,0,
320,320,19489,1,0,
256,256,19705,1,0,
192,320,19920,1,0,
128,256,20136,1,0,
64,192,20352,1,0,
128,128,20568,1,0,
192,64,20784,1,0,
256,128,20999,2,2,B|256:128|384:128,1,105
416,192,21647,1,0,
363,255,21863,2,2,B|363:255|235:255,1,105
160,320,22510,5,4,
96,256,22726,1,4,
32,192,22942,1,4,
96,128,23158,1,4,
320,64,23589,1,4,
448,320,24237,5,0,
352,320,24452,1,0,
288,256,24668,1,0,
288,256,24776,1,0,
224,192,25100,5,0,
160,256,25315,1,0,
96,192,25531,1,0,
96,192,25639,1,0,
448,64,25963,5,0,
384,128,26179,1,0,
448,192,26395,1,0,
384,256,26611,1,0,
256,320,27042,5,0,
256,320,27258,1,0,
256,320,27474,1,0,
256,320,27690,1,0,
169,320,27905,2,2,B|169:320|64:320,1,105
64,224,28553,1,0,
66,130,28769,2,2,B|66:130|194:130,1,105
448,192,29416,5,0,
384,128,29632,1,0,
320,192,29848,1,0,
256,256,30064,1,4,
96,96,30495,1,4,
448,64,48623,5,0,
384,128,48839,1,0,
448,192,49055,1,0,
384,256,49271,1,0,
320,192,49487,1,0,
256,256,49702,1,0,
192,192,49918,1,0,
256,128,50134,1,0,
192,64,51213,5,0,
128,128,51429,1,0,
64,192,51645,1,0,
128,256,51861,1,0,
192,320,52077,1,0,
256,256,52292,1,0,
192,192,52508,1,0,
256,128,52724,1,0,
318,194,52940,2,0,B|318:194|383:225|467:190,2,140
416,32,54234,5,0,
352,96,54450,1,0,
416,160,54666,1,0,
352,224,54882,1,0,
416,288,55098,1,0,
64,320,55529,5,0,
128,256,55745,1,0,
192,192,55961,1,0,
256,256,56177,1,0,
320,320,56393,1,0,
448,64,56824,5,0,
384,128,57040,1,0,
320,192,57256,1,0,
256,128,57472,1,0,
192,64,57688,1,0,
64,256,58119,5,0,
128,192,58335,1,0,
192,256,58551,1,0,
256,192,58767,1,0,
320,256,58982,1,0,
384,192,59198,1,0,
320,128,59414,1,0,
256,64,59630,1,0,
192,128,59846,1,0,
448,64,60709,5,0,
384,128,60925,1,0,
320,192,61140,1,0,
256,256,61356,1,0,
192,192,61572,1,0,
128,128,61788,1,0,
64,64,62004,1,0,
352,320,62435,5,0,
416,256,62651,1,0,
352,192,62867,1,0,
288,256,63083,1,0,
224,192,63299,1,0,
288,128,63514,1,0,
224,64,63730,1,0,
160,128,63946,1,0,
64,320,65025,5,0,
128,256,65241,1,0,
192,320,65457,1,0,
256,256,65672,1,0,
192,192,65888,1,0,
128,128,66104,1,0,
192,64,66320,1,0,
256,128,66536,1,0,
316,190,66752,2,0,B|316:190|383:160|455:193,2,140
448,288,68046,5,0,
352,288,68262,1,0,
256,288,68478,1,0,
160,288,68694,1,0,
64,288,68910,1,0,
128,96,69341,5,0,
192,160,69557,1,0,
256,96,69773,1,0,
320,160,69989,1,0,
384,96,70205,1,0,
384,288,70636,5,0,
320,224,70852,1,0,
256,288,71068,1,0,
192,224,71284,1,0,
128,288,71500,1,0,
256,32,71931,5,0,
192,96,72147,1,0,
128,160,72363,1,0,
64,224,72579,1,0,
128,288,72794,1,0,
192,352,73010,1,0,
256,288,73226,1,0,
320,224,73442,1,0,
384,160,73658,1,0,
448,192,74521,5,0,
320,192,74952,1,0,
192,192,75384,1,0,
64,192,75816,1,0,
352,192,90059,5,4,
160,192,90491,1,4,
192,256,90922,5,0,
256,288,91138,1,0,
320,256,91354,1,0,
352,128,91786,5,0,
288,96,92002,1,0,
224,96,92217,1,0,
160,128,92433,1,0,
256,192,92865,5,4,
256,192,93081,1,4,
448,320,93512,5,0,
384,224,93836,1,0,
384,128,94160,1,0,
384,128,94375,1,0,
320,32,94699,1,0,
96,64,95023,5,0,
96,64,95239,1,0,
96,64,95455,1,0,
96,64,95670,1,0,
160,128,96102,5,0,
224,192,96318,1,0,
288,128,96534,1,0,
352,192,96749,1,0,
416,256,96965,1,0,
320,320,97289,1,0,
224,320,97613,5,0,
160,256,97828,1,0,
96,320,98044,1,0,
32,256,98260,1,0,
96,192,98476,1,0,
160,128,98692,1,0,
224,192,98908,1,0,
288,128,99123,1,0,
416,288,99555,5,0,
352,224,99771,1,0,
416,160,99987,1,0,
352,96,100202,1,0,
288,160,100418,1,0,
224,96,100634,1,0,
224,96,100742,1,0,
64,320,101066,5,0,
128,256,101282,1,0,
192,320,101498,1,0,
256,256,101714,1,4,
320,320,101930,1,4,
384,259,102145,2,0,B|384:259|447:228|538:269,2,140
416,96,103655,5,0,
352,32,103871,1,0,
288,96,104087,1,0,
224,160,104303,1,0,
288,224,104519,1,0,
352,160,104734,1,0,
416,224,104950,1,0,
416,224,105058,1,0,
64,128,105382,5,0,
128,64,105597,1,0,
192,128,105813,1,0,
256,64,106029,1,0,
416,288,106461,1,4,
416,64,107108,5,0,
320,64,107324,2,0,L|320:64|224:160,1,70
352,160,107756,1,0,
416,224,107972,2,0,L|416:224|320:320,1,70
288,224,108403,1,0,
224,160,108619,2,0,L|224:160|160:96,1,70
96,160,109051,1,0,
160,224,109266,2,0,L|160:224|256:320,1,70
288,320,109698,1,0,
352,256,109914,2,0,B|352:256|416:192,1,70
448,128,110346,1,0,
384,64,110561,2,0,B|384:64|320:0,1,70
320,128,110993,1,0,
64,64,111425,5,0,
64,64,111640,2,0,B|64:64|128:128,1,70
192,96,112288,5,0,
320,96,112504,1,0,
384,192,112719,1,0,
320,288,112935,1,0,
192,288,113151,1,0,
128,192,113367,1,0,
96,320,114014,5,0,
192,320,114230,2,0,L|192:320|288:224,1,70
160,224,114662,1,0,
96,160,114878,2,0,L|96:160|192:64,1,70
224,160,115309,1,0,
288,224,115525,2,0,L|288:224|352:288,1,70
416,224,115957,1,0,
352,160,116172,2,0,L|352:160|256:64,1,70
224,64,116604,1,0,
160,128,116820,2,0,B|160:128|96:192,1,70
64,256,117252,1,0,
256,192,117683,12,4,121999
160,192,122647,1,4,
352,192,123078,1,4,
192,96,123510,1,4,
320,96,123726,1,4,
256,256,124157,1,6,
64,320,124589,5,0,
128,256,124805,1,0,
64,192,125021,1,0,
128,128,125237,1,0,
192,192,125453,1,0,
256,128,125668,1,0,
320,192,125884,1,0,
256,256,126100,1,0,
320,320,127179,5,0,
384,256,127395,1,0,
448,192,127611,1,0,
384,128,127827,1,0,
320,64,128043,1,0,
256,128,128258,1,0,
320,192,128474,1,0,
256,256,128690,1,0,
194,190,128906,2,0,B|194:190|129:159|45:194,2,140
96,352,130200,5,0,
160,288,130416,1,0,
96,224,130632,1,0,
160,160,130848,1,0,
96,96,131064,1,0,
448,64,131495,5,0,
384,128,131711,1,0,
320,192,131927,1,0,
256,128,132143,1,0,
192,64,132359,1,0,
64,320,132790,5,0,
128,256,133006,1,0,
192,192,133222,1,0,
256,256,133438,1,0,
320,320,133654,1,0,
448,128,134085,5,0,
384,192,134301,1,0,
320,128,134517,1,0,
256,192,134733,1,0,
192,128,134948,1,0,
128,192,135164,1,0,
192,256,135380,1,0,
256,320,135596,1,0,
320,256,135812,1,0,
64,320,136675,5,0,
128,256,136891,1,0,
192,192,137106,1,0,
256,128,137322,1,0,
320,192,137538,1,0,
384,256,137754,1,0,
448,320,137970,1,0,
256,192,138401,12,0,139912
448,64,140991,5,0,
384,128,141207,1,0,
320,64,141423,1,0,
256,128,141638,1,0,
320,192,141854,1,0,
384,256,142070,1,0,
320,320,142286,1,0,
256,256,142502,1,0,
196,194,142718,2,0,B|196:194|129:224|57:191,2,140
64,96,144012,5,0,
160,96,144228,1,0,
256,96,144444,1,0,
352,96,144660,1,0,
448,96,144876,1,0,
384,288,145307,5,0,
320,224,145523,1,0,
256,288,145739,1,0,
192,224,145955,1,0,
128,288,146171,1,0,
128,96,146602,5,0,
192,160,146818,1,0,
256,96,147034,1,0,
320,160,147250,1,0,
384,96,147466,1,0,
256,192,147897,12,4,151781
