osu file format v3

[General]
AudioFilename: ZZ - Samurai Blue.mp3
AudioLeadIn: 0
AudioHash: cad3ae77acf7f381a14ce0fee1849afa
PreviewTime: -1
SampleSet: Normal

[Metadata]
Title:Samurai Blue
Artist:ZZ
Creator:elzamxrai
Version:Easy

[Difficulty]
HPDrainRate:5
CircleSize:4
OverallDifficulty:5
SliderMultiplier: 1.4
SliderTickRate: 2

[Events]
2,30695,47423
2,76015,88859
3,0,163,162,255

[TimingPoints]
3735,431.623624199698

[HitObjects]
384,64,17115,2,0,B|384:64|224:64,1,140
160,64,17978,1,0,
160,160,18410,1,0,
244,160,18841,2,0,B|244:160|404:160,3,140
384,256,20568,5,0,
300,256,20999,2,0,B|300:256|140:256,3,140
160,352,22726,1,0,
256,352,23158,1,0,
352,352,23589,1,0,
384,64,24452,6,0,B|384:64|224:64,1,140
160,64,25316,1,0,
160,160,25747,1,0,
245,160,26179,2,0,B|245:160|405:160,1,140
383,256,27042,6,0,B|383:256|223:256,1,140
160,256,27905,1,0,
64,352,28337,1,0,
160,352,28769,2,0,B|160:352|320:352,3,140
384,352,30495,1,4,
38,226,48623,6,0,B|38:226|261:432|479:219,1,490
480,128,51213,1,0,
384,64,51645,1,0,
256,32,52076,1,0,
128,64,52508,1,4,
128,64,52724,1,4,
64,192,54234,5,2,
160,256,54666,1,2,
256,320,55098,1,2,
384,320,55529,2,0,B|384:320|480:192|373:45,1,280
128,64,56824,2,0,B|128:64|32:192|139:339,1,280
224,320,58119,5,0,
288,224,58550,1,0,
352,128,58982,1,0,
416,32,59414,2,0,B|416:32|348:-1|269:35,1,140
192,64,60709,5,0,
128,160,61140,1,0,
195,257,61572,2,0,B|195:257|256:289|332:257,1,140
474,158,62435,6,0,B|474:158|251:-48|33:165,1,490
32,256,65025,1,0,
128,320,65457,1,0,
256,352,65888,1,0,
384,320,66320,1,4,
384,320,66536,1,4,
448,192,68046,5,2,
352,128,68478,1,2,
256,64,68910,1,2,
128,64,69341,2,0,B|128:64|32:192|139:339,1,280
384,320,70636,2,0,B|384:320|480:192|373:45,1,280
288,64,71931,5,0,
224,160,72362,1,0,
160,256,72794,1,0,
96,352,73226,2,0,B|96:352|164:385|243:349,1,140
320,288,74521,6,0,B|320:288|416:288|416:192,1,140
416,126,75384,2,0,B|416:126|352:97|276:130,1,140
448,64,90059,5,4,
448,64,90491,1,4,
350,192,90922,2,0,B|350:192|288:160|205:198,1,140
96,320,91786,2,0,B|96:320|197:354|314:320,1,210
416,288,92865,1,4,
416,288,93081,1,4,
352,32,93944,5,0,
256,32,94375,1,0,
160,32,94807,1,0,
160,128,95239,2,0,B|160:128|335:127,1,140
352,224,96102,6,0,B|352:224|177:225,2,140
352,320,97397,1,0,
256,320,97828,1,0,
160,320,98260,1,0,
62,322,98692,6,0,B|62:322|0:192|70:32,1,280
256,192,99987,1,0,
450,322,100418,2,0,B|450:322|512:192|442:32,1,280
256,192,101713,1,0,
62,322,102145,2,4,B|62:322|0:192|70:32,1,280
352,96,103871,5,0,
256,96,104303,1,0,
160,96,104734,2,0,B|160:96|160:256,1,140
256,192,105598,1,0,
352,192,106029,2,4,B|352:192|352:352,1,140
449,112,107324,6,0,B|449:112|260:8|36:118,1,420
43,241,109051,6,0,B|43:241|258:136|447:240,1,420
449,112,110777,6,0,B|449:112|260:8|36:118,1,420
128,192,112504,5,0,
256,192,112935,1,0,
384,192,113367,1,0,
448,160,114230,5,0,
384,64,114662,1,0,
320,160,115093,1,0,
256,64,115525,1,0,
192,160,115957,1,0,
128,64,116388,1,0,
64,160,116820,1,0,
256,192,117252,12,0,121999
256,192,122647,1,0,
256,192,123078,1,0,
345,123,123510,2,2,B|345:123|231:31|134:151,1,210
38,226,124589,6,0,B|38:226|261:432|479:219,1,490
512,128,127179,1,0,
416,64,127610,1,0,
320,0,128042,1,0,
224,64,128474,1,4,
224,64,128690,1,4,
128,128,130200,5,2,
256,160,130632,1,2,
384,192,131063,1,2,
384,288,131495,2,0,B|384:288|256:384|109:277,1,280
128,96,132790,2,0,B|128:96|256:0|403:107,1,280
385,190,134085,6,0,B|385:190|318:162|245:191,1,140
128,156,134948,2,0,B|128:156|128:328|320:321,1,280
448,192,136675,5,0,
352,32,137106,1,0,
288,192,137538,1,0,
384,352,137969,1,0,
474,158,138401,6,0,B|474:158|251:-48|33:165,1,490
0,288,140991,1,0,
96,320,141422,1,0,
192,352,141854,1,0,
288,320,142286,1,4,
288,320,142502,1,4,
384,256,144012,5,2,
256,224,144444,1,2,
128,192,144875,1,2,
256,192,145307,12,0,151781
