osu file format v5

[General]
AudioFilename: ZZ - Samurai Blue.mp3
AudioLeadIn: 0
PreviewTime: 47904
Countdown: 1
SampleSet: Normal
StackLeniency: 0.7
Mode: 0
LetterboxInBreaks: 1
SkinPreference:ouendan2

[Editor]
Bookmarks: 17130,23830,30521,48209,62032,75845,89648,106708,124180,138003,151806,165629
DistanceSpacing: 0.699999988079071
BeatDivisor: 4
GridSize: 8

[Metadata]
Title:Samurai Blue
Artist:ZZ
Creator:Gens
Version:Normal
Source:Osu! Tatakae! Ouendan! 2
Tags:

[Difficulty]
HPDrainRate:6
CircleSize:4
OverallDifficulty:4
SliderMultiplier:1.7
SliderTickRate:2

[Events]
//Background and Video events
0,0,"hayato.PNG"
//Break Periods
2,30406,47016
2,75730,88454
2,137888,150613
//Storyboard Layer 0 (Background)
//Storyboard Layer 1 (Fail)
//Storyboard Layer 2 (Pass)
//Storyboard Layer 3 (Foreground)
//Storyboard Sound Samples
//Background Colour Transformations
3,100,0,0,0

[TimingPoints]
3444,431.654676258993,4,1,1,80,1,0

[HitObjects]
200,176,17256,2,0,L|328:176,2,127.5,2|0|0
152,88,18120,2,0,L|24:88,2,127.5,2|0|0
104,176,18983,5,2
56,264,19199,1,0
152,264,19415,1,2
248,264,19631,1,0
296,176,19846,1,2
344,264,20062,1,0
392,176,20278,1,4
440,264,20494,1,0
392,352,20710,6,0,L|264:352,2,127.5,2|0|0
344,264,21573,2,0,L|216:264,2,127.5,2|0|0
344,168,22436,1,2
432,216,22652,1,0
432,120,22868,1,2
512,296,23300,1,4
232,104,23947,5,0
184,16,24163,2,0,L|328:16,2,127.5,2|0|0
136,104,25026,2,0,L|8:104,2,127.5,2|0|0
168,192,25890,1,2
216,280,26105,1,0
264,192,26321,2,0,L|360:192,1,85,2|0
456,192,26753,5,6
504,280,26969,1,0
408,280,27185,1,0
312,280,27400,1,0
264,368,27616,2,0,L|400:368,2,127.5,2|0|0
216,280,28479,2,0,L|72:280,2,127.5,2|0|0
264,192,29343,1,6
360,192,29559,1,0
312,104,29774,1,6
312,304,30206,1,4
184,272,48336,6,2,B|218:221|302:222|335:280,2,170,6|0|6
256,96,49631,1,0
256,0,49846,1,4
512,360,50926,1,0
336,360,51357,1,0
256,192,51789,1,0
144,32,52220,1,0
240,32,52436,1,0
336,32,52652,2,2,B|392:24|448:32|488:88,2,170,6|2|6
512,16,53947,5,2
424,128,54379,1,2
256,176,54810,1,0
328,352,55242,2,0,B|408:272,1,85,2|0
392,200,55674,2,0,B|320:128,1,85,2|0
320,232,56105,1,4
184,352,56537,2,0,B|104:272,1,85,2|0
120,200,56969,2,0,B|192:128,1,85,2|0
192,232,57400,1,4
328,352,57832,6,0,B|408:272,1,85,6|0
392,200,58264,2,0,B|320:128,1,85,6|0
256,176,58695,1,4
256,360,59127,1,2
88,360,59559,1,6
424,360,60422,5,6
352,192,60854,1,2
424,16,61285,1,2
496,192,61717,1,6
328,272,62149,6,2,B|294:221|210:222|177:280,2,170,6|0|6
256,96,63444,1,0
256,0,63659,1,4
0,360,64739,1,0
176,360,65170,1,0
256,192,65602,1,0
368,32,66033,1,0
272,32,66249,1,0
176,32,66465,2,2,B|120:24|64:32|24:88,2,170,6|2|6
0,16,67760,5,2
88,128,68192,1,2
256,176,68623,1,0
184,352,69055,2,0,B|104:272,1,85,2|0
120,200,69487,2,0,B|192:128,1,85,2|0
192,232,69918,1,4
328,352,70350,2,0,B|408:272,1,85,2|0
392,200,70782,2,0,B|320:128,1,85,2|0
320,232,71213,1,4
184,352,71645,6,0,B|104:272,1,85,6|0
120,200,72077,2,0,B|192:128,1,85,6|0
256,176,72508,1,4
416,264,72940,1,2
240,264,73372,1,6
72,360,74235,5,2
0,232,74667,1,2
0,72,75099,1,2
128,152,75530,1,6
216,256,89774,5,10
128,80,90206,1,10
312,80,90638,1,10
360,168,90854,1,10
264,168,91069,1,10
104,248,91501,1,10
160,328,91717,1,10
216,248,91933,1,10
160,168,92149,1,10
256,16,92580,1,10
256,16,92796,1,12
392,160,93228,5,0
248,160,93551,1,0
104,160,93875,1,0
48,232,94091,1,0
192,232,94415,1,0
336,232,94738,1,0
336,136,94954,1,2
424,184,95170,1,0
512,136,95386,1,2
424,288,95818,1,6
328,288,96033,5,0
264,216,96249,1,2
168,216,96465,1,0
104,136,96681,1,2
248,136,97005,1,0
400,136,97328,1,0
400,232,97544,1,2
320,288,97760,1,0
240,232,97976,1,2
160,288,98192,1,0
80,232,98408,1,2
0,288,98623,1,0
0,120,98839,1,2
160,176,99271,5,0
256,176,99487,1,0
352,176,99702,1,6
448,176,99918,1,0
400,96,100134,1,2
248,96,100458,1,0
104,96,100782,1,0
56,176,100997,1,2
128,232,101213,1,0
200,176,101429,1,0
272,232,101645,1,0
344,176,101861,1,2
416,232,102077,1,0
496,176,102292,2,6,B|496:352,1,170,2|4
128,344,103372,5,0
128,248,103587,1,2
208,296,103803,1,0
288,248,104019,1,2
384,248,104235,1,0
424,168,104451,1,2
280,168,104774,1,2
151,166,105098,1,0
200,88,105314,1,2
104,88,105530,1,0
16,48,105746,2,6,B|16:224,1,170,6|4
91,291,106825,5,0
171,243,107041,2,2,C|363:243,3,170,6|0|0|0
411,179,108551,5,0
341,124,108767,2,2,C|149:124,3,170,6|0|0|0
91,179,110278,5,0
171,243,110494,2,2,C|363:243,3,170,6|0|0|0
411,179,112005,5,0
467,99,112220,1,2
411,27,112436,1,0
355,99,112652,1,2
270,153,112868,1,0
174,153,113084,1,4
464,344,113731,5,0
384,288,113947,2,0,B|296:288,1,85,2|0
200,288,114379,1,2
104,288,114595,1,0
160,208,114810,2,0,B|248:208,1,85,2|0
344,208,115242,1,2
440,208,115458,1,0
392,128,115674,6,0,B|304:128,1,85,2|0
208,128,116105,1,2
112,128,116321,1,0
168,48,116537,2,0,B|256:48,1,85,2|0
352,48,116969,1,6
256,192,117185,12,6,120854
256,312,122365,5,2
424,232,122797,1,2
256,152,123229,1,2
160,152,123444,1,2
160,344,123876,1,8
328,272,124307,6,2,B|294:221|210:222|177:280,2,170,6|0|6
256,96,125602,1,0
256,0,125817,1,4
0,360,126897,1,0
176,360,127328,1,0
256,192,127760,1,0
368,32,128191,1,0
272,32,128407,1,0
176,32,128623,2,2,B|120:24|64:32|24:88,2,170,6|2|6
0,16,129918,5,2
88,128,130350,1,2
256,176,130781,1,0
184,352,131213,2,0,B|104:272,1,85,2|0
120,200,131645,2,0,B|192:128,1,85,2|0
192,232,132076,1,4
328,352,132508,2,0,B|408:272,1,85,2|0
392,200,132940,2,0,B|320:128,1,85,2|0
320,232,133371,1,4
184,352,133803,6,0,B|104:272,1,85,6|0
120,200,134235,2,0,B|192:128,1,85,6|0
256,176,134666,1,4
416,264,135098,1,2
240,264,135530,1,6
72,360,136393,5,2
0,232,136825,1,2
0,72,137257,1,2
128,152,137688,1,6
256,192,151933,12,6,153443
512,360,154523,5,0
336,360,154954,1,0
256,192,155386,1,0
144,32,155817,1,0
240,32,156033,1,0
336,32,156249,2,2,B|392:24|448:32|488:88,2,170,6|2|6
512,0,157544,5,2
384,88,157976,1,2
512,192,158408,1,0
424,336,158839,1,2
352,280,159055,1,0
424,224,159271,1,2
352,168,159487,1,0
280,224,159702,1,4
88,224,160134,1,2
160,272,160350,1,0
160,184,160566,1,2
160,96,160782,1,0
232,144,160997,1,4
392,144,161429,5,6
312,184,161645,1,0
312,96,161861,1,6
312,8,162077,1,0
232,56,162292,1,6
240,248,162724,1,2
48,248,163156,1,4
432,360,164019,5,6
352,192,164451,1,2
424,8,164882,1,2
504,192,165314,1,6
256,192,165746,12,6,167256
0,360,168336,5,0
176,360,168767,1,0
256,192,169199,1,0
368,32,169630,1,0
272,32,169846,1,0
176,32,170062,2,2,B|120:24|64:32|24:88,2,170,6|2|6
0,0,171357,5,2
128,88,171789,1,2
0,192,172221,1,0
88,336,172652,1,2
160,280,172868,1,0
88,224,173084,1,2
160,168,173300,1,0
232,224,173515,1,4
424,224,173947,1,2
352,272,174163,1,0
352,184,174379,1,2
352,96,174595,1,0
280,144,174810,1,4
256,192,175242,12,4,179127
