osu file format v5

[General]
AudioFilename: ZZ - Samurai Blue.mp3
AudioLeadIn: 0
PreviewTime: 47904
Countdown: 1
SampleSet: Normal
StackLeniency: 0.7
Mode: 0
LetterboxInBreaks: 1
SkinPreference:ouendan2

[Editor]
Bookmarks: 17130,23830,30521,48209,62032,75845,89648,106708,117391,124180,138003,151806,165629
DistanceSpacing: 0.699999988079071
BeatDivisor: 4
GridSize: 8

[Metadata]
Title:Samurai Blue
Artist:ZZ
Creator:Gens
Version:Easy
Source:Osu! Tatakae! Ouendan! 2
Tags:

[Difficulty]
HPDrainRate:3
CircleSize:4
OverallDifficulty:0
SliderMultiplier:1.5
SliderTickRate:2

[Events]
//Background and Video events
0,0,"kikuchi.PNG"
//Break Periods
2,30407,46536
2,75730,87974
2,137888,150133
//Storyboard Layer 0 (Background)
//Storyboard Layer 1 (Fail)
//Storyboard Layer 2 (Pass)
//Storyboard Layer 3 (Foreground)
//Storyboard Sound Samples
//Background Colour Transformations
3,100,6,6,6

[TimingPoints]
3444,431.654676258993,4,1,1,80,1,0

[HitObjects]
512,360,17256,6,0,C|384:360,1,112.5
296,360,17904,1,0
216,360,18120,2,0,C|88:360,1,112.5
0,360,18767,1,0
0,280,18983,1,2
144,280,19415,1,2
296,280,19846,1,2
448,280,20278,1,2
512,144,20710,6,0,C|384:144,1,112.5
296,144,21358,1,0
216,144,21574,2,0,C|88:144,1,112.5
0,144,22221,1,0
0,64,22437,1,2
184,64,22869,1,2
256,208,23300,1,4
0,360,24163,6,0,C|128:360,1,112.5
216,360,24811,1,0
296,360,25027,2,0,C|424:360,1,112.5
512,360,25674,1,0
512,280,25890,1,2
368,280,26322,1,2
216,280,26753,1,2
64,280,27185,1,2
0,144,27617,6,0,C|128:144,1,112.5
216,144,28265,1,0
296,144,28481,2,0,C|424:144,1,112.5
512,144,29128,1,0
512,64,29344,1,2
376,64,29776,1,2
256,208,30207,1,4
56,0,48336,6,2,B|160:232|376:168|424:80|448:24|464:-16,1,525,2|6
336,344,50926,1,0
176,344,51357,1,0
256,216,51789,1,0
256,64,52220,1,0
256,64,52436,1,4
480,24,53947,5,2
480,176,54379,1,2
480,328,54811,1,2
336,328,55242,2,0,B|384:296|464:184|376:88|320:64,1,300,4|0
174,73,56537,2,0,B|136:88|48:184|128:296|176:328,1,300,4|0
32,328,57832,5,2
32,176,58264,1,2
144,56,58695,1,2
256,176,59127,1,2
256,176,59559,1,6
512,336,60422,5,6
512,176,60854,1,2
512,32,61285,1,2
432,160,61717,1,6
456,0,62149,6,2,B|352:232|136:168|88:80|64:24|48:-16,1,525,2|6
176,344,64739,1,0
336,344,65170,1,0
256,216,65602,1,0
256,64,66033,1,0
256,64,66249,1,4
32,24,67760,5,2
32,176,68192,1,2
32,328,68624,1,2
176,328,69055,2,0,B|128:296|48:184|136:88|192:64,1,300,4|0
337,73,70350,2,0,B|376:88|464:184|384:296|336:328,1,300,4|0
480,328,71645,5,2
480,176,72077,1,2
368,56,72508,1,2
256,176,72940,1,2
256,176,73372,1,6
0,336,74235,5,2
0,176,74667,1,2
0,32,75098,1,2
80,160,75530,1,6
176,208,89774,5,10
336,208,90206,1,10
256,80,90638,1,10
256,80,90854,1,10
256,80,91069,1,10
256,248,91501,5,10
256,248,91717,1,10
256,248,91933,1,10
256,248,92149,1,14
96,248,92580,1,10
96,248,92796,1,12
8,96,93228,6,0,L|8:224,1,112.5
176,96,94091,2,0,L|176:224,1,112.5,0|0
344,96,94954,1,2
488,8,95386,1,2
488,176,95818,1,2
488,312,96249,1,0
328,312,96681,6,0,L|328:176,1,112.5
160,312,97544,1,2
8,312,97976,1,0
120,208,98408,1,2
256,128,98839,1,2
256,288,99271,1,4
256,288,99702,1,0
392,200,100134,6,0,L|392:64,1,112.5
224,200,100997,1,2
64,200,101429,1,2
168,88,101861,1,2
312,0,102292,2,2,L|312:160,1,150,2|4
48,360,103587,5,2
200,360,104019,1,2
352,360,104451,2,0,L|352:224,1,112.5
136,280,105314,1,2
256,152,105746,2,2,L|256:312,1,150,2|4
32,72,107041,6,0,B|264:-16|504:80,1,450,6|0
480,224,108767,2,0,B|248:136|8:232,1,450,6|0
32,72,110494,6,0,B|264:-16|504:80,1,450,6|0
336,152,112220,1,2
184,152,112652,1,2
256,280,113084,1,4
488,152,113947,5,0
408,8,114379,1,0
336,152,114810,1,0
256,8,115242,1,0
176,152,115674,1,2
104,8,116105,1,2
32,152,116537,1,2
104,288,116969,1,4
256,192,117400,12,4,120854
72,160,122364,5,2
184,272,122796,1,2
328,272,123228,1,2
328,272,123444,1,2
440,160,123875,1,8
456,0,124307,6,2,B|352:232|136:168|88:80|64:24|48:-16,1,525,2|6
176,344,126897,1,0
336,344,127328,1,0
256,216,127760,1,0
256,64,128191,1,0
256,64,128407,1,4
32,24,129918,5,2
32,176,130350,1,2
32,328,130782,1,2
176,328,131213,2,0,B|128:296|48:184|136:88|192:64,1,300,4|0
337,73,132508,2,0,B|376:88|464:184|384:296|336:328,1,300,4|0
480,328,133803,5,2
480,176,134235,1,2
368,56,134666,1,2
256,176,135098,1,2
256,176,135530,1,6
0,336,136393,5,6
0,176,136825,1,2
0,32,137256,1,2
80,160,137688,1,6
152,144,151933,6,2,B|192:272|336:304|488:144|376:8|240:0,1,525,2|6
256,360,154523,1,0
104,360,154954,1,0
32,224,155386,1,0
32,72,155818,1,0
88,8,156033,1,4
392,8,157544,5,2
464,144,157976,1,2
392,280,158408,1,0
256,360,158839,1,0
256,208,159271,1,0
128,280,159702,1,4
128,128,160134,1,0
256,56,160565,1,0
392,128,160997,1,4
392,280,161429,5,2
256,208,161861,1,2
128,280,162292,1,2
256,368,162724,1,2
256,368,163156,1,4
512,280,164019,5,6
448,144,164451,1,2
272,144,164882,1,2
360,280,165314,1,4
360,144,165746,6,2,B|320:272|176:304|24:144|136:8|272:0,1,525,2|6
256,360,168336,1,0
408,360,168767,1,0
480,224,169199,1,0
480,72,169631,1,0
424,8,169846,1,4
120,8,171357,5,2
48,144,171789,1,2
120,280,172221,1,0
256,360,172652,1,0
256,208,173084,1,0
384,280,173515,1,4
384,128,173947,1,0
256,56,174378,1,0
120,128,174810,1,4
256,192,175242,12,4,179127
