osu file format v12

[General]
AudioFilename: 05. PLANETARY REVOLUTION.mp3
AudioLeadIn: 0
PreviewTime: 89895
Countdown: 0
SampleSet: None
StackLeniency: 0.7
Mode: 1
LetterboxInBreaks: 1
WidescreenStoryboard: 0

[Editor]
Bookmarks: 60962,75059,90065,148045
DistanceSpacing: 0.7
BeatDivisor: 2
GridSize: 8
TimelineZoom: 1

[Metadata]
Title:Planetary Revolution
TitleUnicode:Planetary Revolution
Artist:ZYTOKINE
ArtistUnicode:ZYTOKINE
Creator:-Kyra-
Version:Futsuu
Source:Touhou
Tags:reiiuji,utsuho,nuclear,fusion,nuke,taiko,oku,zytokine,the leap,showdown
BeatmapID:438275
BeatmapSetID:182862

[Difficulty]
HPDrainRate:5
CircleSize:4
OverallDifficulty:3
ApproachRate:3
SliderMultiplier:1.2
SliderTickRate:1

[Events]
//Background and Video events
0,0,"Taiko_BG.png",0,0
//Break Periods
//Storyboard Layer 0 (Background)
//Storyboard Layer 1 (Fail)
//Storyboard Layer 2 (Pass)
//Storyboard Layer 3 (Foreground)
//Storyboard Sound Samples
//Background Colour Transformations
3,100,163,162,255

[TimingPoints]
1220,454.745454545455,4,1,0,100,1,0
31631,454.745454545455,4,1,0,100,1,0
104518,-100,4,1,0,100,0,1
115492,-100,4,1,0,100,0,0
119072,-100,4,1,0,100,0,1
133529,-100,4,1,0,100,0,0

[HitObjects]
256,192,2584,5,0,0:0:0:0:
256,184,3038,1,0,0:0:0:0:
264,176,3493,1,0,0:0:0:0:
264,176,3948,1,0,0:0:0:0:
264,176,4403,1,8,0:0:0:0:
256,176,4857,1,8,0:0:0:0:
256,176,5312,1,8,0:0:0:0:
256,176,5767,1,8,0:0:0:0:
256,176,6222,1,0,0:0:0:0:
264,176,6676,1,0,0:0:0:0:
272,176,7131,1,8,0:0:0:0:
264,176,7586,1,8,0:0:0:0:
264,176,8041,1,0,0:0:0:0:
264,176,8495,1,8,0:0:0:0:
264,176,8950,1,0,0:0:0:0:
264,176,9405,1,0,0:0:0:0:
264,176,9860,2,0,L|408:176,1,120
264,176,10769,2,0,L|128:176,1,120
264,176,11679,2,0,L|264:296,1,120
264,176,12588,2,0,L|264:40,2,120
256,192,13725,12,0,15772,0:0:0:0:
256,192,16226,5,4,0:0:0:0:
256,192,16681,1,4,0:0:0:0:
256,192,17136,1,8,0:0:0:0:
256,184,17590,1,8,0:0:0:0:
256,184,18045,1,8,0:0:0:0:
256,184,18500,1,8,0:0:0:0:
256,184,19409,1,0,0:0:0:0:
264,176,19864,1,8,0:0:0:0:
256,184,20319,1,0,0:0:0:0:
256,184,21228,1,0,0:0:0:0:
256,184,21683,1,0,0:0:0:0:
256,184,22138,1,0,0:0:0:0:
248,176,22593,1,8,0:0:0:0:
248,176,23047,1,8,0:0:0:0:
256,176,23502,1,0,0:0:0:0:
256,176,23957,1,0,0:0:0:0:
256,176,24866,1,8,0:0:0:0:
248,176,25321,1,8,0:0:0:0:
248,176,25776,1,8,0:0:0:0:
256,160,26685,1,0,0:0:0:0:
256,168,27140,1,0,0:0:0:0:
256,168,27594,1,0,0:0:0:0:
248,160,28504,1,8,0:0:0:0:
248,160,28959,1,8,0:0:0:0:
248,160,29414,1,8,0:0:0:0:
256,192,29641,12,0,30778,0:0:0:0:
256,192,31233,5,4,0:0:0:0:
256,192,31631,1,0,0:0:0:0:
264,192,32085,1,0,0:0:0:0:
264,192,32540,1,0,0:0:0:0:
264,192,32995,1,8,0:0:0:0:
264,192,33904,1,8,0:0:0:0:
264,192,34359,1,8,0:0:0:0:
272,192,34814,1,0,0:0:0:0:
272,192,35723,1,0,0:0:0:0:
272,192,36178,1,0,0:0:0:0:
272,192,36633,1,8,0:0:0:0:
288,184,37542,1,0,0:0:0:0:
288,184,37770,1,0,0:0:0:0:
288,184,37997,1,0,0:0:0:0:
288,184,38452,1,8,0:0:0:0:
288,184,39361,1,0,0:0:0:0:
304,184,39816,1,8,0:0:0:0:
304,184,40271,1,8,0:0:0:0:
304,184,41180,1,8,0:0:0:0:
304,184,41408,1,8,0:0:0:0:
304,184,41635,1,8,0:0:0:0:
304,184,42090,1,0,0:0:0:0:
296,184,42999,1,0,0:0:0:0:
296,184,43454,1,0,0:0:0:0:
296,184,43909,1,0,0:0:0:0:
256,192,44136,12,0,46182,0:0:0:0:
256,184,46637,5,4,0:0:0:0:
256,184,47092,1,4,0:0:0:0:
256,184,47547,1,4,0:0:0:0:
256,184,48001,1,2,0:0:0:0:
256,184,48456,1,2,0:0:0:0:
256,184,48911,1,2,0:0:0:0:
256,184,49366,1,10,0:0:0:0:
256,184,50275,1,0,0:0:0:0:
256,184,50730,1,0,0:0:0:0:
256,184,51185,1,0,0:0:0:0:
256,184,51639,1,0,0:0:0:0:
256,184,51867,1,2,0:0:0:0:
256,184,52094,1,0,0:0:0:0:
256,184,52549,1,8,0:0:0:0:
256,184,52776,1,0,0:0:0:0:
256,184,53004,1,8,0:0:0:0:
256,184,53458,1,0,0:0:0:0:
256,184,53913,1,0,0:0:0:0:
256,184,54368,1,0,0:0:0:0:
256,184,54823,1,0,0:0:0:0:
256,184,55732,1,8,0:0:0:0:
256,184,56187,1,8,0:0:0:0:
256,184,56642,1,8,0:0:0:0:
256,184,57096,1,0,0:0:0:0:
256,184,57324,1,0,0:0:0:0:
256,184,57551,1,0,0:0:0:0:
256,184,58006,1,0,0:0:0:0:
256,184,58233,1,0,0:0:0:0:
256,192,58461,1,0,0:0:0:0:
256,192,58688,12,0,60734,0:0:0:0:
248,192,61644,5,0,0:0:0:0:
248,192,61871,1,8,0:0:0:0:
248,192,62098,1,0,0:0:0:0:
256,192,62553,1,8,0:0:0:0:
248,192,62781,1,0,0:0:0:0:
248,192,63008,1,8,0:0:0:0:
248,192,63463,1,0,0:0:0:0:
248,192,63917,1,0,0:0:0:0:
248,192,64372,1,8,0:0:0:0:
248,192,64600,1,8,0:0:0:0:
248,192,65054,1,0,0:0:0:0:
248,192,65282,1,0,0:0:0:0:
248,192,65509,1,8,0:0:0:0:
248,192,65736,1,0,0:0:0:0:
240,192,66191,1,0,0:0:0:0:
240,192,66418,1,0,0:0:0:0:
240,192,66646,1,8,0:0:0:0:
240,192,66873,1,8,0:0:0:0:
240,192,67101,1,8,0:0:0:0:
240,192,67555,1,8,0:0:0:0:
248,192,68010,1,12,0:0:0:0:
248,192,68692,1,0,0:0:0:0:
248,192,68920,1,0,0:0:0:0:
248,192,69147,1,8,0:0:0:0:
248,192,69374,1,8,0:0:0:0:
248,192,69602,1,0,0:0:0:0:
248,192,69829,1,0,0:0:0:0:
248,192,70284,1,0,0:0:0:0:
248,192,70738,1,0,0:0:0:0:
248,192,71193,1,8,0:0:0:0:
256,192,71648,1,0,0:0:0:0:
256,192,71875,12,0,74831,0:0:0:0:
256,192,75286,5,8,0:0:0:0:
256,192,75513,1,8,0:0:0:0:
256,192,75741,1,0,0:0:0:0:
256,192,75968,1,8,0:0:0:0:
256,192,76196,1,0,0:0:0:0:
256,192,76650,1,4,0:0:0:0:
256,192,77105,1,4,0:0:0:0:
256,192,77560,1,4,0:0:0:0:
256,192,78015,1,0,0:0:0:0:
256,192,78242,1,2,0:0:0:0:
256,192,78469,1,0,0:0:0:0:
256,192,78924,1,8,0:0:0:0:
256,192,79379,1,8,0:0:0:0:
256,192,79834,1,8,0:0:0:0:
256,192,80288,1,0,0:0:0:0:
256,192,80516,1,8,0:0:0:0:
248,192,80743,1,0,0:0:0:0:
256,192,81198,1,12,0:0:0:0:
256,192,81653,1,12,0:0:0:0:
256,192,82107,1,12,0:0:0:0:
256,192,82562,1,0,0:0:0:0:
256,192,82789,1,0,0:0:0:0:
256,192,83017,1,8,0:0:0:0:
256,192,83244,1,8,0:0:0:0:
256,192,83926,1,0,0:0:0:0:
256,192,84154,1,0,0:0:0:0:
256,192,84381,1,0,0:0:0:0:
256,192,84836,1,8,0:0:0:0:
256,192,85291,1,0,0:0:0:0:
264,192,85745,1,0,0:0:0:0:
256,200,86200,2,0,L|520:200,4,240
256,192,90293,1,0,0:0:0:0:
256,192,90747,1,0,0:0:0:0:
256,192,91202,1,0,0:0:0:0:
256,192,91657,1,8,0:0:0:0:
248,192,92112,1,8,0:0:0:0:
248,192,92566,1,8,0:0:0:0:
256,192,93021,1,0,0:0:0:0:
248,192,93476,1,0,0:0:0:0:
248,192,93931,1,0,0:0:0:0:
256,192,94385,1,8,0:0:0:0:
248,192,94613,1,0,0:0:0:0:
248,192,94840,1,8,0:0:0:0:
248,192,95295,1,0,0:0:0:0:
248,192,95522,1,8,0:0:0:0:
248,192,95750,1,0,0:0:0:0:
248,192,96204,1,8,0:0:0:0:
248,192,96432,1,0,0:0:0:0:
248,192,96659,1,0,0:0:0:0:
248,192,97569,1,0,0:0:0:0:
248,192,98023,1,0,0:0:0:0:
248,192,98478,1,0,0:0:0:0:
248,192,98933,1,2,0:0:0:0:
248,192,99388,1,2,0:0:0:0:
248,192,99842,1,2,0:0:0:0:
248,192,100297,1,0,0:0:0:0:
248,192,100752,1,0,0:0:0:0:
256,200,101207,1,0,0:0:0:0:
256,200,101434,1,0,0:0:0:0:
256,200,101661,1,0,0:0:0:0:
256,200,102116,2,0,L|488:200,3,180
256,200,104390,1,4,0:0:0:0:
256,200,104845,1,8,0:0:0:0:
256,200,105072,1,8,0:0:0:0:
256,200,105299,1,0,0:0:0:0:
272,200,105527,1,8,0:0:0:0:
264,200,105981,1,0,0:0:0:0:
264,200,106436,1,0,0:0:0:0:
264,200,106891,1,0,0:0:0:0:
264,200,107346,1,0,0:0:0:0:
264,200,107573,1,8,0:0:0:0:
264,200,107800,1,0,0:0:0:0:
264,200,108028,1,8,0:0:0:0:
264,200,108482,1,0,0:0:0:0:
264,200,108710,1,8,0:0:0:0:
264,200,108937,1,8,0:0:0:0:
264,200,109165,1,0,0:0:0:0:
272,208,109847,1,0,0:0:0:0:
272,208,110301,1,0,0:0:0:0:
272,200,110756,1,12,0:0:0:0:
272,200,110983,1,12,0:0:0:0:
272,200,111211,1,12,0:0:0:0:
272,200,111438,1,12,0:0:0:0:
272,200,111666,1,0,0:0:0:0:
272,192,112575,1,0,0:0:0:0:
272,192,113030,1,0,0:0:0:0:
272,192,113484,1,0,0:0:0:0:
264,192,113712,1,8,0:0:0:0:
272,192,113939,1,8,0:0:0:0:
280,192,114394,1,0,0:0:0:0:
280,192,114622,1,0,0:0:0:0:
272,192,114849,1,8,0:0:0:0:
272,184,115304,1,0,0:0:0:0:
272,192,115531,1,8,0:0:0:0:
280,192,116213,1,8,0:0:0:0:
272,200,116441,1,0,0:0:0:0:
272,200,116668,2,0,L|24:200,3,240
248,192,119851,1,0,0:0:0:0:
248,192,120078,1,0,0:0:0:0:
240,192,120306,1,8,0:0:0:0:
248,192,120533,1,0,0:0:0:0:
248,192,121215,1,0,0:0:0:0:
248,192,121670,1,0,0:0:0:0:
248,192,122125,1,0,0:0:0:0:
248,184,122580,1,12,0:0:0:0:
240,192,123489,1,8,0:0:0:0:
240,192,123944,1,0,0:0:0:0:
248,192,124399,1,0,0:0:0:0:
248,192,124626,1,8,0:0:0:0:
248,192,124853,1,0,0:0:0:0:
240,192,125308,1,4,0:0:0:0:
240,192,125535,1,4,0:0:0:0:
240,192,125763,1,4,0:0:0:0:
240,192,125990,1,4,0:0:0:0:
240,192,126218,1,2,0:0:0:0:
240,200,127127,1,0,0:0:0:0:
240,200,127582,1,0,0:0:0:0:
240,200,128037,1,0,0:0:0:0:
240,192,128946,1,8,0:0:0:0:
240,192,129401,1,8,0:0:0:0:
248,192,129856,1,0,0:0:0:0:
240,192,130084,1,8,0:0:0:0:
248,192,130538,1,8,0:0:0:0:
248,192,130766,1,0,0:0:0:0:
248,192,131220,1,0,0:0:0:0:
248,192,131675,1,0,0:0:0:0:
248,192,132129,1,8,0:0:0:0:
248,192,132584,1,12,0:0:0:0:
248,192,132812,1,12,0:0:0:0:
248,192,133039,1,12,0:0:0:0:
248,192,133266,1,12,0:0:0:0:
256,192,133493,12,0,136222,0:0:0:0:
248,192,136449,5,8,0:0:0:0:
248,192,136677,1,0,0:0:0:0:
248,192,136904,1,8,0:0:0:0:
240,192,137586,1,0,0:0:0:0:
240,192,137814,1,0,0:0:0:0:
248,192,138041,1,8,0:0:0:0:
240,192,138268,1,0,0:0:0:0:
232,200,138496,1,8,0:0:0:0:
232,192,138723,1,4,0:0:0:0:
240,192,139405,1,0,0:0:0:0:
240,184,139633,1,0,0:0:0:0:
240,176,139860,1,12,0:0:0:0:
240,176,140087,1,12,0:0:0:0:
240,176,140315,1,12,0:0:0:0:
240,176,140542,1,12,0:0:0:0:
248,168,140769,1,0,0:0:0:0:
248,168,141224,1,0,0:0:0:0:
248,168,141452,1,0,0:0:0:0:
248,168,141679,1,8,0:0:0:0:
248,168,141906,1,0,0:0:0:0:
248,168,142134,1,8,0:0:0:0:
248,168,142361,1,0,0:0:0:0:
248,168,143043,1,2,0:0:0:0:
248,168,143271,1,2,0:0:0:0:
248,168,143498,1,0,0:0:0:0:
248,168,143725,1,2,0:0:0:0:
248,168,143953,1,0,0:0:0:0:
248,168,144180,1,2,0:0:0:0:
248,168,144407,1,0,0:0:0:0:
248,160,144862,1,0,0:0:0:0:
248,160,145090,1,0,0:0:0:0:
248,160,145317,1,0,0:0:0:0:
240,160,145544,1,2,0:0:0:0:
248,160,145999,1,0,0:0:0:0:
248,160,146226,1,0,0:0:0:0:
248,160,147136,1,12,0:0:0:0:
248,160,147363,1,12,0:0:0:0:
248,160,147591,1,12,0:0:0:0:
248,160,147818,1,12,0:0:0:0:
248,160,148045,1,0,0:0:0:0:
