osu file format v14

[General]
AudioFilename: Resurrection Spell.mp3
AudioLeadIn: 0
PreviewTime: 102040
Countdown: 0
SampleSet: Normal
StackLeniency: 0.7
Mode: 2
LetterboxInBreaks: 1
WidescreenStoryboard: 0

[Editor]
Bookmarks: 25542
DistanceSpacing: 1.3
BeatDivisor: 4
GridSize: 16
TimelineZoom: 1

[Metadata]
Title:Resurrection Spell
TitleUnicode:Resurrection Spell
Artist:ZUN remixed by LeaF
ArtistUnicode:ZUN remixed by LeaF
Creator:osu_gangster
Version:Hourai Doll
Source:
Tags:fujiwara no mokou fuziwara imperishable night eiyashou 08 reach for the moon, immortal smoke
BeatmapID:696566
BeatmapSetID:311925

[Difficulty]
HPDrainRate:5
CircleSize:4
OverallDifficulty:9.5
ApproachRate:9.5
SliderMultiplier:2.2
SliderTickRate:1

[Events]
//Background and Video events
0,0,"bg.jpg",0,0
//Break Periods
//Storyboard Layer 0 (Background)
//Storyboard Layer 1 (Fail)
//Storyboard Layer 2 (Pass)
//Storyboard Layer 3 (Foreground)
//Storyboard Sound Samples

[TimingPoints]
2708,666.666666666667,4,2,0,60,1,0
10874,-100,4,2,0,10,0,0
11041,-100,4,2,0,15,0,0
11208,-100,4,2,0,20,0,0
11374,-100,4,2,0,25,0,0
11541,-100,4,2,0,30,0,0
11708,-100,4,2,0,35,0,0
11874,-100,4,2,0,40,0,0
12374,-100,4,2,0,45,0,0
12708,-100,4,2,0,50,0,0
12874,-100,4,2,0,55,0,0
13041,-100,4,2,0,60,0,0
13208,-100,4,2,0,5,0,0
13376,600,4,1,0,50,1,0
15776,576.923076923077,4,1,0,50,1,0
18083,555.555555555556,4,1,0,60,1,0
20305,535.714285714286,4,1,0,60,1,0
21376,333.333333333333,4,1,0,60,1,0
23376,333.333333333333,4,1,0,60,1,0
25709,-50,4,1,0,60,0,0
25959,-50,4,2,0,5,0,0
26041,333.333333333333,4,1,0,80,1,1
26374,-100,4,1,0,80,0,0
46040,-83.3333333333333,4,1,0,80,0,0
47374,-125,4,1,1,70,0,0
54040,-83.3333333333333,4,1,1,70,0,0
54207,-83.3333333333333,4,1,1,5,0,0
54263,-83.3333333333333,4,1,1,70,0,0
54429,-83.3333333333333,4,1,1,5,0,0
54485,-83.3333333333333,4,1,1,70,0,0
54652,-83.3333333333333,4,1,1,5,0,0
54707,-100,4,1,1,70,0,0
64707,-83.3333333333333,4,1,1,70,0,0
64874,-83.3333333333333,4,1,1,5,0,0
64929,-83.3333333333333,4,1,1,70,0,0
65096,-83.3333333333333,4,1,1,5,0,0
65152,-83.3333333333333,4,1,1,70,0,0
65318,-83.3333333333333,4,1,1,5,0,0
65374,-100,4,1,1,70,0,0
68707,-125,4,2,0,75,0,0
74040,-111.111111111111,4,2,1,80,0,0
78040,-111.111111111111,4,2,1,60,0,0
79374,-100,4,1,1,80,0,0
90540,-100,4,2,1,5,0,0
90707,-83.3333333333333,4,1,0,80,0,0
91374,-133.333333333333,4,2,1,70,0,0
96707,-100,4,2,0,80,0,0
100707,-83.3333333333333,4,1,0,80,0,0
101707,-100,4,1,0,70,0,0
102040,-90.9090909090909,4,1,0,80,0,1
110040,-76.9230769230769,4,1,0,80,0,1
112709,461.538461538462,4,2,0,80,1,0
118247,-90.9090909090909,4,2,0,60,0,0
120093,-133.333333333333,4,1,1,70,0,0
121939,428.571428571429,4,1,1,70,1,0
123653,400,4,1,1,75,1,0
125253,375,4,1,1,75,1,0
126753,352.941176470588,4,1,1,80,1,0
128164,333.333333333333,4,1,1,80,1,0
129497,315.789473684211,4,1,1,80,1,0
130760,300,4,1,1,80,1,0
133760,-100,4,1,1,80,0,0
135560,-86.9565217391304,4,1,1,80,0,0
135860,-76.9230769230769,4,1,1,80,0,0
136085,-200,4,1,1,80,0,0
136160,-200,4,2,1,5,0,0
136760,600,4,1,0,80,1,0

[Colours]
Combo1 : 255,0,128
Combo2 : 128,0,0
Combo3 : 0,0,160
Combo4 : 128,64,64

[HitObjects]
80,240,2041,5,0,0:0:0:0:
192,240,2374,1,0,0:0:0:0:
304,224,2708,2,0,L|336:224,2,18.3333333333333,2|0|2,0:0|0:0|0:0,0:0:0:0:
112,144,4041,6,0,L|80:144,2,18.3333333333333,2|0|2,0:0|0:0|0:0,0:0:0:0:
224,160,4374,1,0,0:0:0:0:
336,160,4708,1,0,0:0:0:0:
480,336,5374,6,0,L|512:336,2,18.3333333333333,2|0|2,0:0|0:0|0:0,0:0:0:0:
256,304,7041,1,0,0:0:0:0:
64,288,7374,1,0,0:0:0:0:
384,240,7708,1,0,0:0:0:0:
32,320,8041,6,0,L|0:320,2,18.3333333333333,2|0|2,0:0|0:0|0:0,0:0:0:0:
256,272,8708,1,0,0:0:0:0:
480,320,9374,2,0,L|512:320,2,18.3333333333333,2|0|2,0:0|0:0|0:0,0:0:0:0:
256,272,10041,1,0,0:0:0:0:
32,320,10708,2,0,L|0:320,2,18.3333333333333,2|0|2,0:0|0:0|0:0,0:0:0:0:
256,192,10874,12,0,13208,0:0:0:0:
128,288,13376,6,0,L|160:160,1,110,2|0,0:2|0:0,0:0:0:0:
384,96,13976,2,0,L|352:224,1,110
128,224,14576,1,2,0:2:0:0:
384,160,14876,1,0,0:0:0:0:
32,192,15176,2,0,L|144:128,1,110
480,192,15776,6,0,L|368:256,1,110,2|0,0:2|0:0,0:0:0:0:
80,256,16352,1,0,0:0:0:0:
432,128,16641,1,0,0:0:0:0:
32,192,16929,2,0,L|144:256,1,110,2|0,0:2|0:0,0:0:0:0:
432,256,17505,1,0,0:0:0:0:
80,128,17794,1,0,0:0:0:0:
368,224,18083,6,0,P|448:208|464:144,1,110,4|0,0:2|0:0,0:0:0:0:
144,224,18638,2,0,P|64:208|48:144,1,110,4|0,0:2|0:0,0:0:0:0:
416,288,19194,2,0,P|448:256|464:192,1,110,4|0,0:2|0:0,0:0:0:0:
96,288,19749,2,0,P|64:256|48:192,1,110,4|0,0:2|0:0,0:0:0:0:
432,240,20305,5,4,0:2:0:0:
80,240,20572,1,4,0:2:0:0:
480,224,20840,1,4,0:2:0:0:
32,224,21108,1,4,0:2:0:0:
496,216,21376,1,4,0:2:0:0:
256,192,21459,12,0,23042,0:0:0:0:
144,224,23209,6,2,L|208:224,1,55,2|2,0:2|0:2,0:2:0:0:
400,256,23375,1,2,0:2:0:0:
432,272,23709,1,8,0:2:0:0:
448,272,23876,2,2,L|384:272,1,55,2|2,0:2|0:2,0:2:0:0:
192,304,24042,5,2,0:2:0:0:
160,320,24376,1,8,0:2:0:0:
128,320,24542,2,2,L|192:320,1,55,2|2,0:2|0:2,0:2:0:0:
416,352,24709,5,2,0:2:0:0:
432,304,24959,1,2,0:2:0:0:
400,288,25209,1,2,0:2:0:0:
448,272,25375,2,0,L|432:208,1,55
256,256,25542,2,0,L|272:192,1,55
464,192,25709,2,0,P|368:160|128:208,1,330,8|0,0:0|0:0,0:0:0:0:
80,224,26041,6,0,L|16:224,1,55,4|0,0:0|0:0,0:0:0:0:
224,240,26207,2,0,L|288:240,1,55
288,240,26374,2,0,L|224:240,1,55
80,224,26541,2,0,L|16:224,1,55
16,224,26708,6,0,L|80:224,1,55
304,240,26874,2,0,L|240:240,1,55
208,224,27041,2,0,L|272:224,1,55
496,240,27207,2,0,L|432:240,1,55
256,208,27374,6,0,L|320:208,1,55
496,240,27541,2,0,L|432:240,1,55
240,208,27707,2,0,L|304:208,1,55
480,240,27874,2,0,L|416:240,1,55
144,272,28040,5,0,0:0:0:0:
112,240,28124,1,0,0:0:0:0:
112,192,28207,1,0,0:0:0:0:
144,160,28290,1,0,0:0:0:0:
208,144,28374,2,0,L|272:144,1,55
64,144,28540,2,0,L|0:144,1,55
256,272,28707,5,0,0:0:0:0:
288,240,28791,1,0,0:0:0:0:
288,192,28874,1,0,0:0:0:0:
256,160,28957,1,0,0:0:0:0:
192,144,29041,2,0,L|128:144,1,55
336,144,29207,2,0,L|400:144,1,55
160,192,29374,6,0,L|128:240,1,55
144,208,29540,2,0,L|112:256,1,55
336,256,29708,2,0,L|368:304,1,55
352,272,29874,2,0,L|384:320,1,55
160,192,30040,6,0,L|128:240,1,55
336,256,30207,2,0,L|368:304,1,55
144,208,30374,2,0,L|112:256,1,55
352,272,30540,2,0,L|384:320,1,55
160,304,30706,5,0,0:0:0:0:
128,272,30790,1,0,0:0:0:0:
128,224,30873,1,0,0:0:0:0:
160,192,30956,1,0,0:0:0:0:
208,176,31040,2,0,L|272:176,1,55
80,176,31206,2,0,L|16:176,1,55
336,160,31374,6,0,L|368:112,1,55
448,96,31540,2,0,L|416:48,1,55
144,176,31707,2,0,L|176:128,1,55
256,112,31873,2,0,L|224:64,1,55
64,128,32040,5,0,0:0:0:0:
48,160,32124,1,0,0:0:0:0:
64,192,32207,1,0,0:0:0:0:
96,208,32290,1,0,0:0:0:0:
240,240,32374,2,0,L|320:224,1,55
96,256,32540,2,0,L|32:256,1,55
336,240,32707,6,0,L|368:192,1,55
384,192,32874,2,0,L|352:144,1,55
176,144,33040,2,0,L|144:192,1,55
128,192,33207,2,0,L|160:240,1,55
384,256,33374,5,0,0:0:0:0:
400,224,33457,1,0,0:0:0:0:
400,192,33540,1,0,0:0:0:0:
384,160,33624,1,0,0:0:0:0:
128,128,33707,1,0,0:0:0:0:
112,160,33790,1,0,0:0:0:0:
112,192,33873,1,0,0:0:0:0:
128,224,33957,1,0,0:0:0:0:
384,224,34040,6,0,L|400:288,1,55
176,256,34207,2,0,L|160:320,1,55
304,240,34374,2,0,L|320:304,1,55
96,272,34541,2,0,L|80:336,1,55
240,224,34707,6,0,L|256:288,1,55
448,256,34874,2,0,L|432:320,1,55
144,256,35040,2,0,L|160:320,1,55
480,288,35207,2,0,L|464:352,1,55
160,192,35374,6,0,L|112:144,3,55,2|0|2|2,0:2|2:0|0:2|0:2,0:0:0:0:
352,192,35707,2,0,L|400:144,3,55,2|0|2|2,0:2|2:0|0:2|0:2,0:0:0:0:
160,240,36040,6,2,L|48:256,2,73.3333333333333,2|2|2,0:2|0:2|0:2,0:2:0:0:
272,240,36374,2,0,L|336:240,1,55,2|0,0:2|0:0,0:0:0:0:
416,240,36540,2,0,L|496:240,1,55,2|0,2:2|0:0,0:0:0:0:
160,256,36707,6,0,L|96:208,1,55
192,208,36874,2,0,L|256:160,1,55
64,176,37040,2,0,L|0:128,1,55
96,128,37207,2,0,L|160:80,1,55
352,256,37374,6,0,L|416:208,1,55
320,208,37541,2,0,L|256:160,1,55
448,176,37707,2,0,L|512:128,1,55
416,128,37874,2,0,L|352:80,1,55
160,288,38040,6,0,L|80:288,1,55
96,288,38207,2,0,L|176:288,1,55
352,288,38374,2,0,L|432:288,1,55
416,288,38541,2,0,L|336:288,1,55
160,288,38707,6,0,L|80:288,1,55
352,288,38874,2,0,L|432:288,1,55
128,336,39040,2,0,L|80:304,1,55
384,336,39207,2,0,L|432:304,1,55
144,272,39374,5,0,0:0:0:0:
96,224,39457,1,0,0:0:0:0:
96,160,39540,1,0,0:0:0:0:
128,96,39624,1,0,0:0:0:0:
192,64,39707,1,0,0:0:0:0:
256,48,39790,1,0,0:0:0:0:
320,64,39874,2,0,L|384:112,1,55
160,176,40040,6,0,L|96:128,1,55
336,64,40207,2,0,L|400:112,1,55
144,176,40374,1,0,0:0:0:0:
160,112,40457,1,0,0:0:0:0:
208,64,40540,1,0,0:0:0:0:
272,48,40624,1,0,0:0:0:0:
336,64,40707,6,0,L|384:96,1,55
160,128,40874,2,0,L|112:96,1,55
352,64,41040,2,0,L|384:112,1,55
176,128,41207,2,0,L|144:80,1,55
384,48,41374,5,0,0:0:0:0:
432,112,41457,1,0,0:0:0:0:
416,176,41540,1,0,0:0:0:0:
352,208,41624,1,0,0:0:0:0:
288,224,41707,2,0,L|208:240,1,55
432,256,41874,2,0,L|512:240,1,55
192,304,42040,5,0,0:0:0:0:
128,288,42124,1,0,0:0:0:0:
80,240,42207,1,0,0:0:0:0:
64,176,42290,1,0,0:0:0:0:
80,112,42374,2,0,L|144:80,1,55
432,272,42540,2,0,L|368:304,1,55
144,336,42707,5,0,0:0:0:0:
96,288,42790,1,0,0:0:0:0:
64,224,42874,1,0,0:0:0:0:
64,160,42957,1,0,0:0:0:0:
96,96,43040,2,0,L|160:64,1,55
416,288,43207,2,0,L|352:320,1,55
64,128,43374,6,0,L|128:96,1,55
448,256,43540,2,0,L|384:288,1,55
336,240,43707,1,0,0:0:0:0:
304,176,43790,1,0,0:0:0:0:
320,112,43874,1,0,0:0:0:0:
368,64,43957,1,0,0:0:0:0:
432,48,44040,6,0,L|496:64,1,55
80,48,44207,2,0,L|16:64,1,55
32,128,44374,1,0,0:0:0:0:
64,192,44457,1,0,0:0:0:0:
112,240,44540,1,0,0:0:0:0:
176,256,44624,1,0,0:0:0:0:
240,256,44707,6,0,L|256:176,1,55,4|0,0:2|0:0,0:0:0:0:
272,128,44874,2,0,L|256:208,1,55
224,256,45040,2,0,L|256:176,1,55
288,128,45207,2,0,L|256:208,1,55
112,288,45374,6,0,L|128:208,1,55,4|0,0:2|0:0,0:0:0:0:
400,96,45540,2,0,L|384:176,1,55
96,288,45707,2,0,L|128:208,1,55
416,96,45874,2,0,L|384:176,1,55
160,208,46040,6,2,L|48:208,2,87.9999973144532,2|2|2,0:2|0:2|0:2,0:2:0:0:
352,208,46374,2,2,L|464:208,2,87.9999973144532,2|2|2,0:2|0:2|0:2,0:2:0:0:
112,272,46707,2,0,L|32:288,1,65.9999979858399
400,272,46874,2,0,L|480:288,1,65.9999979858399
192,320,47040,2,0,P|112:320|64:240,1,131.99999597168
160,208,47374,6,0,P|224:176|320:176,1,132
320,192,47707,2,0,L|304:304,1,88,8|0,0:0|0:0,0:0:0:0:
176,304,48040,1,0,0:0:0:0:
432,336,48207,1,0,0:0:0:0:
448,304,48290,1,0,0:0:0:0:
432,256,48374,2,0,P|416:208|384:176,1,88,8|0,0:0|0:0,0:0:0:0:
128,160,48707,5,0,0:0:0:0:
208,192,48874,1,0,0:0:0:0:
128,224,49040,2,0,P|96:272|32:224,1,132,8|0,0:0|0:0,0:0:0:0:
64,208,49374,2,0,L|112:112,1,88
448,176,49707,2,0,L|400:272,1,88,8|0,0:0|0:0,0:0:0:0:
160,304,50040,6,0,L|48:320,1,88
208,304,50374,2,0,L|96:320,1,88,8|0,0:0|0:0,0:0:0:0:
240,304,50707,2,0,L|160:320,2,44
416,288,51040,2,0,P|464:240|448:192,1,88,8|0,0:0|0:0,0:0:0:0:
96,96,51374,6,0,P|48:144|64:192,1,88
224,208,51707,2,0,P|256:160|192:64,1,176,8|0,0:0|0:0,0:0:0:0:
160,80,52290,1,0,0:0:0:0:
352,96,52374,2,0,L|448:80,1,88,8|0,0:0|0:0,0:0:0:0:
352,240,52707,6,0,P|304:288|256:288,1,88,4|0,0:0|0:0,0:0:0:0:
208,272,53040,1,8,0:0:0:0:
128,288,53207,1,0,0:0:0:0:
48,240,53374,2,0,P|32:176|64:144,1,88
80,144,53624,1,0,0:0:0:0:
128,144,53707,2,0,P|144:208|112:240,1,88,8|0,0:0|0:0,0:0:0:0:
208,224,54040,6,0,L|48:240,1,131.99999597168,8|0,0:0|0:0,0:0:0:0:
320,224,54263,6,0,L|480:240,1,131.99999597168,8|0,0:0|0:0,0:0:0:0:
192,224,54485,6,0,L|32:240,1,131.99999597168,8|0,0:0|0:0,0:0:0:0:
416,320,54707,6,0,P|496:304|416:208,1,220,12|0,0:0|0:0,0:0:0:0:
304,224,55207,1,0,0:0:0:0:
192,256,55374,6,0,L|80:240,1,110,2|0,0:2|0:0,0:0:0:0:
176,240,55707,1,8,0:0:0:0:
32,224,55874,1,0,0:0:0:0:
320,256,56040,6,0,L|432:240,1,110,2|0,0:2|0:0,0:0:0:0:
336,240,56373,1,8,0:0:0:0:
480,224,56540,1,0,0:0:0:0:
112,304,56707,6,0,P|64:256|0:240,1,110,8|0,0:0|0:0,0:0:0:0:
400,304,57040,2,0,P|448:256|512:240,1,110,8|0,0:0|0:0,0:0:0:0:
128,256,57374,5,8,0:0:0:0:
384,128,57540,1,8,0:0:0:0:
80,256,57707,1,8,0:0:0:0:
432,128,57874,1,8,0:0:0:0:
16,176,58040,6,0,P|80:208|144:192,1,110
368,192,58374,2,0,P|304:160|240:176,1,110,8|0,0:0|0:0,0:0:0:0:
96,288,58707,1,0,0:0:0:0:
320,272,58874,2,0,L|352:224,1,55
400,192,59040,2,0,P|336:160|288:176,1,110,8|0,0:0|0:0,0:0:0:0:
32,176,59374,6,0,P|48:240|96:256,1,110
192,272,59707,2,0,P|224:224|144:160,1,165,8|0,0:0|0:0,0:0:0:0:
112,144,60040,2,0,P|80:80|112:48,1,110
400,240,60374,2,0,P|432:304|400:336,1,110,8|0,0:0|0:0,0:0:0:0:
208,272,60707,6,0,P|128:272|96:288,1,110
336,288,61040,2,0,P|416:288|448:304,1,110,8|0,0:0|0:0,0:0:0:0:
144,288,61374,2,0,L|80:288,2,55
384,304,61707,2,0,P|464:304|496:320,1,110,8|0,0:0|0:0,0:0:0:0:
32,320,62040,6,0,P|80:304|144:304,1,110
240,336,62374,2,0,P|272:272|160:224,1,220,8|0,0:0|0:0,0:0:0:0:
144,224,62957,1,0,0:0:0:0:
368,240,63040,2,0,P|432:224|448:176,1,110,8|0,0:0|0:0,0:0:0:0:
352,128,63374,6,0,P|288:112|208:128,1,110,4|0,0:0|0:0,0:0:0:0:
144,144,63707,1,8,0:0:0:0:
256,160,63874,1,0,0:0:0:0:
144,176,64040,2,0,P|80:192|32:192,1,110
368,208,64374,2,0,P|432:192|480:192,1,110,8|0,0:0|0:0,0:0:0:0:
480,160,64707,6,0,L|320:144,1,131.99999597168,8|0,0:0|0:0,0:0:0:0:
32,160,64929,6,0,L|192:144,1,131.99999597168,8|0,0:0|0:0,0:0:0:0:
464,160,65152,6,0,L|304:144,1,131.99999597168,8|0,0:0|0:0,0:0:0:0:
144,128,65374,6,0,P|208:128|128:64,1,220,12|0,0:0|0:0,0:0:0:0:
48,80,65874,1,0,0:0:0:0:
320,240,66040,6,0,L|384:144,2,110,4|0|8,0:0|0:0|0:0,0:0:0:0:
192,240,66540,1,0,0:0:0:0:
368,240,66707,6,0,L|464:160,2,110,4|0|8,0:0|0:0|0:0,0:0:0:0:
144,240,67207,1,0,0:0:0:0:
432,256,67374,6,0,P|496:256|512:208,1,110,8|0,0:0|0:0,0:0:0:0:
80,256,67707,2,0,P|16:256|0:208,1,110,8|0,0:0|0:0,0:0:0:0:
336,272,68040,6,0,L|320:208,1,55,8|0,0:0|0:0,0:0:0:0:
176,272,68207,2,0,L|160:208,1,55,8|0,0:0|0:0,0:0:0:0:
416,272,68374,2,0,L|368:224,1,55,8|0,0:0|0:0,0:0:0:0:
96,272,68540,2,0,L|48:224,1,55,8|0,0:0|0:0,0:0:0:0:
208,96,68707,5,0,1:0:0:0:
272,96,68818,1,0,0:0:0:0:
336,112,68929,1,0,0:0:0:0:
384,160,69040,1,0,0:0:0:0:
400,224,69152,1,0,0:0:0:0:
384,288,69263,1,0,0:0:0:0:
336,336,69374,5,0,1:0:0:0:
272,352,69485,1,0,0:0:0:0:
208,352,69596,1,0,0:0:0:0:
160,336,69707,1,0,0:0:0:0:
128,288,69818,1,0,0:0:0:0:
128,224,69929,1,0,0:0:0:0:
160,176,70040,6,0,L|176:112,2,58.6666666666667,0|0|0,1:0|0:0|0:0,0:0:0:0:
368,208,70374,2,0,L|352:144,2,58.6666666666667
112,208,70707,2,0,L|128:144,2,58.6666666666667,0|0|0,1:0|0:0|0:0,0:0:0:0:
320,240,71041,2,0,L|304:176,2,58.6666666666667
144,336,71374,5,0,1:0:0:0:
96,304,71485,1,0,0:0:0:0:
64,256,71596,1,0,0:0:0:0:
48,192,71707,1,0,0:0:0:0:
64,128,71818,1,0,0:0:0:0:
96,80,71929,1,0,0:0:0:0:
160,64,72040,5,0,1:0:0:0:
224,80,72152,1,0,0:0:0:0:
272,112,72263,1,0,0:0:0:0:
320,144,72374,1,0,0:0:0:0:
384,160,72485,1,0,0:0:0:0:
448,144,72596,1,0,0:0:0:0:
496,112,72707,6,0,L|480:32,2,58.6666666666667,0|0|0,1:0|0:0|0:0,0:0:0:0:
256,112,73040,2,0,L|272:32,2,58.6666666666667,0|0|0,1:0|0:0|0:0,0:0:0:0:
448,112,73374,2,0,L|432:32,2,58.6666666666667,0|0|0,1:0|0:0|1:0,0:0:0:0:
144,112,73707,2,0,L|160:32,2,58.6666666666667,0|0|0,1:0|0:0|1:0,0:0:0:0:
464,192,74040,5,4,1:2:0:0:
368,192,74152,1,0,0:0:0:0:
272,192,74263,1,8,1:0:0:0:
208,112,74374,5,0,1:0:0:0:
336,112,74485,1,0,0:0:0:0:
464,112,74596,1,8,1:0:0:0:
496,192,74707,5,0,1:2:0:0:
320,192,74818,1,0,0:0:0:0:
144,192,74929,1,8,1:0:0:0:
128,128,75040,5,0,1:0:0:0:
320,128,75152,1,0,0:0:0:0:
512,128,75263,1,8,1:0:0:0:
448,64,75374,6,0,L|368:64,2,65.9999979858399,0|0|8,1:0|0:0|1:0,0:0:0:0:
192,112,75707,2,0,L|112:112,2,65.9999979858399,0|0|8,1:0|0:0|1:0,0:0:0:0:
320,112,76040,2,0,L|400:112,2,65.9999979858399,0|0|8,1:0|0:0|1:0,0:0:0:0:
64,64,76374,2,0,L|144:64,2,65.9999979858399,0|0|8,1:0|0:0|1:0,0:0:0:0:
320,64,76707,5,0,1:0:0:0:
448,64,76818,1,0,0:0:0:0:
480,192,76929,1,8,1:0:0:0:
256,64,77040,5,0,1:0:0:0:
448,64,77151,1,0,0:0:0:0:
488,192,77262,1,8,1:0:0:0:
192,64,77374,5,0,1:0:0:0:
416,64,77485,1,0,0:0:0:0:
480,192,77596,1,8,1:0:0:0:
128,64,77707,5,0,1:0:0:0:
448,96,77818,1,0,0:0:0:0:
480,192,77929,1,8,1:0:0:0:
128,320,78040,5,8,0:0:0:0:
160,288,78152,1,0,0:0:0:0:
136,268,78263,1,8,0:0:0:0:
332,240,78374,5,8,0:0:0:0:
368,232,78485,1,0,0:0:0:0:
392,248,78596,1,8,0:0:0:0:
216,232,78707,5,0,0:0:0:0:
344,212,78818,1,0,0:0:0:0:
424,228,78929,1,0,0:0:0:0:
256,184,79041,5,8,0:0:0:0:
64,168,79152,1,0,0:0:0:0:
36,200,79263,1,0,0:0:0:0:
416,320,79374,6,0,L|480:320,1,55
240,320,79540,2,0,L|304:320,1,55,8|0,0:0|0:0,0:0:0:0:
272,320,79707,2,0,L|208:320,1,55
416,320,79874,2,0,L|480:320,1,55,8|0,0:0|0:0,0:0:0:0:
272,320,80040,6,0,L|208:320,1,55
240,320,80207,2,0,L|304:320,1,55,8|0,0:0|0:0,0:0:0:0:
96,320,80374,2,0,L|32:320,1,55
416,320,80540,2,0,L|480:320,1,55,8|0,0:0|0:0,0:0:0:0:
192,304,80707,5,0,0:0:0:0:
128,288,80790,1,0,0:0:0:0:
80,224,80874,1,8,0:0:0:0:
80,160,80957,1,0,0:0:0:0:
128,96,81040,1,0,0:0:0:0:
192,64,81124,1,0,0:0:0:0:
256,48,81207,1,8,0:0:0:0:
320,64,81290,1,0,0:0:0:0:
384,96,81374,6,0,L|368:176,1,55
160,144,81540,2,0,L|176:224,1,55,8|0,0:0|0:0,0:0:0:0:
416,112,81707,2,0,L|400:192,1,55
192,160,81873,2,0,L|208:240,1,55,8|0,0:0|0:0,0:0:0:0:
416,320,82040,6,0,L|480:320,1,55
272,320,82206,2,0,L|208:320,1,55,8|0,0:0|0:0,0:0:0:0:
240,320,82373,2,0,L|304:320,1,55
96,320,82540,2,0,L|32:320,1,55,8|0,0:0|0:0,0:0:0:0:
240,320,82706,6,0,L|304:320,1,55
272,320,82873,2,0,L|208:320,1,55,8|0,0:0|0:0,0:0:0:0:
416,320,83040,2,0,L|480:320,1,55
96,320,83206,2,0,L|32:320,1,55,8|0,0:0|0:0,0:0:0:0:
320,272,83374,6,0,L|352:208,1,55
336,272,83540,2,0,L|368:208,1,55,8|0,0:0|0:0,0:0:0:0:
192,272,83707,2,0,L|160:208,1,55
176,272,83874,2,0,L|144:208,1,55,8|0,0:0|0:0,0:0:0:0:
368,240,84040,6,0,L|384:176,1,55
144,240,84207,2,0,L|128:176,1,55,8|0,0:0|0:0,0:0:0:0:
384,240,84374,2,0,L|400:176,1,55
128,240,84541,2,0,L|112:176,1,55,8|0,0:0|0:0,0:0:0:0:
448,208,84707,6,0,L|368:208,1,55
176,208,84874,2,0,L|96:208,1,55,8|0,0:0|0:0,0:0:0:0:
64,208,85040,2,0,L|144:208,1,55
336,208,85207,2,0,L|416:208,1,55,8|0,0:0|0:0,0:0:0:0:
448,208,85374,6,0,L|368:208,1,55
176,208,85541,2,0,L|96:208,1,55,8|0,0:0|0:0,0:0:0:0:
64,208,85707,2,0,L|144:208,1,55
336,208,85874,2,0,L|416:208,1,55,8|0,0:0|0:0,0:0:0:0:
448,176,86040,5,0,0:0:0:0:
432,112,86124,1,0,0:0:0:0:
384,64,86207,1,8,0:0:0:0:
320,48,86290,1,0,0:0:0:0:
64,208,86374,1,0,0:0:0:0:
80,272,86458,1,0,0:0:0:0:
128,320,86541,1,8,0:0:0:0:
192,336,86624,1,0,0:0:0:0:
368,320,86707,6,0,L|416:288,1,55
400,272,86874,2,0,L|336:272,1,55,8|0,0:0|0:0,0:0:0:0:
160,272,87040,2,0,L|105:272,1,55
96,288,87207,2,0,L|144:320,1,55,8|0,0:0|0:0,0:0:0:0:
448,208,87374,6,0,L|368:208,1,55
176,208,87541,2,0,L|96:208,1,55,8|0,0:0|0:0,0:0:0:0:
64,208,87707,2,0,L|144:208,1,55
336,208,87874,2,0,L|416:208,1,55,8|0,0:0|0:0,0:0:0:0:
448,208,88041,6,0,L|368:208,1,55
176,208,88208,2,0,L|96:208,1,55,8|0,0:0|0:0,0:0:0:0:
64,208,88374,2,0,L|144:208,1,55
336,208,88541,2,0,L|416:208,1,55,8|0,0:0|0:0,0:0:0:0:
112,256,88707,5,0,0:0:0:0:
64,256,88790,1,0,0:0:0:0:
48,208,88874,1,8,0:0:0:0:
96,208,88957,1,0,0:0:0:0:
288,224,89040,5,0,0:0:0:0:
336,224,89123,1,0,0:0:0:0:
352,176,89207,1,8,0:0:0:0:
304,176,89290,1,0,0:0:0:0:
80,160,89374,6,0,L|48:112,1,55
224,128,89540,2,0,L|256:80,1,55,8|0,0:0|0:0,0:0:0:0:
48,144,89707,2,0,L|16:96,1,55
384,112,89874,2,0,L|464:96,1,55,8|0,0:0|0:0,0:0:0:0:
256,192,90040,12,0,90540,0:0:0:0:
368,224,90707,6,0,L|288:224,1,65.9999979858399
144,272,90874,2,0,L|64:272,1,65.9999979858399
384,176,91040,1,8,0:0:0:0:
416,160,91374,6,0,P|448:192|400:256,1,123.750004720688,4|0,1:0|0:0,0:0:0:0:
384,272,91707,2,0,L|272:304,1,82.5000031471254
64,288,92040,1,8,1:0:0:0:
224,288,92207,1,0,0:0:0:0:
160,240,92374,2,0,P|128:192|112:160,1,82.5000031471254,0|0,0:0|1:0,0:0:0:0:
448,96,92707,6,0,P|464:160|416:224,1,123.750004720688,0|0,1:0|0:0,0:0:0:0:
352,224,93040,2,0,P|336:160|384:96,1,123.750004720688,0|0,1:0|0:0,0:0:0:0:
192,128,93374,2,0,L|96:144,1,82.5000031471254,8|0,1:0|1:0,0:0:0:0:
320,128,93707,2,0,L|416:144,1,82.5000031471254,0|0,1:0|1:0,0:0:0:0:
224,304,94040,6,0,P|144:320|112:288,1,123.750004720688,0|0,1:0|0:0,0:0:0:0:
192,288,94374,2,0,P|112:304|80:272,1,123.750004720688,0|0,1:0|0:0,0:0:0:0:
320,96,94707,2,0,P|400:80|432:112,1,123.750004720688,8|0,1:0|0:0,0:0:0:0:
144,112,95040,2,0,P|64:96|32:128,1,123.750004720688,0|0,1:0|0:0,0:0:0:0:
352,272,95374,6,0,P|384:240|352:176,1,123.750004720688,0|0,1:0|0:0,0:0:0:0:
320,160,95707,2,0,L|240:160|208:160,1,82.5000031471254
160,160,96040,1,8,1:0:0:0:
352,160,96207,1,0,1:0:0:0:
48,160,96374,1,0,1:0:0:0:
272,160,96541,1,0,1:0:0:0:
64,320,96707,6,0,L|80:256,7,55,6|0|2|2|0|0|0|0,1:2|0:0|1:2|1:2|0:0|0:0|0:0|0:0,0:0:0:0:
352,288,97374,6,0,L|336:224,7,55,2|2|2|2|0|0|0|0,1:2|1:2|1:2|1:2|0:0|0:0|0:0|0:0,0:0:0:0:
176,240,98040,6,2,L|160:176,1,55,2|2,1:2|1:2,1:2:0:0:
16,256,98207,2,2,L|0:192,1,55,2|0,1:2|0:0,1:2:0:0:
176,240,98374,6,2,L|192:176,2,55,2|0|2,1:2|0:0|1:2,1:2:0:0:
400,272,98624,2,2,L|384:208,2,55,2|0|2,1:2|0:0|1:2,1:2:0:0:
176,272,98874,2,2,L|160:208,1,55,2|0,1:2|0:0,1:2:0:0:
336,272,99040,2,2,L|352:208,3,55,6|0|0|0,1:2|0:0|0:0|0:0,1:2:0:0:
176,208,99374,6,0,L|144:144,1,55,4|0,1:0|0:0,0:0:0:0:
128,192,99540,2,0,L|160:128,1,55
336,208,99707,2,0,L|368:144,1,55,4|0,1:0|0:0,0:0:0:0:
384,192,99873,2,0,L|352:128,1,55
64,176,100040,6,0,L|96:112,1,55,4|0,1:0|0:0,0:0:0:0:
112,112,100207,2,0,L|176:112,1,55
448,176,100374,2,0,L|416:112,1,55,4|0,1:0|0:0,0:0:0:0:
400,112,100541,2,0,L|336:112,1,55
144,208,100707,5,2,0:2:0:0:
272,208,100818,1,2,0:2:0:0:
400,208,100929,1,2,0:2:0:0:
464,320,101040,1,2,0:2:0:0:
288,320,101152,1,2,0:2:0:0:
112,320,101263,1,2,0:2:0:0:
48,160,101374,1,0,0:0:0:0:
272,160,101485,1,2,0:2:0:0:
464,160,101596,1,2,0:2:0:0:
416,240,101707,6,0,L|408:208,7,27.5
288,272,102040,6,0,L|224:288,1,60.5000018463135
80,288,102207,2,0,L|16:304,1,60.5000018463135
224,272,102374,2,0,L|288:288,1,60.5000018463135
432,288,102541,2,0,L|496:304,1,60.5000018463135
288,272,102707,6,0,L|224:288,1,60.5000018463135
80,288,102874,2,0,L|16:304,1,60.5000018463135
224,272,103041,2,0,L|288:288,1,60.5000018463135
432,288,103208,2,0,L|496:304,1,60.5000018463135
208,240,103374,1,0,0:0:0:0:
144,256,103457,1,0,0:0:0:0:
96,224,103540,1,0,0:0:0:0:
80,160,103624,1,0,0:0:0:0:
112,112,103707,1,0,0:0:0:0:
160,96,103790,1,0,0:0:0:0:
224,112,103874,1,0,0:0:0:0:
288,112,103957,1,0,0:0:0:0:
352,96,104040,6,0,L|384:16,1,60.5000018463135
128,32,104207,2,0,L|160:96,1,60.5000018463135
416,96,104374,2,0,L|448:16,1,60.5000018463135
80,32,104540,2,0,L|112:96,1,60.5000018463135
416,192,104707,6,0,L|480:192,1,60.5000018463135
272,192,104874,2,0,L|208:192,1,60.5000018463135
240,192,105040,2,0,L|304:192,1,60.5000018463135
96,192,105207,2,0,L|32:192,1,60.5000018463135
416,192,105374,6,0,L|480:192,1,60.5000018463135
272,192,105541,2,0,L|208:192,1,60.5000018463135
256,192,105707,2,0,L|320:192,1,60.5000018463135
96,192,105874,2,0,L|32:192,1,60.5000018463135
336,208,106040,5,0,0:0:0:0:
384,176,106124,1,0,0:0:0:0:
416,128,106207,1,0,0:0:0:0:
432,64,106290,1,0,0:0:0:0:
80,64,106374,1,0,0:0:0:0:
96,128,106457,1,0,0:0:0:0:
128,176,106540,1,0,0:0:0:0:
176,208,106624,1,0,0:0:0:0:
416,224,106707,6,0,L|400:304,1,60.5000018463135
160,304,106874,2,0,L|176:384,1,60.5000018463135
352,304,107040,2,0,L|336:384,1,60.5000018463135
96,224,107207,2,0,L|112:304,1,60.5000018463135
448,224,107374,6,0,L|400:144,1,60.5000018463135,4|0,0:2|0:0,0:0:0:0:
176,224,107540,2,0,L|128:144,1,60.5000018463135
336,224,107707,2,0,L|288:144,1,60.5000018463135
64,224,107874,2,0,L|16:144,1,60.5000018463135
448,80,108040,6,0,L|432:160,1,60.5000018463135,4|0,0:2|0:0,0:0:0:0:
376,136,108207,2,0,L|360:216,1,60.5000018463135,0|0,0:2|0:0,0:0:0:0:
64,80,108374,2,0,L|80:160,1,60.5000018463135,0|0,0:2|0:0,0:0:0:0:
136,136,108540,2,0,L|152:216,1,60.5000018463135,0|0,0:2|0:0,0:0:0:0:
400,288,108707,6,0,L|464:272,1,60.5000018463135,2|0,0:2|2:0,0:0:0:0:
480,256,108874,2,0,L|416:240,1,60.5000018463135,2|2,0:2|0:2,0:0:0:0:
112,288,109040,2,0,L|48:272,1,60.5000018463135,2|0,0:2|2:0,0:0:0:0:
32,256,109207,2,0,L|96:240,1,60.5000018463135,2|2,0:2|0:2,0:0:0:0:
352,224,109374,6,2,L|432:224,2,80.6666691284181,2|2|2,0:2|0:2|0:2,0:2:0:0:
160,224,109707,6,2,L|96:224,1,60.5000018463135,2|0,0:2|2:0,0:2:0:0:
80,224,109874,2,2,L|144:224,1,60.5000018463135,2|0,0:2|2:0,0:2:0:0:
368,272,110040,6,2,L|464:272,2,95.3333289693199,2|2|2,0:2|0:2|0:2,0:2:0:0:
144,272,110374,2,2,L|48:272,2,95.3333289693199,2|2|2,0:2|0:2|0:2,0:2:0:0:
400,288,110707,2,2,L|496:288,2,95.3333289693199,2|2|2,0:2|0:2|0:2,0:2:0:0:
176,288,111040,2,0,L|96:288,1,71.4999967269899,2|0,0:2|0:0,0:0:0:0:
80,288,111207,2,0,L|160:288,1,71.4999967269899,2|0,0:2|0:0,0:0:0:0:
432,288,111374,6,0,L|360:248,1,71.4999967269899,2|0,0:2|0:0,0:0:0:0:
80,288,111540,2,0,L|152:248,1,71.4999967269899,2|0,0:2|0:0,0:0:0:0:
464,288,111707,6,0,L|384:288,1,71.4999967269899,2|0,0:2|0:0,0:0:0:0:
48,288,111874,2,0,L|128:288,1,71.4999967269899,2|0,0:2|0:0,0:0:0:0:
464,288,112040,6,0,L|480:224,5,47.6666644846599,2|0|2|0|2|0,0:2|0:0|0:2|0:0|0:2|0:0,0:0:0:0:
360,248,112374,6,0,L|312:248,7,35.749998363495
64,336,112709,6,0,P|32:288|48:224,1,110,6|0,0:0|0:0,0:0:0:0:
256,256,113170,1,0,0:0:0:0:
80,128,113401,1,0,0:0:0:0:
304,128,113632,2,2,P|368:144|432:112,1,110
208,128,114093,2,2,P|144:144|80:112,1,110,2|0,0:0|0:0,0:0:0:0:
400,304,114555,6,0,P|432:240|320:208,1,220,2|0,0:0|0:0,0:0:0:0:
304,240,115478,2,0,L|416:256,1,110,0|2,0:0|0:0,0:0:0:0:
96,256,115939,2,0,L|208:240,1,110,2|2,0:0|0:0,0:0:0:0:
384,208,116401,5,2,0:0:0:0:
128,208,116862,1,0,0:0:0:0:
448,208,117324,1,2,0:0:0:0:
64,208,117785,1,0,0:0:0:0:
384,160,118247,5,0,1:0:0:0:
368,192,118478,2,0,L|336:272,1,60.5000018463135
128,160,118709,1,0,1:0:0:0:
144,192,118940,2,0,L|176:272,1,60.5000018463135
464,176,119170,5,0,1:0:0:0:
448,208,119401,2,0,L|416:288,1,60.5000018463135
48,176,119632,1,0,1:0:0:0:
64,208,119863,2,0,L|96:288,1,60.5000018463135
448,208,120093,6,0,L|432:256,1,41.2500015735627,4|0,0:0|0:0,0:0:0:0:
304,240,120439,2,0,L|288:288,1,41.2500015735627,0|8,0:0|0:0,0:0:0:0:
160,272,120785,2,0,L|144:320,1,41.2500015735627
448,208,121016,6,0,L|432:256,1,41.2500015735627
304,240,121247,2,0,L|288:288,1,41.2500015735627
160,272,121478,1,8,0:0:0:0:
160,272,121709,2,0,L|144:320,1,41.2500015735627
352,224,121939,5,0,0:0:0:0:
400,192,122046,2,0,P|416:128|400:80,1,110
112,192,122367,2,0,P|96:256|112:304,1,110,8|0,0:0|0:0,0:0:0:0:
160,320,122689,1,0,0:0:0:0:
112,336,122796,2,0,L|48:336,1,55
400,336,123010,2,0,L|464:336,1,55
400,192,123224,2,0,P|416:128|400:80,1,110,8|0,0:0|0:0,0:0:0:0:
352,64,123546,1,0,0:0:0:0:
128,112,123653,6,0,L|160:240,1,110,4|0,0:2|0:0,0:0:0:0:
368,240,124053,1,8,0:0:0:0:
144,240,124253,1,0,0:0:0:0:
400,112,124453,2,0,L|368:240,1,110,4|0,0:2|0:0,0:0:0:0:
128,240,124853,1,8,0:0:0:0:
384,240,125053,1,0,0:0:0:0:
96,112,125253,6,0,L|128:240,1,110,4|0,0:2|0:0,0:0:0:0:
400,240,125628,1,8,0:0:0:0:
112,240,125815,1,0,0:0:0:0:
432,112,126003,2,0,L|400:240,1,110,4|0,0:2|0:0,0:0:0:0:
96,240,126378,1,8,0:0:0:0:
416,240,126565,1,0,0:0:0:0:
64,112,126753,6,0,L|96:240,1,110,4|8,0:2|0:0,0:0:0:0:
432,240,127105,1,0,0:0:0:0:
80,240,127282,1,8,0:0:0:0:
464,112,127458,6,0,L|432:240,1,110,4|8,0:2|0:0,0:0:0:0:
64,240,127811,1,0,0:0:0:0:
448,240,127987,1,8,0:0:0:0:
32,112,128164,6,0,L|64:240,1,110,4|8,0:2|0:0,0:0:0:0:
464,240,128497,1,0,0:0:0:0:
48,240,128664,1,8,0:0:0:0:
496,112,128830,6,0,L|464:240,1,110,4|8,0:2|0:0,0:0:0:0:
32,240,129163,1,0,0:0:0:0:
480,240,129330,1,8,0:0:0:0:
104,336,129497,6,0,P|48:320|24:240,1,110,12|8,0:2|0:0,0:0:0:0:
408,336,129970,2,0,P|464:320|488:240,1,110,8|8,0:2|0:0,0:0:0:0:
240,336,130444,1,8,0:0:0:0:
496,336,130602,1,8,0:0:0:0:
176,272,130760,6,0,P|128:224|128:160,1,110,12|0,0:0|2:0,0:0:0:0:
336,272,131060,2,0,P|384:224|384:160,1,110,12|0,0:0|2:0,0:0:0:0:
96,288,131360,2,0,P|112:208|144:160,1,110,12|0,0:0|2:0,0:0:0:0:
416,288,131660,2,0,P|400:208|368:160,1,110,12|0,0:0|2:0,0:0:0:0:
144,224,131960,5,8,0:0:0:0:
368,224,132110,1,8,0:0:0:0:
128,288,132260,2,8,P|80:224|64:176,1,110
416,224,132560,5,0,0:0:0:0:
96,224,132710,1,8,0:0:0:0:
432,288,132860,2,8,P|480:224|448:192,1,110
96,304,133160,6,8,P|48:240|16:208,1,110,10|10,0:2|0:2,0:0:0:0:
256,240,133385,1,0,0:0:0:0:
484,218,133460,2,10,P|448:160|384:144,1,110,10|10,0:2|0:2,0:2:0:0:
208,192,133760,6,0,L|144:160,1,55,4|0,0:2|0:0,0:0:0:0:
304,192,133910,2,0,L|368:160,1,55
200,192,134060,6,0,L|136:160,1,55,4|0,0:2|0:0,0:0:0:0:
312,192,134210,2,0,L|376:160,1,55,0|0,0:2|0:0,0:0:0:0:
192,192,134360,6,0,L|128:168,1,55,4|0,0:2|0:0,0:0:0:0:
320,192,134510,2,0,L|384:168,1,55,0|0,0:2|0:0,0:0:0:0:
184,192,134660,6,0,L|120:168,1,55,4|0,0:2|0:0,0:0:0:0:
336,192,134810,2,0,L|400:168,1,55,0|0,0:2|0:0,0:0:0:0:
160,192,134960,6,0,L|96:176,1,55,4|0,0:2|0:0,0:0:0:0:
336,192,135110,2,0,L|400:176,1,55,0|0,0:2|0:0,0:0:0:0:
144,192,135260,6,0,L|80:184,1,55,4|0,0:2|0:0,0:0:0:0:
368,192,135410,2,0,L|432:184,1,55
128,192,135560,6,0,L|56:192,1,63.250001206398,4|0,0:2|0:0,0:0:0:0:
384,192,135710,2,0,L|456:192,1,63.250001206398,0|0,0:2|0:0,0:0:0:0:
96,192,135860,6,0,L|16:192,1,71.4999967269899,4|0,0:2|0:0,0:0:0:0:
256,192,136010,1,0,0:0:0:0:
480,192,136085,2,0,P|441:64|360:16,1,220
48,40,136760,1,4,0:0:0:0:
