osu file format v14

[General]
AudioFilename: Resurrection Spell.mp3
AudioLeadIn: 0
PreviewTime: 102040
Countdown: 0
SampleSet: None
StackLeniency: 0.7
Mode: 2
LetterboxInBreaks: 1
WidescreenStoryboard: 1

[Editor]
Bookmarks: 25542,89374,125253
DistanceSpacing: 0.7
BeatDivisor: 4
GridSize: 16
TimelineZoom: 1

[Metadata]
Title:Resurrection Spell
TitleUnicode:Resurrection Spell
Artist:ZUN remixed by LeaF
ArtistUnicode:ZUN remixed by LeaF
Creator:osu_gangster
Version:Salad
Source:
Tags:fujiwara no mokou fuziwara imperishable night eiyashou 08 reach for the moon, immortal smoke
BeatmapID:696568
BeatmapSetID:311925

[Difficulty]
HPDrainRate:4
CircleSize:3
OverallDifficulty:4
ApproachRate:4
SliderMultiplier:1.4
SliderTickRate:1

[Events]
//Background and Video events
0,0,"bg.jpg",0,0
//Break Periods
2,91574,95387
//Storyboard Layer 0 (Background)
//Storyboard Layer 1 (Fail)
//Storyboard Layer 2 (Pass)
//Storyboard Layer 3 (Foreground)
//Storyboard Sound Samples

[TimingPoints]
2708,666.666666666667,4,2,1,60,1,0
11041,-100,4,2,1,5,0,0
11208,-100,4,2,1,10,0,0
11374,-100,4,2,1,15,0,0
11541,-100,4,2,1,20,0,0
11708,-100,4,2,1,25,0,0
11874,-100,4,2,1,30,0,0
12041,-100,4,2,1,35,0,0
12208,-100,4,2,1,40,0,0
12374,-100,4,2,1,45,0,0
12541,-100,4,2,1,50,0,0
12708,-100,4,2,1,55,0,0
12874,-100,4,2,1,60,0,0
13041,-100,4,2,1,5,0,0
13376,600,4,1,1,50,1,0
15776,576.923076923077,4,1,1,50,1,0
18083,555.555555555556,4,1,1,60,1,0
20305,535.714285714286,4,1,1,60,1,0
21376,333.333333333333,4,1,1,60,1,0
23376,333.333333333333,4,1,0,60,1,0
26041,333.333333333333,4,1,1,80,1,1
26374,-100,4,1,1,80,0,0
47374,-111.111111111111,4,1,1,60,0,0
51707,-111.111111111111,4,1,2,60,0,0
51790,-111.111111111111,4,1,1,60,0,0
63707,-111.111111111111,4,1,2,60,0,0
63874,-111.111111111111,4,1,1,60,0,0
68707,-111.111111111111,4,2,1,75,0,0
72707,-111.111111111111,4,1,1,75,0,0
79374,-100,4,1,1,75,0,0
90040,-100,4,1,0,60,0,0
96707,-100,4,1,0,75,0,0
102040,-100,4,1,0,75,0,1
112709,461.538461538462,4,2,1,80,1,0
118247,-100,4,1,1,60,0,0
120093,-100,4,1,1,75,0,0
121939,428.571428571429,4,1,1,70,1,0
123653,400,4,1,1,75,1,0
125253,375,4,1,1,75,1,0
126753,352.941176470588,4,1,1,80,1,0
128164,333.333333333333,4,1,1,80,1,0
129497,315.789473684211,4,1,1,80,1,0
130760,300,4,1,1,80,1,0
136085,-100,4,2,1,5,0,0
136760,600,4,1,1,80,1,0

[Colours]
Combo1 : 255,0,128
Combo2 : 128,0,0
Combo3 : 0,0,160
Combo4 : 128,64,64

[HitObjects]
64,192,2041,5,0,0:0:0:0:
128,192,2374,1,0,0:0:0:0:
192,192,2708,2,0,P|272:256|272:304,1,140,2|0,0:0|0:0,0:0:0:0:
480,288,4041,1,2,0:0:0:0:
416,304,4374,1,0,0:0:0:0:
352,304,4708,1,0,0:0:0:0:
208,336,5374,2,0,P|96:304|224:192,1,350,2|0,0:0|0:0,0:0:0:0:
272,192,7374,1,0,0:0:0:0:
208,208,7708,1,0,0:0:0:0:
400,192,8041,6,0,P|352:160|416:144,1,140,2|0,0:0|0:0,0:0:0:0:
112,192,9374,2,0,P|160:224|96:240,1,140,2|0,0:0|0:0,0:0:0:0:
256,192,10708,1,2,0:0:0:0:
256,192,11041,12,0,13041,0:0:0:0:
48,224,13376,6,0,P|112:192|208:192,1,140,4|0,0:2|0:0,0:0:0:0:
256,192,14276,1,0,0:0:0:0:
320,192,14576,2,0,L|384:160,1,70,2|0,0:2|0:0,0:0:0:0:
224,160,15176,2,0,L|160:192,1,70
96,224,15776,6,0,P|160:304|224:304,1,140,2|0,0:2|0:0,0:0:0:0:
256,304,16641,1,0,0:0:0:0:
416,160,16929,2,0,P|352:80|288:80,1,140,2|0,0:2|0:0,0:0:0:0:
256,80,17795,1,0,0:0:0:0:
192,112,18083,5,4,0:2:0:0:
320,112,18638,1,4,0:2:0:0:
160,112,19194,1,4,0:2:0:0:
352,112,19749,1,4,0:2:0:0:
128,112,20305,2,4,L|192:208,1,70,4|4,0:2|0:2,0:2:0:0:
336,176,20840,2,4,L|384:112,2,70,4|4|4,0:2|0:2|0:2,0:2:0:0:
256,192,21709,12,0,23375,0:0:0:0:
96,208,23709,5,8,0:2:0:0:
160,208,23876,1,2,0:2:0:0:
224,208,24042,1,2,0:2:0:0:
416,208,24376,1,8,0:2:0:0:
352,208,24543,1,2,0:2:0:0:
288,208,24709,1,2,0:2:0:0:
176,128,25042,2,2,L|32:160,1,140,2|2,0:2|0:2,0:2:0:0:
304,160,25709,1,8,0:0:0:0:
432,128,26041,6,0,P|464:192|432:256,1,140,4|0,0:0|0:0,0:0:0:0:
368,256,26541,1,0,0:0:0:0:
304,256,26707,2,0,P|192:224|144:256,1,140
32,272,27207,1,0,0:0:0:0:
80,336,27374,2,0,P|144:368|224:352,1,140
432,336,28040,2,0,P|368:368|288:352,1,140
208,256,28707,6,0,P|176:176|128:160,1,140
64,128,29207,1,0,0:0:0:0:
96,64,29374,2,0,P|192:64|256:112,1,140
288,112,29874,1,0,0:0:0:0:
352,128,30040,2,0,L|400:208,1,70
464,192,30374,2,0,L|416:272,1,70
288,256,30707,2,0,P|192:272|144:256,1,140
432,272,31374,6,0,P|368:320|336:288,1,140
176,288,32040,2,0,P|128:320|64:272,1,140
128,240,32540,1,0,0:0:0:0:
80,288,32707,2,0,P|128:320|192:272,1,140
352,272,33374,2,0,P|416:320|448:288,1,140
304,272,34040,6,0,P|224:224|224:176,1,140
80,208,34707,2,0,P|128:128|192:128,1,140
304,128,35374,6,0,L|400:176,1,93.3333333333333,2|2,0:2|0:2,0:0:0:0:
416,208,35707,2,0,L|320:256,1,93.3333333333333,2|2,0:2|0:2,0:0:0:0:
304,288,36040,2,2,P|336:336|416:320,1,140,2|2,0:2|0:2,0:2:0:0:
368,272,36540,1,0,0:0:0:0:
304,272,36707,6,0,P|320:192|384:128,1,140
208,272,37374,2,0,P|192:192|128:128,1,140
96,176,37874,1,0,0:0:0:0:
144,224,38040,2,0,P|240:240|304:224,1,140
496,240,38707,2,0,P|400:256|336:240,1,140
288,256,39207,1,0,0:0:0:0:
224,288,39374,6,0,P|144:272|80:208,1,140
288,96,40040,2,0,P|368:112|432:176,1,140
224,288,40707,6,0,P|144:272|80:208,1,140
288,96,41373,2,0,P|368:112|432:176,1,140
448,272,42040,6,0,P|384:304|320:288,1,140
256,288,42540,1,0,0:0:0:0:
192,288,42707,2,0,P|128:304|64:272,1,140
64,272,43374,6,0,P|128:304|192:288,1,140
256,288,43874,1,0,0:0:0:0:
320,288,44041,2,0,P|384:304|448:272,1,140
320,208,44707,6,0,L|128:160,1,140,4|0,0:2|0:0,0:0:0:0:
384,192,45374,1,4,0:2:0:0:
128,192,45707,1,0,0:0:0:0:
256,256,46040,2,2,P|320:272|368:256,1,93.3333333333333,2|2,0:2|0:2,0:2:0:0:
368,224,46374,2,2,P|304:208|256:224,1,93.3333333333333,2|2,0:2|0:2,0:2:0:0:
240,240,46707,1,2,0:2:0:0:
160,240,46874,1,0,0:0:0:0:
80,240,47040,1,0,0:0:0:0:
160,240,47207,1,0,0:0:0:0:
240,240,47374,6,0,P|304:272|368:272,1,125.999996154785,0|8,0:0|0:0,0:0:0:0:
336,128,48040,1,0,0:0:0:0:
256,112,48207,1,0,0:0:0:0:
176,128,48374,2,0,L|96:128,1,62.9999980773926,8|0,0:0|0:0,0:0:0:0:
0,128,48707,6,0,P|48:176|112:208,1,125.999996154785,0|8,0:0|0:0,0:0:0:0:
256,224,49374,2,0,L|288:288,1,62.9999980773926
352,304,49707,2,0,L|432:320,1,62.9999980773926,8|0,0:0|0:0,0:0:0:0:
256,320,50040,6,0,L|128:320,3,125.999996154785,0|8|0|8,0:0|0:0|0:0|0:0,0:0:0:0:
32,208,51374,2,0,P|64:128|224:144,1,251.999992309571
320,240,52374,2,0,L|288:320,1,62.9999980773926,8|0,0:0|0:0,0:0:0:0:
464,336,52707,6,0,P|496:288|448:224,2,125.999996154785,4|8|0,0:2|0:0|0:0,0:0:0:0:
400,336,53540,1,0,0:0:0:0:
336,336,53707,1,8,0:0:0:0:
208,336,54040,5,8,0:0:0:0:
128,336,54263,1,8,0:0:0:0:
208,336,54485,1,8,0:0:0:0:
128,336,54707,2,0,P|80:288|128:224,1,125.999996154785,8|0,0:0|0:0,0:0:0:0:
288,240,55374,6,0,P|368:256|416:224,1,125.999996154785,0|8,0:0|0:0,0:0:0:0:
384,176,55874,1,0,0:0:0:0:
256,176,56040,2,0,P|176:192|128:160,1,125.999996154785,0|8,0:0|0:0,0:0:0:0:
160,112,56540,1,0,0:0:0:0:
304,112,56707,2,8,L|432:112,2,125.999996154785
240,112,57540,1,8,0:0:0:0:
176,112,57707,1,8,0:0:0:0:
112,112,57874,1,8,0:0:0:0:
48,128,58040,6,0,P|64:192|128:224,1,125.999996154785,0|8,0:0|0:0,0:0:0:0:
240,224,58707,2,0,L|304:256,2,62.9999980773926,0|0|8,0:0|0:0|0:0,0:0:0:0:
112,240,59374,2,0,P|192:208|256:224,1,125.999996154785,0|8,0:0|0:0,0:0:0:0:
352,240,60040,1,0,0:0:0:0:
384,192,60207,1,0,0:0:0:0:
336,144,60374,1,8,0:0:0:0:
368,96,60540,1,0,0:0:0:0:
304,80,60707,6,0,P|224:64|144:96,1,125.999996154785,0|8,0:0|0:0,0:0:0:0:
64,96,61374,2,0,P|144:80|224:112,1,125.999996154785,0|8,0:0|0:0,0:0:0:0:
448,96,62040,2,0,P|368:80|288:112,2,125.999996154785,0|8|0,0:0|0:0|0:0,0:0:0:0:
368,192,63040,2,0,L|288:224,1,62.9999980773926,8|0,0:0|0:0,0:0:0:0:
256,240,63374,6,0,P|144:256|160:144,1,251.999992309571,4|0,0:2|0:0,0:0:0:0:
208,128,64207,1,0,0:0:0:0:
272,128,64374,1,8,0:0:0:0:
400,144,64707,5,8,0:0:0:0:
304,144,64929,1,8,0:0:0:0:
368,224,65152,1,8,0:0:0:0:
272,224,65374,2,8,P|208:192|240:144,1,125.999996154785,8|0,0:0|0:0,0:0:0:0:
352,112,66040,6,0,L|432:112,2,62.9999980773926,0|0|8,0:0|0:0|0:0,0:0:0:0:
160,112,66707,2,8,L|80:112,2,62.9999980773926,0|0|8,0:0|0:0|0:0,0:0:0:0:
304,112,67374,1,12,0:0:0:0:
160,112,67707,1,12,0:0:0:0:
208,112,68040,1,12,0:0:0:0:
352,112,68373,1,12,0:0:0:0:
224,160,68707,6,0,P|144:176|112:304,1,209.999993591309,0|0,1:0|0:0,0:0:0:0:
144,304,69374,2,0,P|224:336|352:288,1,209.999993591309,0|0,1:0|0:0,0:0:0:0:
384,272,70040,2,0,P|432:192|352:48,1,251.999992309571,0|0,1:0|1:0,0:0:0:0:
288,80,70929,1,0,0:0:0:0:
240,96,71040,1,0,0:0:0:0:
16,112,71374,6,0,P|48:176|192:224,1,209.999993591309,0|0,1:0|0:0,0:0:0:0:
224,224,72040,2,0,P|304:224|432:256,1,209.999993591309,0|0,1:0|0:0,0:0:0:0:
464,272,72707,5,0,0:0:0:0:
336,304,73040,1,0,0:0:0:0:
192,320,73374,2,0,L|96:320,1,83.9999974365235
64,320,73707,2,0,L|160:320,1,83.9999974365235
192,320,74040,5,4,0:2:0:0:
288,304,74263,1,8,0:0:0:0:
416,272,74596,1,8,0:0:0:0:
224,272,74929,2,8,L|96:272,1,125.999996154785
112,224,75374,5,0,0:0:0:0:
208,224,75596,2,8,P|272:192|288:128,1,125.999996154785
464,160,76263,2,8,P|400:192|384:256,1,125.999996154785
416,272,76707,5,0,0:0:0:0:
272,288,76929,2,8,P|144:304|128:288,1,125.999996154785
16,288,77596,1,8,0:0:0:0:
272,288,77929,1,8,0:0:0:0:
320,288,78040,5,8,0:0:0:0:
416,288,78263,1,8,0:0:0:0:
272,288,78596,1,8,0:0:0:0:
128,272,78929,1,8,0:0:0:0:
80,272,79040,2,0,P|64:224|96:176,1,83.9999974365235,8|8,0:0|0:0,0:0:0:0:
112,160,79374,6,0,L|208:160,1,70,0|8,0:0|0:0,0:0:0:0:
256,192,79707,2,0,L|352:192,1,70,0|8,0:0|0:0,0:0:0:0:
400,208,80040,2,0,P|448:272|400:320,1,140
352,336,80540,1,8,0:0:0:0:
272,320,80707,6,0,P|176:304|96:320,1,140
64,320,81207,1,8,0:0:0:0:
128,272,81374,2,0,L|144:192,1,70,0|8,0:0|0:0,0:0:0:0:
224,208,81707,2,0,L|240:128,1,70,0|8,0:0|0:0,0:0:0:0:
384,144,82040,5,0,0:0:0:0:
448,176,82207,1,8,0:0:0:0:
464,256,82374,1,0,0:0:0:0:
432,320,82540,1,8,0:0:0:0:
352,336,82707,1,0,0:0:0:0:
272,320,82874,1,8,0:0:0:0:
192,304,83040,2,0,L|160:384,1,70,0|8,0:0|0:0,0:0:0:0:
96,336,83374,6,0,P|64:272|128:192,1,140
160,176,83874,1,8,0:0:0:0:
240,160,84040,2,0,P|320:192|384:176,1,140
432,144,84540,1,8,0:0:0:0:
272,16,84707,6,0,L|256:96,1,70,0|8,0:0|0:0,0:0:0:0:
176,96,85040,2,0,L|192:176,1,70,0|8,0:0|0:0,0:0:0:0:
112,176,85374,2,0,L|96:256,1,70,0|8,0:0|0:0,0:0:0:0:
16,256,85707,2,0,L|32:336,1,70,0|8,0:0|0:0,0:0:0:0:
112,336,86040,5,0,0:0:0:0:
160,272,86207,1,8,0:0:0:0:
224,240,86374,1,0,0:0:0:0:
304,240,86540,1,8,0:0:0:0:
384,256,86707,1,0,0:0:0:0:
448,304,86874,1,8,0:0:0:0:
496,368,87040,2,0,L|416:368,1,70,0|8,0:0|0:0,0:0:0:0:
352,336,87374,6,0,P|272:304|208:320,1,140
144,336,87874,1,8,0:0:0:0:
64,336,88040,2,0,P|144:304|208:320,1,140
272,336,88540,1,8,0:0:0:0:
352,336,88707,6,0,L|368:256,1,70,0|8,0:0|0:0,0:0:0:0:
256,272,89040,2,0,L|240:192,1,70,0|8,0:0|0:0,0:0:0:0:
352,192,89374,2,0,L|368:112,1,70,0|8,0:0|0:0,0:0:0:0:
256,128,89707,2,0,L|240:48,1,70,0|8,0:0|0:0,0:0:0:0:
256,192,90040,12,8,91040,0:0:0:0:
320,192,91374,5,4,0:0:0:0:
144,256,96707,6,0,P|96:208|112:160,1,105,6|2,0:2|0:2,0:0:0:0:
368,128,97374,2,0,P|416:176|400:224,1,105,2|2,0:2|0:2,0:0:0:0:
176,320,98040,2,2,P|96:304|96:240,1,140,2|2,0:2|0:2,0:2:0:0:
160,240,98540,1,2,0:2:0:0:
224,240,98707,2,2,L|320:256,2,70,2|2|6,0:2|0:2|0:2,0:2:0:0:
208,304,99374,6,4,P|128:288|80:256,1,140
304,304,100040,2,4,P|384:288|432:256,1,140
304,208,100707,2,2,L|192:224,1,93.3333333333333,2|2,0:2|0:2,0:2:0:0:
160,224,101040,2,2,L|48:240,1,93.3333333333333,2|2,0:2|0:2,0:2:0:0:
112,240,101374,2,2,L|224:256,1,93.3333333333333,2|2,0:2|0:2,0:2:0:0:
256,256,101707,2,0,L|352:256,1,70
464,272,102040,6,0,P|352:208|448:144,1,280,4|0,0:0|0:0,0:0:0:0:
368,144,102874,1,0,0:0:0:0:
304,160,103040,1,0,0:0:0:0:
176,208,103374,2,0,P|112:160|144:96,1,140
304,112,104040,2,0,L|384:112,1,70
336,176,104374,2,0,L|256:176,1,70
208,224,104707,6,0,P|256:272|352:272,1,140
144,288,105374,2,0,P|96:240|0:240,1,140
160,208,106040,2,0,P|208:96|352:144,1,280
384,176,106874,1,0,0:0:0:0:
336,224,107040,1,0,0:0:0:0:
400,256,107207,1,0,0:0:0:0:
336,288,107374,6,0,P|272:304|192:288,1,140
64,256,108040,2,0,P|48:224|16:176,2,70
192,224,108707,2,0,P|240:192|320:208,1,140
464,208,109374,1,0,0:0:0:0:
432,208,109485,1,0,0:0:0:0:
400,208,109596,1,0,0:0:0:0:
368,208,109707,2,0,P|320:176|320:144,1,70
224,96,110040,6,4,L|64:112,1,140
288,96,110707,2,4,L|448:112,1,140
192,192,111374,2,2,L|176:288,1,70,2|2,0:2|0:2,0:2:0:0:
320,192,111707,2,2,L|336:288,1,70,2|2,0:2|0:2,0:2:0:0:
384,304,112040,2,2,P|288:336|112:304,1,280,2|6,0:2|0:2,0:2:0:0:
336,128,113632,5,0,0:0:0:0:
272,160,113862,1,0,0:0:0:0:
208,144,114093,1,0,0:0:0:0:
80,192,114555,2,0,P|80:272|304:320,1,350
352,288,115939,2,0,L|336:192,1,70
464,224,116401,6,0,P|432:160|352:144,1,140
144,144,117324,2,0,P|80:160|48:224,1,140
192,240,118247,6,0,L|256:304,1,70
272,288,118709,2,0,L|336:224,1,70
320,144,119170,2,0,L|256:80,1,70
240,96,119632,2,0,L|176:160,1,70
128,192,120093,6,0,P|112:240|176:288,1,140,4|8,0:0|0:0,0:0:0:0:
256,320,120785,1,0,0:0:0:0:
320,288,121016,2,0,L|384:256,1,70
336,192,121478,1,8,0:0:0:0:
272,160,121709,1,0,0:0:0:0:
192,160,121939,6,0,P|144:192|80:144,1,140,0|8,0:0|0:0,0:0:0:0:
320,160,122796,2,0,P|368:192|432:144,1,140,0|8,0:0|0:0,0:0:0:0:
320,336,123653,6,0,P|352:272|304:192,1,140,2|8,0:2|0:0,0:0:0:0:
256,192,124253,1,0,0:0:0:0:
176,176,124453,2,0,P|160:112|192:48,1,140,2|8,0:2|0:0,0:0:0:0:
256,192,125053,1,0,0:0:0:0:
352,336,125253,6,0,P|384:272|336:192,1,140,2|8,0:2|0:0,0:0:0:0:
256,192,125815,1,0,0:0:0:0:
144,176,126003,2,0,P|128:112|160:48,1,140,2|8,0:2|0:0,0:0:0:0:
256,192,126565,1,0,0:0:0:0:
336,208,126753,6,2,P|384:256|464:288,1,140,2|2,0:2|0:2,0:2:0:0:
176,208,127458,2,2,P|128:256|48:288,1,140,2|2,0:2|0:2,0:2:0:0:
16,144,128164,2,2,P|80:112|176:96,1,140,2|2,0:2|0:2,0:2:0:0:
368,96,128830,2,2,P|432:112|496:160,1,140,2|2,0:2|0:2,0:2:0:0:
416,272,129497,6,4,L|336:336,1,70
160,320,129970,2,4,L|96:272,1,70
192,176,130444,1,0,0:0:0:0:
240,128,130602,1,0,0:0:0:0:
320,128,130760,6,4,P|384:160|384:224,1,140
128,224,131360,2,4,P|128:160|192:128,1,140
336,144,131960,6,8,L|352:224,1,70
464,224,132260,2,8,L|448:304,1,70
336,144,132560,2,8,L|352:224,1,70
464,224,132860,2,8,L|448:304,1,70
400,288,133160,1,8,0:0:0:0:
352,288,133310,1,8,0:0:0:0:
304,288,133460,1,8,0:0:0:0:
256,288,133610,1,8,0:0:0:0:
208,288,133760,1,12,0:0:0:0:
256,192,133910,12,0,136085,0:0:0:0:
384,208,136760,5,4,0:0:0:0:
