osu file format v14

[General]
AudioFilename: Resurrection Spell.mp3
AudioLeadIn: 0
PreviewTime: 102040
Countdown: 0
SampleSet: None
StackLeniency: 0.7
Mode: 2
LetterboxInBreaks: 1
WidescreenStoryboard: 1

[Editor]
Bookmarks: 25542,117785
DistanceSpacing: 0.5
BeatDivisor: 4
GridSize: 8
TimelineZoom: 1

[Metadata]
Title:Resurrection Spell
TitleUnicode:Resurrection Spell
Artist:ZUN remixed by LeaF
ArtistUnicode:ZUN remixed by LeaF
Creator:osu_gangster
Version:Platter
Source:
Tags:fujiwara no mokou fuziwara imperishable night eiyashou 08 reach for the moon, immortal smoke
BeatmapID:696567
BeatmapSetID:311925

[Difficulty]
HPDrainRate:4
CircleSize:3.2
OverallDifficulty:8
ApproachRate:8
SliderMultiplier:1.6
SliderTickRate:1

[Events]
//Background and Video events
0,0,"bg.jpg",0,0
//Break Periods
2,91574,95957
//Storyboard Layer 0 (Background)
//Storyboard Layer 1 (Fail)
//Storyboard Layer 2 (Pass)
//Storyboard Layer 3 (Foreground)
//Storyboard Sound Samples

[TimingPoints]
2708,666.666666666667,4,2,1,60,1,0
11041,-100,4,2,1,5,0,0
11208,-100,4,2,1,10,0,0
11374,-100,4,2,1,15,0,0
11541,-100,4,2,1,20,0,0
11708,-100,4,2,1,25,0,0
11874,-100,4,2,1,30,0,0
12041,-100,4,2,1,35,0,0
12208,-100,4,2,1,40,0,0
12374,-100,4,2,1,45,0,0
12541,-100,4,2,1,50,0,0
12708,-100,4,2,1,55,0,0
12874,-100,4,2,1,60,0,0
13041,-100,4,2,1,5,0,0
13376,600,4,1,1,50,1,0
15776,576.923076923077,4,1,1,50,1,0
18083,555.555555555556,4,1,1,60,1,0
20305,535.714285714286,4,1,1,60,1,0
21376,333.333333333333,4,1,1,60,1,0
23376,333.333333333333,4,1,0,60,1,0
26041,333.333333333333,4,1,1,80,1,1
26374,-100,4,1,1,80,0,0
47374,-111.111111111111,4,1,1,60,0,0
68707,-111.111111111111,4,2,1,80,0,0
74040,-100,4,1,1,75,0,0
79374,-100,4,1,1,80,0,0
90040,-100,4,1,0,80,0,0
90540,-100,4,1,0,5,0,0
90707,-100,4,1,0,75,0,0
91374,-100,4,2,0,75,0,0
96707,-100,4,1,0,75,0,0
99374,-100,4,2,0,75,0,0
100707,-100,4,1,0,75,0,0
102040,-100,4,1,0,75,0,1
112709,461.538461538462,4,2,1,80,1,0
118247,-100,4,1,1,60,0,0
120093,-100,4,1,1,75,0,0
121939,428.571428571429,4,1,1,70,1,0
123653,400,4,1,1,75,1,0
125253,375,4,1,1,75,1,0
126753,352.941176470588,4,1,1,80,1,0
128164,333.333333333333,4,1,1,80,1,0
129497,315.789473684211,4,1,1,80,1,0
130760,300,4,1,1,80,1,0
136760,600,4,1,1,80,1,0

[Colours]
Combo1 : 255,0,128
Combo2 : 128,0,0
Combo3 : 0,0,160
Combo4 : 128,64,64

[HitObjects]
96,192,2041,5,0,0:0:0:0:
176,208,2374,1,0,0:0:0:0:
256,224,2708,2,2,L|288:192,1,26.6666666666667
448,160,4041,2,2,L|416:128,1,26.6666666666667
384,128,4374,1,0,0:0:0:0:
304,128,4708,1,0,0:0:0:0:
144,112,5374,2,2,L|176:80,1,26.6666666666667
112,128,7041,2,0,L|16:144,2,80
384,144,8041,6,2,L|432:144,1,26.6666666666667
256,192,8708,1,0,0:0:0:0:
128,144,9374,2,2,L|80:144,1,26.6666666666667
256,192,10041,1,0,0:0:0:0:
384,144,10708,2,2,L|432:144,1,26.6666666666667
256,192,11041,12,0,13041,0:0:0:0:
176,288,13376,6,0,P|144:224|144:192,1,80,4|0,0:0|0:0,0:0:0:0:
336,288,13976,2,0,P|368:224|368:192,1,80
128,272,14576,2,0,P|96:240|80:192,2,80
384,272,15776,2,0,P|416:192|384:128,1,160
144,80,16641,1,0,0:0:0:0:
128,112,16929,2,0,P|96:192|128:256,1,160
432,320,18083,6,0,L|448:224,1,80,4|0,0:2|0:0,0:0:0:0:
304,256,18638,2,0,L|288:160,1,80,4|0,0:2|0:0,0:0:0:0:
448,320,19194,2,0,L|464:224,1,80,4|0,0:2|0:0,0:0:0:0:
288,256,19749,2,0,L|272:160,1,80,4|0,0:2|0:0,0:0:0:0:
480,192,20305,1,4,0:2:0:0:
272,176,20572,1,4,0:2:0:0:
448,160,20840,1,4,0:2:0:0:
240,128,21108,1,4,0:2:0:0:
512,112,21376,1,4,0:2:0:0:
256,192,21542,12,0,23042,0:0:0:0:
80,224,23209,6,2,L|32:224,2,40,2|2|2,0:2|0:2|0:2,0:2:0:0:
192,224,23709,1,8,0:2:0:0:
352,224,23876,6,2,L|400:224,2,40,2|2|2,0:2|0:2|0:2,0:2:0:0:
240,224,24376,1,8,0:2:0:0:
96,160,24542,6,2,L|48:160,2,40,2|2|2,0:2|0:2|0:2,0:2:0:0:
272,96,24959,1,2,0:2:0:0:
96,80,25209,1,2,0:2:0:0:
352,96,25375,2,0,L|384:160,3,40
368,176,25709,1,8,0:0:0:0:
224,240,26041,6,0,P|160:272|128:256,1,80,4|0,0:0|0:0,0:0:0:0:
80,240,26374,2,0,L|32:224,2,40
240,224,26707,2,0,P|272:192|272:128,1,80
240,80,27041,1,0,0:0:0:0:
160,64,27207,1,0,0:0:0:0:
112,128,27374,6,0,L|80:192,2,40
272,160,27707,2,0,L|304:224,2,40
144,256,28040,2,0,L|112:320,2,40
304,288,28373,2,0,L|336:352,3,40
352,352,28707,6,0,P|400:352|432:336,1,80
400,272,29040,1,0,0:0:0:0:
384,240,29124,1,0,0:0:0:0:
368,208,29207,1,0,0:0:0:0:
288,176,29374,2,0,P|224:160|192:160,1,80
48,192,29707,2,0,P|112:176|144:176,1,80
368,192,30040,6,0,L|432:192,2,40
352,192,30374,2,0,L|416:192,2,40
320,192,30707,2,0,L|384:192,2,40
304,192,31041,2,0,L|368:192,2,40
272,192,31290,1,0,0:0:0:0:
240,208,31374,6,0,P|192:240|144:256,1,80
96,288,31707,1,0,0:0:0:0:
176,304,31874,1,0,0:0:0:0:
256,304,32040,2,0,L|288:224,1,80
448,240,32374,2,0,L|416:160,1,80
256,160,32707,5,0,0:0:0:0:
176,176,32874,1,0,0:0:0:0:
144,192,32957,1,0,0:0:0:0:
112,208,33040,1,0,0:0:0:0:
272,192,33207,1,0,0:0:0:0:
304,208,33290,1,0,0:0:0:0:
336,224,33373,1,0,0:0:0:0:
176,256,33540,2,0,L|80:288,2,80
336,288,34040,6,0,L|368:240,3,40
368,224,34374,2,0,P|352:176|320:144,1,80
96,144,34707,6,0,L|64:192,3,40
64,208,35041,2,0,P|80:256|112:288,1,80
176,288,35374,5,2,0:2:0:0:
256,288,35540,1,2,0:2:0:0:
272,256,35624,1,2,0:2:0:0:
288,224,35707,1,2,0:2:0:0:
448,240,35874,1,2,0:2:0:0:
432,208,35958,1,2,0:2:0:0:
416,176,36041,1,2,0:2:0:0:
368,144,36152,1,2,0:2:0:0:
320,128,36263,1,2,0:2:0:0:
272,128,36374,2,2,P|240:160|240:208,1,80,2|2,0:2|0:2,0:2:0:0:
64,208,36707,5,4,0:0:0:0:
144,224,36874,1,0,0:0:0:0:
176,224,36957,1,0,0:0:0:0:
208,208,37040,1,0,0:0:0:0:
240,192,37124,1,0,0:0:0:0:
272,176,37207,1,0,0:0:0:0:
304,144,37290,1,0,0:0:0:0:
336,128,37374,2,0,P|416:128|432:144,1,80
464,192,37707,2,0,P|384:192|368:176,1,80
240,256,38040,5,0,0:0:0:0:
224,256,38124,2,0,L|160:256,1,40
32,272,38374,1,0,0:0:0:0:
48,272,38458,2,0,L|112:272,1,40
240,288,38707,2,0,P|256:336|288:336,1,80
432,320,39040,2,0,L|480:320,2,40
352,320,39374,6,0,P|288:320|256:288,1,80
208,272,39707,1,0,0:0:0:0:
144,304,39874,1,0,0:0:0:0:
64,272,40040,2,0,L|16:256,2,40
144,256,40374,1,0,0:0:0:0:
80,208,40540,1,0,0:0:0:0:
320,192,40707,6,0,L|368:192,2,40
240,192,41040,2,0,L|192:192,2,40
336,192,41374,2,0,L|384:192,2,40
256,192,41707,2,0,L|208:192,3,40
176,192,42040,6,0,P|144:240|112:240,1,80
48,224,42374,1,0,0:0:0:0:
64,192,42457,1,0,0:0:0:0:
80,160,42540,1,0,0:0:0:0:
160,128,42707,1,0,0:0:0:0:
192,112,42790,1,0,0:0:0:0:
240,112,42874,1,0,0:0:0:0:
320,144,43040,2,0,L|432:144,1,80
240,176,43374,6,0,L|208:128,2,40
160,176,43707,2,0,L|128:128,2,40
80,208,44040,1,0,0:0:0:0:
240,208,44207,2,0,L|336:208,2,80
176,256,44707,6,0,L|112:272,3,40,4|0|0|0,0:2|0:0|0:0|0:0,0:0:0:0:
96,240,45040,2,0,P|80:192|112:144,1,80
336,128,45374,6,0,L|400:112,3,40,4|0|0|0,0:2|0:0|0:0|0:0,0:0:0:0:
416,144,45707,2,0,P|432:192|400:240,1,80
352,256,46040,2,2,L|288:272,5,53.3333333333333,2|2|2|2|2|2,0:2|0:2|0:2|0:2|0:2|0:2,0:2:0:0:
256,256,46707,2,0,P|176:240|160:240,1,80
112,272,47040,2,0,P|32:288|16:288,1,80
176,304,47374,6,0,P|256:320|288:288,1,107.999996704102
304,288,47707,2,0,L|368:224,1,71.9999978027344,8|0,0:0|0:0,0:0:0:0:
224,176,48040,2,0,P|160:176|128:192,2,71.9999978027344,0|0|8,0:0|0:0|0:0,0:0:0:0:
368,144,48540,1,0,0:0:0:0:
336,208,48707,6,0,P|304:176|352:96,1,143.999995605469,0|8,0:0|0:0,0:0:0:0:
288,96,49374,2,0,L|192:96,1,71.9999978027344
160,144,49707,2,0,L|64:144,1,71.9999978027344,8|0,0:0|0:0,0:0:0:0:
304,176,50040,6,0,L|320:272,1,71.9999978027344
176,240,50374,2,0,L|160:336,1,71.9999978027344,8|0,0:0|0:0,0:0:0:0:
240,320,50707,2,0,L|256:224,1,71.9999978027344
112,256,51041,2,0,L|96:160,1,71.9999978027344,8|0,0:0|0:0,0:0:0:0:
336,176,51374,6,0,P|400:144|368:80,1,143.999995605469,0|8,0:0|0:0,0:0:0:0:
368,80,52040,1,0,0:0:0:0:
352,80,52290,1,0,0:0:0:0:
320,96,52374,2,0,L|272:160,1,71.9999978027344,8|0,0:0|0:0,0:0:0:0:
64,160,52707,6,0,P|80:224|96:240,1,71.9999978027344,4|0,0:2|0:0,0:0:0:0:
160,224,53040,2,0,P|224:224|304:288,1,143.999995605469,8|0,0:0|0:0,0:0:0:0:
352,288,53540,1,0,0:0:0:0:
416,240,53707,2,0,L|448:144,1,71.9999978027344,8|0,0:0|0:0,0:0:0:0:
176,176,54040,5,8,0:0:0:0:
320,176,54263,1,8,0:0:0:0:
224,176,54485,1,8,0:0:0:0:
272,176,54707,2,0,P|288:256|224:288,1,143.999995605469,8|0,0:0|0:0,0:0:0:0:
496,144,55374,6,0,P|448:160|416:144,1,71.9999978027344,2|0,0:2|0:0,0:0:0:0:
352,144,55707,1,8,0:0:0:0:
304,96,55874,1,0,0:0:0:0:
16,144,56040,6,0,P|64:160|96:144,1,71.9999978027344,2|0,0:2|0:0,0:0:0:0:
160,144,56373,1,8,0:0:0:0:
208,96,56540,1,0,0:0:0:0:
352,96,56707,6,0,L|384:176,1,71.9999978027344,8|0,0:0|0:0,0:0:0:0:
336,224,57040,2,0,L|368:304,1,71.9999978027344,8|0,0:0|0:0,0:0:0:0:
400,352,57374,5,8,0:0:0:0:
432,288,57540,1,8,0:0:0:0:
400,224,57707,1,8,0:0:0:0:
336,192,57874,1,8,0:0:0:0:
128,240,58040,6,0,P|80:240|32:224,1,71.9999978027344,4|0,0:2|0:0,0:0:0:0:
96,176,58374,2,0,P|144:176|192:192,1,71.9999978027344,8|0,0:0|0:0,0:0:0:0:
240,208,58707,1,0,0:0:0:0:
320,176,58874,1,0,0:0:0:0:
352,176,58957,1,0,0:0:0:0:
368,160,59040,2,0,P|384:112|352:80,1,71.9999978027344,8|0,0:0|0:0,0:0:0:0:
224,96,59374,6,0,P|128:128|64:112,1,143.999995605469,0|8,0:0|0:0,0:0:0:0:
96,272,60040,1,0,0:0:0:0:
160,304,60207,1,0,0:0:0:0:
224,288,60374,1,8,0:0:0:0:
256,224,60540,1,0,0:0:0:0:
496,240,60707,6,0,L|416:240,1,71.9999978027344
384,240,61040,2,0,L|464:240,1,71.9999978027344,8|0,0:0|0:0,0:0:0:0:
432,240,61374,2,0,L|352:240,1,71.9999978027344
320,240,61707,2,0,L|400:240,1,71.9999978027344,8|0,0:0|0:0,0:0:0:0:
160,272,62040,2,0,P|112:240|160:160,1,143.999995605469,0|8,0:0|0:0,0:0:0:0:
144,176,62707,1,0,0:0:0:0:
160,176,62957,1,0,0:0:0:0:
192,160,63041,2,0,P|224:128|208:96,1,71.9999978027344,8|0,0:0|0:0,0:0:0:0:
368,112,63374,6,0,P|432:112|448:144,1,71.9999978027344,4|0,0:2|0:0,0:0:0:0:
496,160,63707,2,0,P|448:192|352:192,1,143.999995605469,8|0,0:0|0:0,0:0:0:0:
288,192,64207,1,0,0:0:0:0:
224,224,64374,2,0,P|240:272|272:304,1,71.9999978027344,8|0,0:0|0:0,0:0:0:0:
16,288,64707,1,8,0:0:0:0:
160,288,64929,1,8,0:0:0:0:
64,288,65152,1,8,0:0:0:0:
160,288,65374,2,0,P|192:240|144:160,1,143.999995605469,8|0,0:0|0:0,0:0:0:0:
448,224,66040,6,0,L|416:144,1,71.9999978027344,2|0,0:2|0:0,0:0:0:0:
352,128,66374,2,0,L|320:48,1,71.9999978027344,8|0,0:0|0:0,0:0:0:0:
64,224,66707,2,0,L|96:144,1,71.9999978027344,2|0,0:2|0:0,0:0:0:0:
160,128,67041,2,0,L|192:48,1,71.9999978027344,8|0,0:0|0:0,0:0:0:0:
320,112,67374,6,0,L|352:32,1,71.9999978027344,8|0,0:0|0:0,0:0:0:0:
192,112,67707,2,0,L|160:32,1,71.9999978027344,8|0,0:0|0:0,0:0:0:0:
384,160,68040,2,8,L|464:128,1,71.9999978027344
128,160,68374,2,8,L|48:128,1,71.9999978027344
80,208,68707,6,0,P|112:272|160:272,1,95.9999970703126,0|0,1:0|0:0,0:0:0:0:
176,288,69040,1,0,0:0:0:0:
272,304,69263,1,0,0:0:0:0:
320,288,69374,2,0,P|352:224|352:176,1,95.9999970703126,0|0,1:0|0:0,0:0:0:0:
384,160,69707,1,0,0:0:0:0:
192,176,69929,1,0,0:0:0:0:
160,208,70040,6,0,L|80:224,3,47.9999985351563,0|0|0|0,1:0|0:0|0:0|0:0,0:0:0:0:
400,240,70707,2,0,L|480:256,3,47.9999985351563,0|0|0|0,1:0|0:0|0:0|0:0,0:0:0:0:
160,304,71263,1,0,0:0:0:0:
128,272,71374,6,0,P|96:224|112:176,1,95.9999970703126,0|0,1:0|0:0,0:0:0:0:
128,144,71707,1,0,0:0:0:0:
224,128,71929,1,0,0:0:0:0:
272,128,72040,2,0,P|336:144|368:160,1,95.9999970703126,0|0,1:0|0:0,0:0:0:0:
400,192,72374,1,0,0:0:0:0:
224,272,72596,1,0,0:0:0:0:
144,224,72707,6,0,L|112:112,1,95.9999970703126,0|0,1:0|0:0,0:0:0:0:
192,192,73040,2,0,L|224:80,1,95.9999970703126,0|0,1:0|0:0,0:0:0:0:
128,96,73374,2,0,L|96:-16,1,95.9999970703126,0|0,1:0|1:0,0:0:0:0:
192,0,73707,2,0,L|272:80,1,95.9999970703126,0|0,1:0|1:0,0:0:0:0:
64,96,74040,5,0,1:0:0:0:
192,192,74263,2,0,L|256:224,1,53.3333333333333,8|0,0:0|1:0,0:0:0:0:
128,336,74596,2,0,L|64:368,1,53.3333333333333,8|0,0:0|1:0,0:0:0:0:
288,368,74929,2,0,L|352:336,1,53.3333333333333,8|0,0:0|1:0,0:0:0:0:
480,192,75263,1,8,0:0:0:0:
480,192,75374,5,0,0:0:0:0:
272,192,75596,1,8,0:0:0:0:
272,192,75707,1,0,0:0:0:0:
432,192,75929,1,8,0:0:0:0:
432,192,76040,1,0,0:0:0:0:
224,192,76263,1,8,0:0:0:0:
224,192,76374,1,0,0:0:0:0:
400,192,76596,1,8,0:0:0:0:
352,224,76707,6,0,P|288:256|208:240,1,106.666666666667,0|8,0:0|0:0,0:0:0:0:
208,240,77040,2,0,P|144:208|64:224,1,106.666666666667,0|8,0:0|0:0,0:0:0:0:
64,240,77374,2,0,P|32:304|48:384,1,106.666666666667,0|8,0:0|0:0,0:0:0:0:
80,336,77707,2,0,P|144:368|224:352,1,106.666666666667,0|8,0:0|0:0,0:0:0:0:
224,352,78040,5,0,0:0:0:0:
432,270,78263,1,8,0:0:0:0:
416,224,78374,1,8,0:0:0:0:
334,15,78596,1,8,0:0:0:0:
288,32,78707,1,8,0:0:0:0:
79,113,78929,1,0,0:0:0:0:
96,160,79040,2,8,L|128:240,2,53.3333333333333
208,160,79374,6,0,P|272:176|304:176,1,80,0|8,0:0|0:0,0:0:0:0:
368,160,79707,1,0,0:0:0:0:
400,176,79790,1,0,0:0:0:0:
432,208,79874,1,0,0:0:0:0:
400,288,80040,2,0,P|352:304|320:304,1,80
240,304,80374,2,0,P|208:272|176:256,1,80
16,256,80707,6,0,L|0:320,2,40,0|0|8,0:0|0:0|0:0,0:0:0:0:
176,240,81040,2,0,L|192:176,2,40,0|0|8,0:0|0:0|0:0,0:0:0:0:
96,96,81374,2,0,L|80:160,2,40,0|0|8,0:0|0:0|0:0,0:0:0:0:
256,80,81707,2,0,L|272:16,3,40,0|0|8|0,0:0|0:0|0:0|0:0,0:0:0:0:
304,32,82040,6,0,P|368:48|416:64,1,80,0|8,0:0|0:0,0:0:0:0:
496,96,82374,2,0,L|400:112,1,80,0|8,0:0|0:0,0:0:0:0:
384,128,82624,1,0,0:0:0:0:
352,144,82707,2,0,L|256:160,1,80,0|8,0:0|0:0,0:0:0:0:
112,176,83040,2,0,L|208:192,1,80,0|8,0:0|0:0,0:0:0:0:
432,192,83374,6,0,L|496:192,2,40,0|0|8,0:0|0:0|0:0,0:0:0:0:
304,192,83707,2,0,L|240:192,2,40,0|0|8,0:0|0:0|0:0,0:0:0:0:
448,192,84040,2,0,L|512:192,2,40,0|0|8,0:0|0:0|0:0,0:0:0:0:
288,192,84374,2,0,L|224:192,3,40,0|0|8|0,0:0|0:0|0:0|0:0,0:0:0:0:
208,192,84707,6,0,L|112:208,1,80,4|8,0:2|0:0,0:0:0:0:
48,208,85040,2,0,L|144:224,1,80,0|8,0:2|0:0,0:0:0:0:
208,240,85374,1,0,0:0:0:0:
224,272,85457,1,0,0:0:0:0:
240,304,85540,1,8,0:0:0:0:
160,320,85707,2,0,P|96:336|80:320,1,80,0|8,0:0|0:0,0:0:0:0:
336,336,86040,6,0,L|384:352,2,40,0|0|8,0:0|0:0|0:0,0:0:0:0:
400,288,86374,2,0,L|448:304,2,40,0|0|8,0:0|0:0|0:0,0:0:0:0:
240,272,86707,2,0,L|192:288,2,40,0|0|8,0:0|0:0|0:0,0:0:0:0:
176,224,87041,2,0,L|128:240,3,40
96,240,87374,6,0,L|48:192|16:160,1,80,0|8,0:0|0:0,0:0:0:0:
96,128,87707,2,0,L|208:128,1,80,0|8,0:0|0:0,0:0:0:0:
336,128,88040,2,0,L|416:128,1,80,0|8,0:0|0:0,0:0:0:0:
480,176,88374,2,0,L|416:240,1,80,0|8,0:0|0:0,0:0:0:0:
208,256,88707,6,0,L|160:256,2,40,0|0|8,0:0|0:0|0:0,0:0:0:0:
304,256,89040,2,0,L|352:256,2,40,0|0|8,0:0|0:0|0:0,0:0:0:0:
144,256,89374,2,0,L|96:256,2,40,0|0|8,0:0|0:0|0:0,0:0:0:0:
368,256,89707,1,0,0:0:0:0:
400,224,89790,1,0,0:0:0:0:
400,192,89874,1,8,0:0:0:0:
384,160,89957,1,0,0:0:0:0:
256,192,90040,12,0,90540,0:0:0:0:
112,288,90707,5,0,0:0:0:0:
80,256,90790,1,0,0:0:0:0:
80,208,90874,1,0,0:0:0:0:
96,176,90957,1,0,0:0:0:0:
128,144,91040,1,8,0:0:0:0:
448,144,91374,1,4,1:1:0:0:
48,192,96707,5,2,0:2:0:0:
208,240,96874,1,2,0:2:0:0:
192,208,96957,1,2,0:2:0:0:
384,192,97374,5,2,0:2:0:0:
368,176,97457,1,2,0:2:0:0:
352,160,97540,1,2,0:2:0:0:
336,144,97624,1,2,0:2:0:0:
144,128,98040,5,2,0:2:0:0:
176,96,98124,1,2,0:2:0:0:
208,64,98207,1,2,0:2:0:0:
288,80,98374,1,2,0:2:0:0:
368,112,98540,1,2,0:2:0:0:
400,128,98624,1,2,0:2:0:0:
400,208,98790,1,2,0:2:0:0:
432,224,98874,1,2,0:2:0:0:
416,304,99040,1,4,0:2:0:0:
96,336,99374,6,0,P|64:288|80:272,1,80,4|0,1:0|0:0,0:0:0:0:
176,160,99707,2,0,P|192:160|192:224,1,80,4|0,1:0|0:0,0:0:0:0:
96,112,100040,2,0,P|32:96|16:80,1,80,4|0,1:0|0:0,0:0:0:0:
192,96,100374,2,0,P|256:112|272:128,1,80,4|0,1:0|0:0,0:0:0:0:
416,176,100707,6,2,L|464:144,2,53.3333333333333,2|2|2,0:2|0:2|0:2,0:2:0:0:
464,160,101040,2,2,L|416:128,2,53.3333333333333,2|2|2,0:2|0:2|0:2,0:2:0:0:
400,128,101374,2,2,L|448:96,3,53.3333333333333,2|2|2|2,0:2|0:2|0:2|0:2,0:2:0:0:
368,96,101874,1,0,0:0:0:0:
128,144,102040,6,0,L|144:192,3,40
176,176,102374,2,0,L|160:224,3,40
160,256,102707,2,0,L|80:272,1,80
160,304,103040,2,0,L|240:288,1,80
480,272,103374,6,0,L|464:208,3,40
432,240,103707,2,0,L|448:176,3,40
416,176,104040,1,0,0:0:0:0:
384,160,104124,1,0,0:0:0:0:
368,128,104207,1,0,0:0:0:0:
288,144,104374,1,0,0:0:0:0:
144,112,104540,1,0,0:0:0:0:
384,96,104707,6,0,L|464:96,1,80
416,160,105040,2,0,L|336:160,1,80
176,160,105374,2,0,L|96:160,1,80
48,96,105707,2,0,L|128:96,1,80
368,112,106040,6,0,L|384:160,3,40
336,144,106374,2,0,L|320:192,3,40
288,176,106707,2,0,L|304:224,3,40
320,256,107040,2,0,P|256:288|240:272,1,80
96,272,107374,5,4,0:2:0:0:
80,272,107457,1,0,0:0:0:0:
72,272,107540,1,0,0:0:0:0:
80,272,107624,1,0,0:0:0:0:
96,272,107707,1,0,0:0:0:0:
256,272,107874,1,0,0:0:0:0:
416,272,108040,5,4,0:2:0:0:
432,272,108123,1,0,0:0:0:0:
440,272,108206,1,0,0:0:0:0:
432,272,108290,1,0,0:0:0:0:
416,272,108373,1,0,0:0:0:0:
256,272,108540,1,0,0:0:0:0:
192,240,108707,5,2,0:2:0:0:
336,176,108874,2,2,L|400:176,1,40,2|2,0:2|0:2,0:2:0:0:
352,176,109040,1,2,0:2:0:0:
176,176,109207,2,2,L|112:176,1,40,2|2,0:2|0:2,0:2:0:0:
160,176,109374,2,2,L|96:160,1,53.3333333333333,2|2,0:2|0:2,0:2:0:0:
128,176,109596,2,2,L|64:160,1,53.3333333333333,2|2,0:2|0:2,0:2:0:0:
160,144,109874,1,2,0:2:0:0:
400,192,110040,6,2,L|416:128,2,53.3333333333333,2|2|2,0:2|0:2|0:2,0:2:0:0:
352,208,110374,2,2,L|336:144,2,53.3333333333333,2|2|2,0:2|0:2|0:2,0:2:0:0:
304,240,110707,2,2,L|320:176,2,53.3333333333333,2|2|2,0:2|0:2|0:2,0:2:0:0:
256,256,111040,2,2,P|208:288|176:272,1,80,2|2,0:2|0:2,0:2:0:0:
144,224,111374,6,0,P|128:176|112:144,1,80
368,160,111707,2,0,P|384:208|400:240,2,80
368,112,112124,1,0,0:0:0:0:
384,80,112207,1,0,0:0:0:0:
400,48,112290,1,0,0:0:0:0:
432,16,112374,1,0,0:0:0:0:
400,32,112457,1,0,0:0:0:0:
352,48,112540,1,0,0:0:0:0:
320,48,112624,1,0,0:0:0:0:
272,64,112707,5,4,0:0:0:0:
112,112,113170,2,0,L|96:208,1,80
176,192,113632,2,0,L|192:288,1,80
272,288,114093,2,0,P|336:304|384:304,1,80
432,288,114555,1,0,0:0:0:0:
288,224,115016,5,0,0:0:0:0:
208,208,115247,1,0,0:0:0:0:
128,240,115478,1,0,0:0:0:0:
48,224,115709,2,0,P|32:160|48:128,2,80
128,240,116401,5,0,0:0:0:0:
288,256,116862,1,0,0:0:0:0:
128,256,117324,1,0,0:0:0:0:
384,256,117785,1,0,0:0:0:0:
64,272,118247,6,0,P|128:304|160:304,1,80
192,240,118709,2,0,P|256:272|288:272,1,80
304,208,119170,2,0,P|368:240|400:240,1,80
432,176,119632,2,0,P|496:208|528:208,1,80
208,176,120093,6,0,P|144:176|96:208,1,120
80,240,120555,2,0,P|80:304|96:304,1,80,8|0,0:0|0:0,0:0:0:0:
160,320,121016,1,0,0:0:0:0:
192,288,121132,1,0,0:0:0:0:
112,304,121362,1,0,0:0:0:0:
80,320,121478,1,8,0:2:0:0:
304,176,121939,6,0,P|368:176|416:208,1,120
432,240,122367,2,0,P|432:304|416:304,1,80,8|0,0:0|0:0,0:0:0:0:
352,320,122796,1,0,0:0:0:0:
320,288,122903,1,0,0:0:0:0:
400,304,123117,1,0,0:0:0:0:
432,320,123224,1,8,0:2:0:0:
192,128,123653,6,0,L|144:192,2,80,2|0|8,0:2|0:0|0:0,0:0:0:0:
320,128,124453,2,0,L|368:192,2,80,2|0|8,0:2|0:0|0:0,0:0:0:0:
176,128,125253,6,0,L|128:192,2,80,2|0|8,0:2|0:0|0:0,0:0:0:0:
336,128,126003,2,0,L|384:192,2,80,2|0|8,0:2|0:0|0:0,0:0:0:0:
160,128,126753,6,0,L|112:192,2,80,2|8|2,0:2|0:0|0:2,0:0:0:0:
352,128,127458,2,0,L|400:192,2,80,2|8|2,0:2|0:0|0:2,0:0:0:0:
128,128,128164,6,0,L|80:192,2,80,2|8|2,0:2|0:0|0:2,0:0:0:0:
384,128,128830,2,0,L|432:192,2,80,2|8|2,0:2|0:0|0:2,0:0:0:0:
112,128,129497,6,0,L|64:192,1,80,8|8,0:0|0:0,0:0:0:0:
400,128,129970,2,0,L|448:192,1,80,8|8,0:0|0:0,0:0:0:0:
256,176,130444,2,8,L|256:272,1,80
80,304,130760,5,12,0:0:0:0:
256,336,131060,1,12,0:0:0:0:
432,304,131360,1,12,0:0:0:0:
80,304,131660,1,12,0:0:0:0:
256,336,131960,6,8,L|336:336,1,80
256,336,132260,2,8,L|176:336,1,80
352,336,132560,2,8,L|400:256,1,80
160,336,132860,2,8,L|112:256,1,80
448,288,133160,2,10,L|400:192,1,80,10|10,0:2|0:2,0:2:0:0:
64,288,133460,2,10,L|112:192,1,80,10|10,0:2|0:2,0:2:0:0:
256,192,133760,6,0,L|288:160,7,40,4|0|0|0|4|0|0|0,0:2|0:0|0:0|0:0|0:2|0:0|0:0|0:0,0:0:0:0:
256,192,134360,6,0,L|224:160,7,40,4|0|0|0|4|0|0|0,0:2|0:0|0:0|0:0|0:2|0:0|0:0|0:0,0:0:0:0:
208,164,134960,5,4,0:2:0:0:
188,172,135035,1,0,0:0:0:0:
172,184,135110,1,0,0:0:0:0:
160,200,135185,1,0,0:0:0:0:
156,220,135260,1,4,0:2:0:0:
156,240,135335,1,0,0:0:0:0:
164,256,135410,1,0,0:0:0:0:
180,268,135485,1,0,0:0:0:0:
196,276,135560,5,4,0:2:0:0:
216,280,135635,1,0,0:0:0:0:
236,280,135710,1,0,0:0:0:0:
256,276,135785,1,0,0:0:0:0:
276,268,135860,1,4,0:2:0:0:
292,256,135935,1,0,0:0:0:0:
300,240,136010,1,0,0:0:0:0:
88,224,136760,5,4,0:0:0:0:
