osu file format v14

[General]
AudioFilename: Resurrection Spell.mp3
AudioLeadIn: 0
PreviewTime: 102040
Countdown: 0
SampleSet: None
StackLeniency: 0.7
Mode: 2
LetterboxInBreaks: 1
WidescreenStoryboard: 1

[Editor]
Bookmarks: 25542
DistanceSpacing: 1
BeatDivisor: 4
GridSize: 16
TimelineZoom: 1

[Metadata]
Title:Resurrection Spell
TitleUnicode:Resurrection Spell
Artist:ZUN remixed by LeaF
ArtistUnicode:ZUN remixed by LeaF
Creator:osu_gangster
Version:Cup
Source:
Tags:fujiwara no mokou fuziwara imperishable night eiyashou 08 reach for the moon, immortal smoke
BeatmapID:696565
BeatmapSetID:311925

[Difficulty]
HPDrainRate:3
CircleSize:2.8
OverallDifficulty:4
ApproachRate:3.5
SliderMultiplier:1.4
SliderTickRate:1

[Events]
//Background and Video events
0,0,"bg.jpg",0,0
//Break Periods
2,91574,95327
//Storyboard Layer 0 (Background)
//Storyboard Layer 1 (Fail)
//Storyboard Layer 2 (Pass)
//Storyboard Layer 3 (Foreground)
//Storyboard Sound Samples

[TimingPoints]
2708,666.666666666667,4,2,1,60,1,0
11041,-100,4,2,1,5,0,0
11208,-100,4,2,1,10,0,0
11374,-100,4,2,1,15,0,0
11541,-100,4,2,1,20,0,0
11708,-100,4,2,1,25,0,0
11874,-100,4,2,1,30,0,0
12041,-100,4,2,1,35,0,0
12208,-100,4,2,1,40,0,0
12374,-100,4,2,1,45,0,0
12541,-100,4,2,1,50,0,0
12708,-100,4,2,1,55,0,0
12874,-100,4,2,1,60,0,0
13041,-100,4,2,1,5,0,0
13376,600,4,1,1,50,1,0
15776,576.923076923077,4,1,1,50,1,0
18083,555.555555555556,4,1,1,60,1,0
20305,535.714285714286,4,1,1,60,1,0
21376,333.333333333333,4,1,1,60,1,0
23376,333.333333333333,4,1,0,60,1,0
26041,333.333333333333,4,1,1,80,1,1
26374,-100,4,1,1,80,0,0
47374,-117.647058823529,4,1,1,60,0,0
47707,-117.647058823529,4,1,2,60,0,0
47790,-117.647058823529,4,1,1,60,0,0
49040,-117.647058823529,4,1,2,60,0,0
49124,-117.647058823529,4,1,1,60,0,0
53040,-117.647058823529,4,1,2,60,0,0
53207,-117.647058823529,4,1,1,60,0,0
55707,-117.647058823529,4,1,2,60,0,0
56707,-117.647058823529,4,1,1,60,0,0
58374,-117.647058823529,4,1,2,60,0,0
58707,-117.647058823529,4,1,1,60,0,0
63707,-117.647058823529,4,1,2,60,0,0
63874,-117.647058823529,4,1,1,60,0,0
66374,-117.647058823529,4,1,2,60,0,0
66707,-117.647058823529,4,1,1,60,0,0
67040,-117.647058823529,4,1,2,60,0,0
67374,-117.647058823529,4,1,1,60,0,0
68707,-117.647058823529,4,2,1,80,0,0
74040,-100,4,1,1,75,0,0
77263,-100,4,1,2,75,0,0
77374,-100,4,1,1,75,0,0
79374,-100,4,1,1,80,0,0
90040,-100,4,1,0,80,0,0
91374,-100,4,2,0,75,0,0
96707,-100,4,1,0,75,0,0
102040,-100,4,1,0,75,0,1
112709,461.538461538462,4,2,1,80,1,0
118247,-100,4,1,1,60,0,0
120093,-100,4,1,1,75,0,0
120555,-100,4,1,2,75,0,0
121016,-100,4,1,1,75,0,0
121939,428.571428571429,4,1,1,70,1,0
122367,-100,4,1,2,70,0,0
122796,-100,4,1,1,70,0,0
123653,400,4,1,1,75,1,0
124053,-100,4,1,2,75,0,0
124153,-100,4,1,1,75,0,0
125253,375,4,1,1,75,1,0
125628,-100,4,1,2,75,0,0
125721,-100,4,1,1,75,0,0
126753,352.941176470588,4,1,1,80,1,0
127105,-100,4,1,2,80,0,0
127194,-100,4,1,1,80,0,0
128164,333.333333333333,4,1,1,80,1,0
128497,-100,4,1,2,80,0,0
128580,-100,4,1,1,80,0,0
129497,315.789473684211,4,1,1,80,1,0
130760,300,4,1,1,80,1,0
136085,-100,4,2,1,5,0,0
136760,600,4,1,1,80,1,0

[Colours]
Combo1 : 255,0,128
Combo2 : 128,0,0
Combo3 : 0,0,160
Combo4 : 128,64,64

[HitObjects]
80,192,2041,5,0,0:0:0:0:
144,192,2374,1,0,0:0:0:0:
208,192,2708,1,2,0:0:0:0:
480,256,4041,1,2,0:0:0:0:
416,288,4374,1,0,0:0:0:0:
352,272,4708,1,0,0:0:0:0:
208,272,5374,1,2,0:0:0:0:
48,256,7041,1,0,0:0:0:0:
112,240,7374,1,0,0:0:0:0:
176,240,7708,1,0,0:0:0:0:
240,256,8041,6,0,P|304:240|320:160,1,140,2|0,0:0|0:0,0:0:0:0:
160,176,9374,2,0,P|96:192|80:272,2,140,2|0|2,0:0|0:0|0:0,0:0:0:0:
256,192,11041,12,0,13041,0:0:0:0:
192,272,13376,6,0,P|112:240|144:208,1,140,4|0,0:0|0:0,0:0:0:0:
256,240,14576,1,0,0:0:0:0:
320,224,14876,1,0,0:0:0:0:
368,176,15176,1,0,0:0:0:0:
320,272,15776,6,0,P|400:240|368:208,1,140
192,272,16929,2,0,P|112:240|144:208,1,140,0|0,0:0|0:0,0:0:0:0:
256,192,18083,5,4,0:2:0:0:
400,192,18638,1,4,0:2:0:0:
256,192,19194,1,4,0:2:0:0:
112,192,19749,1,4,0:2:0:0:
288,192,20305,6,4,L|336:256,3,70,4|4|4|4,0:2|0:2|0:2|0:2,0:2:0:0:
416,256,21376,1,4,0:2:0:0:
256,192,21542,12,0,23375,0:0:0:0:
144,192,23876,5,0,0:0:0:0:
144,192,24042,1,0,0:0:0:0:
368,192,24542,1,0,0:0:0:0:
368,192,24708,1,0,0:0:0:0:
256,208,25042,2,0,L|128:288,2,140,0|0|8,0:0|0:0|0:0,0:0:0:0:
352,272,26041,6,0,P|416:256|336:128,1,280
256,192,27041,1,0,0:0:0:0:
160,112,27374,2,0,P|96:128|176:256,1,280
256,192,28374,1,0,0:0:0:0:
368,160,28707,6,0,P|400:208|352:288,1,140
256,304,29374,1,0,0:0:0:0:
144,288,29707,1,0,0:0:0:0:
48,304,30040,2,0,P|16:240|64:192,2,140
160,304,31040,1,0,0:0:0:0:
272,320,31374,6,0,B|308:284|373:235|473:221|293:291|250:348,1,280
144,352,32374,1,0,0:0:0:0:
80,272,32707,2,0,P|48:208|96:160,1,140
192,112,33374,2,0,P|240:80|320:128,1,140
416,144,34040,6,4,P|480:240|416:384,2,280
320,192,35707,1,0,0:0:0:0:
208,192,36040,1,0,0:0:0:0:
96,192,36374,1,0,0:0:0:0:
48,96,36707,6,0,P|128:64|176:224,1,280
256,304,37707,1,0,0:0:0:0:
320,208,38040,2,0,P|336:80|464:96,1,280
416,192,39040,1,0,0:0:0:0:
336,256,39374,6,0,P|272:320|208:288,1,140
128,304,40040,1,0,0:0:0:0:
208,224,40374,2,0,P|256:176|336:144,1,140
256,48,41040,2,0,P|176:128|192:160,2,140
352,96,42040,6,0,P|448:192|256:304,1,420
240,320,43374,2,0,P|64:272|160:96,1,420
240,112,44707,6,4,P|256:224|272:112,2,280
352,96,46374,2,0,P|432:112|432:176,2,140
256,112,47374,6,0,P|192:112|144:256,1,238.00000453949
224,304,48374,1,8,0:0:0:0:
320,304,48707,2,0,P|384:256|304:144,1,238.00000453949
224,144,49707,1,8,0:0:0:0:
128,176,50040,6,0,P|176:224|224:224,1,119.000002269745,0|8,0:0|0:0,0:0:0:0:
384,208,50707,2,0,P|336:160|288:160,1,119.000002269745,0|8,0:0|0:0,0:0:0:0:
128,176,51374,2,0,P|176:224|224:224,2,119.000002269745,0|8|0,0:0|0:0|0:0,0:0:0:0:
224,144,52374,1,8,0:0:0:0:
320,160,52707,6,0,P|432:176|464:320,1,238.00000453949,4|0,0:0|0:0,0:0:0:0:
368,320,53707,1,8,0:0:0:0:
256,336,54040,5,8,0:0:0:0:
224,336,54263,1,8,0:0:0:0:
192,336,54485,1,8,0:0:0:0:
160,336,54707,2,0,P|112:304|128:240,1,119.000002269745
160,128,55374,6,0,P|256:80|368:144,2,238.00000453949,0|0|8,0:0|0:0|0:0,0:0:0:0:
272,112,57040,1,8,0:0:0:0:
352,128,57374,1,8,0:0:0:0:
240,112,57707,1,8,0:0:0:0:
160,128,58040,6,0,P|256:80|368:144,1,238.00000453949
464,192,59040,2,8,P|368:240|256:176,1,238.00000453949
176,144,60040,1,0,0:0:0:0:
80,176,60374,1,8,0:0:0:0:
160,256,60707,6,0,P|224:288|272:256,1,119.000002269745,0|8,0:0|0:0,0:0:0:0:
352,256,61374,2,0,P|288:288|240:256,1,119.000002269745,0|8,0:0|0:0,0:0:0:0:
160,256,62040,2,0,P|224:288|272:256,2,119.000002269745,0|8|0,0:0|0:0|0:0,0:0:0:0:
352,256,63040,1,8,0:0:0:0:
464,208,63374,6,0,P|384:240|272:128,1,238.00000453949
128,160,64374,1,8,0:0:0:0:
224,256,64707,2,8,L|272:336,3,79.3333348464966
480,272,66040,6,0,P|240:112|128:224,1,476.00000907898,4|8,0:0|0:0,0:0:0:0:
208,304,67707,1,8,0:0:0:0:
352,304,68040,2,8,L|480:272,2,119.000002269745,8|8|0,0:0|0:0|1:0,0:0:0:0:
112,320,69263,5,0,0:0:0:0:
112,320,69374,1,0,1:0:0:0:
352,320,69929,1,0,0:0:0:0:
352,320,70040,1,0,1:0:0:0:
160,320,70596,1,0,0:0:0:0:
160,320,70707,1,0,1:0:0:0:
400,320,71263,1,0,0:0:0:0:
400,320,71374,6,0,P|256:224|224:256,1,238.00000453949,0|0,1:0|1:0,2:0:0:0:
112,320,72707,2,0,P|256:224|288:256,1,238.00000453949,0|0,1:0|1:0,2:0:0:0:
384,224,73707,1,0,1:0:0:0:
352,96,74040,5,0,0:0:0:0:
288,32,74263,1,8,0:0:0:0:
160,48,74596,1,8,0:0:0:0:
64,128,74929,2,8,P|48:224|80:256,1,140
192,256,75596,2,8,P|208:160|176:128,1,140
304,96,76263,1,8,0:0:0:0:
432,128,76596,1,8,0:0:0:0:
368,240,76929,6,8,P|272:288|112:240,1,280
192,144,77929,1,8,0:0:0:0:
304,96,78263,2,8,L|432:160,2,140
256,96,79040,1,0,0:0:0:0:
160,160,79374,6,0,P|112:240|256:288,1,280
336,192,80374,1,0,0:0:0:0:
352,160,80707,2,0,P|400:240|256:288,1,280
176,192,81707,1,0,0:0:0:0:
48,256,82040,6,0,P|128:304|176:304,1,140
304,288,82707,2,0,P|224:336|176:336,1,140,0|0,0:0|0:0,0:0:0:0:
96,256,83374,2,0,P|176:304|224:304,1,140
352,288,84041,2,0,P|272:336|224:336,1,140,0|0,0:0|0:0,0:0:0:0:
112,256,84707,6,0,P|80:128|320:144,1,420
400,256,86040,2,0,P|432:128|192:144,1,420
96,192,87374,5,0,0:0:0:0:
224,240,87707,1,0,0:0:0:0:
368,240,88040,1,0,0:0:0:0:
496,192,88374,1,0,0:0:0:0:
384,112,88707,6,0,P|304:64|256:80,1,140
128,128,89374,2,0,P|64:128|64:64,1,140
256,192,90040,12,8,91040,0:0:0:0:
368,208,91374,5,4,1:0:0:0:
176,288,96707,6,2,P|144:240|144:192,1,105,2|2,0:2|0:2,0:2:0:0:
336,96,97374,2,2,P|368:144|368:192,1,105,2|2,0:2|0:2,0:2:0:0:
192,160,98040,2,2,P|112:144|64:208,1,140,2|2,0:2|0:2,0:2:0:0:
192,256,98707,1,2,0:2:0:0:
320,272,99040,1,2,0:2:0:0:
432,192,99374,5,4,0:0:0:0:
288,192,99707,1,4,0:0:0:0:
192,96,100040,1,4,0:0:0:0:
48,96,100373,1,4,0:0:0:0:
160,192,100707,2,0,L|192:256,3,70
256,288,101374,2,0,P|320:288|400:224,1,140
224,256,102040,6,0,P|176:272|192:128,1,280
320,176,103040,1,0,0:0:0:0:
464,192,103374,2,0,P|480:256|416:320,1,140
304,256,104040,2,0,P|240:240|176:272,1,140
48,320,104707,5,0,0:0:0:0:
160,240,105040,1,0,0:0:0:0:
96,112,105374,1,0,0:0:0:0:
224,48,105707,1,0,0:0:0:0:
144,160,106040,2,0,P|80:256|288:288,1,420
336,160,107374,6,4,P|416:128|432:272,1,280
288,272,108374,1,0,0:0:0:0:
144,288,108707,2,4,P|80:304|144:208,2,280
288,304,110374,5,4,0:0:0:0:
432,304,110707,1,4,0:0:0:0:
288,304,111040,1,4,0:0:0:0:
144,304,111374,2,0,L|192:240,3,70,4|0|4|0,0:0|0:0|0:0|0:0,0:0:0:0:
240,208,112040,2,4,P|320:192|368:368,1,280
208,128,113632,6,0,L|160:64,2,70
336,64,114555,2,0,P|416:112|272:320,1,420
144,320,116401,1,0,0:0:0:0:
112,176,116862,1,0,0:0:0:0:
256,176,117324,1,0,0:0:0:0:
288,32,117785,1,0,0:0:0:0:
176,112,118247,6,0,L|112:240,1,140
256,224,119170,2,0,L|320:352,1,140
416,240,120093,6,0,P|464:192|272:32,1,420,0|8,0:0|0:0,0:0:0:0:
96,144,121939,2,0,P|48:192|240:352,1,420,0|8,0:0|0:0,0:0:0:0:
368,272,123653,6,0,P|304:192|400:64,1,280
256,64,124853,1,8,0:0:0:0:
144,112,125253,2,0,P|208:192|112:320,1,280
256,64,126378,1,8,0:0:0:0:
368,272,126753,6,0,P|304:192|400:64,1,280
256,64,127811,1,8,0:0:0:0:
144,112,128164,2,0,P|208:192|112:320,1,280
256,64,129164,1,8,0:0:0:0:
352,176,129497,5,8,0:0:0:0:
320,240,129654,1,8,0:0:0:0:
160,208,129970,1,8,0:0:0:0:
192,144,130127,1,8,0:0:0:0:
336,144,130444,1,8,0:0:0:0:
448,240,130760,6,8,P|384:272|304:240,1,140
160,240,131360,2,8,P|224:272|304:240,1,140
144,240,131960,6,8,L|112:304,1,70
128,240,132260,2,8,L|96:304,1,70
112,240,132560,2,8,L|80:304,1,70
96,240,132860,2,8,L|64:304,1,70
128,336,133160,1,8,0:0:0:0:
192,336,133310,1,8,0:0:0:0:
256,336,133460,1,8,0:0:0:0:
320,336,133610,1,8,0:0:0:0:
384,336,133760,1,8,0:0:0:0:
256,192,133910,12,0,136085,0:0:0:0:
336,208,136760,5,4,0:0:0:0:
