osu file format v9

[General]
AudioFilename: Kaguya Reflection.mp3
AudioLeadIn: 1000
PreviewTime: 43765
Countdown: 0
SampleSet: Soft
StackLeniency: 0.7
Mode: 0
LetterboxInBreaks: 0

[Editor]
Bookmarks: 9268,17224
DistanceSpacing: 1.1
BeatDivisor: 2
GridSize: 4

[Metadata]
Title:Kaguya Reflection
Artist:ZUN Vs. Ryu
Creator:Illumined
Version:MEDIUM
Source:
Tags:hs714 Byakko+ GariK+ Sakura Relfection Touhou Bemani Reflec Beat Mashup Ear-copy Imperishable Night Lunatic Princess

[Difficulty]
HPDrainRate:5
CircleSize:4
OverallDifficulty:6
ApproachRate:7
SliderMultiplier:1.5
SliderTickRate:2

[Events]
//Background and Video events
0,0,"BG.jpg"
//Break Periods
2,57224,66732
//Storyboard Layer 0 (Background)
//Storyboard Layer 1 (Fail)
//Storyboard Layer 2 (Pass)
//Storyboard Layer 3 (Foreground)
//Storyboard Sound Samples
//Background Colour Transformations
3,100,163,162,255

[TimingPoints]
1334.18720931067,331.491712707182,4,2,1,90,1,0
3654,-100,4,2,2,90,0,0
3986,-100,4,2,1,90,0,0
8958,-83.3333333333333,4,2,2,90,0,0
9289,-100,4,2,1,90,0,0
11941,-100,4,1,1,75,0,0
12107,-100,4,2,1,90,0,0
12273,-100,4,1,1,75,0,0
14262,-100,4,2,2,90,0,0
14428,-100,4,2,1,90,0,0
14593,-100,4,1,1,75,0,0
14759,-100,4,2,1,90,0,0
14925,-100,4,1,1,75,0,0
16748,-100,4,2,1,90,0,0
16914,-100,4,1,1,75,0,0
17080,-100,4,2,1,90,0,0
17245,-100,4,1,1,75,0,0
19566,-100,4,2,2,90,0,0
19897,-100,4,1,1,60,0,0
21223,-100,4,1,1,45,0,0
22549,-133.333333333333,4,2,1,50,0,0
31831,-133.333333333333,4,2,1,60,0,0
32162,-133.333333333333,4,2,1,70,0,0
32825,-100,4,2,1,80,0,0
33157,-100,4,1,1,80,0,0
33323,-100,4,1,2,80,0,0
35477,-100,4,2,2,80,0,0
35643,-100,4,1,2,80,0,0
40781,-100,4,2,2,80,0,0
40947,-100,4,1,2,80,0,0
43765,-100,4,1,2,80,0,1
46085,-100,4,2,2,80,0,1
46417,-100,4,1,2,80,0,1
47743,-100,4,1,1,80,0,1
48737,-100,4,1,2,80,0,1
49068,-100,4,1,2,70,0,0
51389,-100,4,2,2,70,0,0
51720,-100,4,1,2,70,0,0
54538,-100,4,1,2,45,0,0
55367,-100,4,1,2,30,0,0
57024,-100,4,2,1,60,0,0
67632,-100,4,2,2,60,0,0
69952,-100,4,2,2,50,0,0
70284,-100,4,2,2,60,0,0
72604,-100,4,2,2,50,0,0
72936,-100,4,1,2,45,0,0
74262,-100,4,1,2,50,0,0
76914,-100,4,1,2,60,0,0
78240,-83.3333333333333,4,1,1,80,0,1
78406,-83.3333333333333,4,1,1,70,0,1
89013,-83.3333333333333,4,2,1,70,0,1
89179,-83.3333333333333,4,1,1,70,0,1
89345,-83.3333333333333,4,2,1,70,0,1
89510,-83.3333333333333,4,1,1,70,0,1
89676,-83.3333333333333,4,2,1,70,0,1
89842,-83.3333333333333,4,1,1,70,0,1
90339,-83.3333333333333,4,2,1,70,0,1
90505,-83.3333333333333,4,1,1,70,0,1
90671,-83.3333333333333,4,2,1,70,0,1
90836,-83.3333333333333,4,1,1,70,0,1
91334,-83.3333333333333,4,2,1,70,0,1
91499,-83.3333333333333,4,1,1,70,0,1
91665,-83.3333333333333,4,2,1,70,0,1
91831,-83.3333333333333,4,1,1,70,0,1
91997,-83.3333333333333,4,2,1,70,0,1
92162,-83.3333333333333,4,1,1,70,0,1
92328,-83.3333333333333,4,2,1,70,0,1
92494,-83.3333333333333,4,1,1,70,0,1
92991,-83.3333333333333,4,2,1,70,0,1
93157,-83.3333333333333,4,1,1,70,0,1
93323,-83.3333333333333,4,2,1,70,0,1
93488,-83.3333333333333,4,1,1,70,0,1
94151,-100,4,1,1,60,0,1
95146,-100,4,1,1,60,0,1
95312,-100,4,2,1,60,0,1
95477,-100,4,1,0,60,0,1
96803,-100,4,1,0,60,0,1
96969,-100,4,2,0,60,0,1
99455,-100,4,2,0,60,0,0
99538,-100,4,2,0,50,0,0
100781,-100,4,2,0,35,0,0
102107,-100,4,2,0,15,0,0
102770,-100,4,2,0,5,0,0

[Colours]
Combo1 : 16,214,224
Combo2 : 35,225,30
Combo3 : 222,71,207
Combo4 : 233,211,63

[HitObjects]
256,192,1334,1,4
256,192,1499,1,0
176,96,1665,2,0,B|208:72|260:80,1,75,8|2
379,170,1997,2,0,B|383:210|350:251,1,75,0|2
212,309,2328,2,0,B|176:293|157:244,1,75,8|2
162,256,2825,5,2
168,176,2991,1,8
92,208,3157,1,2
100,124,3323,2,0,B|132:100|172:96,1,75
384,128,3654,2,0,B|352:152|312:156,1,75,4|0
316,68,3986,5,0
396,44,4151,1,2
460,96,4317,2,0,B|480:128|460:172,1,75,8|2
448,304,4649,2,0,B|410:305|382:266,1,75,0|2
272,192,4980,2,0,B|289:158|337:154,1,75,8|2
272,192,5312,5,4
196,164,5477,1,2
208,244,5643,1,4
132,216,5809,1,2
140,300,5975,2,0,B|148:340|148:340|184:356,1,75
332,353,6306,2,0,B|364:340|364:340|372:300,1,75,0|2
256,260,6638,5,0
256,260,6803,1,2
184,216,6969,2,0,B|160:180|180:144,1,75,8|2
192,28,7301,2,0,B|235:25|256:60,1,75,0|2
352,116,7632,2,0,B|332:154|291:155,1,75,8|2
292,155,8129,5,2
336,236,8295,2,0,B|356:198|397:197,2,75,8|2|0
256,292,8792,1,0
176,236,8958,1,4
176,236,9124,1,0
176,236,9289,6,0,B|108:192,2,75,0|2|8
256,212,9787,1,2
336,188,9952,2,0,B|404:144,2,75,0|2|8
252,180,10450,5,2
172,164,10615,1,4
172,164,10781,1,2
232,108,10947,1,4
232,108,11113,1,2
152,96,11278,1,4
152,96,11444,1,2
92,152,11610,1,4
92,152,11776,1,2
52,224,11941,6,0,B|84:240|84:240|136:224,1,75,0|2
112,312,12273,2,0,B|260:268,2,150,0|8|0
272,356,13267,2,0,B|428:344,2,150,8|0|8
392,256,14262,5,4
476,252,14428,1,2
428,188,14593,1,4
512,180,14759,1,2
448,112,14925,6,0,B|296:124,2,150,0|8|0
296,44,15919,2,0,B|140:32,2,150,8|0|8
256,124,16748,1,2
256,152,16914,1,0
256,180,17080,1,2
256,208,17245,5,4
96,256,17577,1,8
252,304,17908,1,0
156,168,18240,1,8
156,168,18406,1,8
156,168,18571,1,4
152,332,18903,5,8
252,304,19234,1,0
348,332,19566,1,4
495,264,19897,5,0
335,229,20229,1,8
445,351,20560,1,0
426,189,20892,1,8
426,189,21057,1,8
256,192,21223,12,4,22549
256,192,23212,5,2
256,96,23875,1,4
172,192,24207,1,2
172,192,24372,1,2
112,172,24538,2,0,B|92:228|108:284,1,112.499996647239,0|2
256,268,25201,5,4
256,368,25864,1,2
256,268,26527,1,0
364,208,26859,1,2
364,208,27024,1,2
424,228,27190,2,0,B|436:172|424:116,1,112.499996647239,0|2
320,52,27853,5,4
264,240,28516,1,0
388,244,28847,1,2
412,124,29179,1,4
300,284,29842,1,0
416,328,30173,1,2
472,216,30505,5,4
348,216,30836,1,2
224,232,31168,1,0
104,212,31499,1,2
104,212,31665,1,2
256,192,31831,12,0,32825
216,276,33157,6,0,B|304:288,1,75,4|2
348,228,33488,1,8
192,168,33820,1,2
344,104,34151,1,8
268,68,34317,2,0,B|216:60,2,37.5,2|0|0
344,104,34649,5,2
360,24,34814,1,8
416,96,34980,1,2
432,16,35146,2,0,B|476:32|476:32|500:32|500:32|492:56|492:56|500:124,1,150,0|4
412,268,35809,6,0,B|400:176,1,75,0|2
320,188,36140,1,8
232,328,36472,1,2
320,188,36803,1,8
252,140,36969,5,0
252,140,37052,1,0
252,140,37135,2,0,B|240:100|260:64,1,75,2|0
303,214,37466,2,0,B|343:224|364:259,1,75,2|0
212,221,37798,2,0,B|184:251|143:252,1,75,2|2
152,172,38129,1,10
256,300,38461,5,0
92,296,38792,1,8
100,132,39124,1,2
264,136,39455,1,0
324,192,39621,2,0,B|364:180,2,37.5,2|0|0
264,136,39952,5,2
340,108,40118,1,0
272,60,40284,1,2
192,88,40450,2,0,B|176:128|176:128|164:144|164:144|180:152|180:152|184:188|208:224,1,150,0|4
316,336,41113,5,0
464,264,41444,1,8
396,112,41776,1,2
244,176,42107,1,8
256,192,42439,12,0,43433
208,124,43765,6,0,B|200:88|204:40,2,75,0|2|8
252,204,44262,1,2
320,264,44428,2,0,B|328:300|324:348,2,75,0|2|8
336,176,44925,1,2
252,204,45091,5,4
196,268,45256,1,2
140,188,45422,1,8
84,256,45588,1,0
32,184,45754,2,0,B|48:160|28:124|28:124|56:96|24:72|68:28,1,150,0|4
232,84,46417,5,0
308,132,46582,2,0,B|348:148|400:136,2,75,2|8|2
192,176,47080,2,0,B|152:192|100:180,2,75,0|2|8
260,236,47577,1,2
208,308,47743,6,0,B|248:332|292:320,1,75,4|8
404,336,48074,2,0,B|404:289|372:257,1,75,0|8
336,148,48406,2,0,B|295:170|283:214,1,75,0|8
320,276,48737,1,8
320,276,48903,1,2
320,276,49068,5,4
476,188,49400,1,8
48,196,50063,1,8
136,152,50394,5,4
384,216,50726,1,8
136,152,51389,1,12
328,152,51720,5,4
184,232,52052,1,8
216,112,52383,1,4
296,272,52715,1,8
256,192,53046,12,0,54372
220,260,54538,5,0
220,260,54704,2,0,B|304:260,2,75
256,192,55367,12,4,57024
324,176,67632,5,2
256,132,67798,2,0,B|248:52,1,75,0|8
212,220,68295,5,2
144,176,68461,2,0,B|136:96,1,75,0|8
80,256,68958,5,2
12,212,69124,2,0,B|4:132,1,75,0|8
28,348,69621,6,0,B|80:360|80:360|100:344|100:344|128:356|176:348,1,150,0|12
316,308,70284,5,2
392,276,70450,2,0,B|480:288,1,75,0|8
332,188,70947,5,2
408,160,71113,2,0,B|496:172,1,75,0|8
352,68,71610,5,2
428,40,71776,2,0,B|516:52,1,75,0|8
260,32,72273,6,0,B|244:72|244:72|264:96|264:96|248:132|256:184,1,150,2|4
256,336,72936,6,0,B|176:336,2,75
188,292,73433,2,0,B|100:276,2,75
120,244,73930,2,0,B|52:208,2,75,0|0|4
168,176,74428,6,0,B|240:148,2,75
220,112,74925,2,0,B|308:108,2,75
140,92,75422,1,0
256,192,75588,12,0,77908
256,304,78240,6,2,B|340:336|340:336|432:296,1,180.000004291535,0|2
448,204,78737,1,0
348,212,78903,2,10,B|248:220,1,90.0000021457673,0|2
200,140,79234,6,2,B|392:124,1,180.000004291535,0|0
336,16,79731,1,2
236,24,79897,1,0
308,92,80063,1,2
208,96,80229,2,2,B|176:108|144:140|144:140|132:88|100:40,1,180.000004291535,2|0
16,92,80726,5,2
28,196,80892,2,2,B|12:328|12:328|48:368,1,180.000004291535,0|2
120,292,81389,1,2
200,236,81555,2,0,B|216:136,1,90.0000021457673,0|2
308,112,81886,2,2,B|280:296,1,180.000004291535,0|2
356,352,82383,5,2
452,324,82549,1,0
372,264,82715,1,2
468,240,82881,2,2,B|500:192|500:192|480:64,1,180.000004291535,0|2
388,32,83378,1,2
368,128,83544,6,2,B|300:156|300:156|192:136,1,180.000004291535,0|2
140,216,84041,1,2
80,136,84207,2,0,B|88:80|88:80|128:52,1,90.0000021457673,2|2
80,136,84538,2,2,B|68:248|68:248|32:312,1,180.000004291535,0|2
116,360,85035,6,0,B|140:313|140:313|200:316,1,90.0000021457673,0|2
256,253,85367,1,0
187,181,85533,2,2,B|251:117|251:117|315:181,1,180.000004291535,0|2
370,261,86030,1,0
432,184,86196,6,2,B|480:108|480:108|440:28,1,180.000004291535,0|2
340,24,86693,1,0
248,56,86859,2,2,B|156:56,1,90.0000021457673,0|2
168,156,87190,2,2,B|352:156,1,180.000004291535,2|4
328,256,87687,5,2
228,256,87853,1,0
328,256,88019,1,2
284,344,88185,2,2,B|184:352|184:352|132:284,1,180.000004291535,0|2
144,188,88682,5,0
144,188,88765,1,0
144,188,88847,2,0,B|160:96,1,90.0000021457673,4|2
260,96,89179,2,0,B|244:200,1,90.0000021457673,2|2
344,188,89510,2,0,B|360:96,1,90.0000021457673,0|2
460,100,89842,2,2,B|432:292,1,180.000004291535,2|0
356,340,90339,5,2
276,280,90505,1,2
364,232,90671,1,2
276,184,90836,2,0,B|172:172|172:172|108:224,1,180.000004291535,0|2
116,316,91334,1,2
28,276,91499,6,0,B|20:176,1,90.0000021457673,0|2
114,220,91831,2,0,B|106:120,1,90.0000021457673,2|2
200,164,92162,2,0,B|192:64,1,90.0000021457673,0|2
288,104,92494,2,0,B|284:48|284:48|400:116,1,180.000004291535,2|0
476,160,92991,5,2
380,184,93157,1,2
464,240,93323,1,0
368,264,93488,1,0
172,224,93820,5,2
72,228,93986,1,0
120,160,94151,1,4
284,148,94483,1,2
132,80,94814,1,0
296,68,95146,5,0
284,148,95312,1,2
268,228,95477,1,4
432,216,95809,1,0
292,304,96140,1,0
472,288,96472,1,4
292,304,96803,5,4
212,288,96969,1,2
196,208,97135,1,0
348,140,97466,1,4
332,60,97632,1,2
252,44,97798,1,0
116,140,98129,5,4
240,312,98461,1,4
348,140,98792,1,4
236,200,99124,1,0
236,200,99455,1,4
256,192,99538,12,0,103433
