osu file format v9

[General]
AudioFilename: Kaguya Reflection.mp3
AudioLeadIn: 1000
PreviewTime: 43765
Countdown: 0
SampleSet: Soft
StackLeniency: 0.7
Mode: 0
LetterboxInBreaks: 0

[Editor]
Bookmarks: 9268,17224
DistanceSpacing: 0.9
BeatDivisor: 8
GridSize: 4

[Metadata]
Title:Kaguya Reflection
Artist:ZUN Vs. Ryu
Creator:Illumined
Version:HARD
Source:
Tags:hs714 Byakko+ GariK+ Sakura Relfection Touhou Bemani Reflec Beat Mashup Ear-copy Imperishable Night Lunatic Princess

[Difficulty]
HPDrainRate:8
CircleSize:4
OverallDifficulty:8
ApproachRate:9
SliderMultiplier:1.9
SliderTickRate:2

[Events]
//Background and Video events
0,0,"BG.jpg"
//Break Periods
//Storyboard Layer 0 (Background)
//Storyboard Layer 1 (Fail)
//Storyboard Layer 2 (Pass)
//Storyboard Layer 3 (Foreground)
//Storyboard Sound Samples
//Background Colour Transformations
3,100,163,162,255

[TimingPoints]
1334.18720931067,331.491712707182,4,2,1,90,1,0
3654,-83.3333333333333,4,2,2,90,0,0
3986,-100,4,2,1,90,0,0
8958,-83.3333333333333,4,2,2,90,0,0
9289,-100,4,2,1,90,0,0
11941,-100,4,1,1,75,0,0
12107,-100,4,2,1,90,0,0
12273,-100,4,1,1,75,0,0
12770,-100,4,2,1,90,0,0
12936,-100,4,1,1,75,0,0
13433,-100,4,2,1,90,0,0
13599,-100,4,1,1,75,0,0
13765,-100,4,2,1,90,0,0
13930,-100,4,1,1,75,0,0
14096,-100,4,2,1,90,0,0
14262,-100,4,2,2,90,0,0
14428,-100,4,2,1,90,0,0
14593,-100,4,1,1,75,0,0
14759,-100,4,2,1,90,0,0
14925,-100,4,1,1,75,0,0
15422,-100,4,2,1,90,0,0
15588,-100,4,1,1,75,0,0
16085,-100,4,2,1,90,0,0
16251,-100,4,1,1,75,0,0
16417,-100,4,2,1,90,0,0
16582,-100,4,1,1,75,0,0
16748,-100,4,2,1,90,0,0
16914,-100,4,1,1,75,0,0
17080,-100,4,2,1,90,0,0
17245,-100,4,1,1,75,0,0
19566,-100,4,2,2,90,0,0
19897,-100,4,1,1,60,0,0
21223,-100,4,1,1,45,0,0
22549,-133.333333333333,4,2,1,50,0,0
31831,-133.333333333333,4,2,1,60,0,0
32162,-133.333333333333,4,2,1,70,0,0
32825,-100,4,2,1,80,0,0
33157,-83.3333333333333,4,1,1,80,0,0
33323,-100,4,1,2,80,0,0
35477,-83.3333333333333,4,2,2,80,0,0
35643,-100,4,1,2,80,0,0
40781,-100,4,2,2,80,0,0
40947,-100,4,1,2,80,0,0
43765,-100,4,1,2,80,0,1
46085,-83.3333333333333,4,2,2,80,0,1
46417,-100,4,1,2,80,0,1
47743,-100,4,1,1,80,0,1
48737,-100,4,1,2,80,0,1
49068,-100,4,1,2,70,0,0
51389,-83.3333333333333,4,2,2,70,0,0
51720,-100,4,1,2,70,0,0
54538,-100,4,1,2,45,0,0
55367,-100,4,1,2,30,0,0
57024,-181.818181818181,4,2,1,60,0,0
67632,-100,4,2,2,60,0,0
69952,-83.3333333333333,4,2,2,50,0,0
70284,-100,4,2,2,60,0,0
72604,-83.3333333333333,4,2,2,50,0,0
72936,-100,4,1,2,45,0,0
74262,-100,4,1,2,50,0,0
76251,-83.3333333333333,4,1,2,40,0,0
76914,-100,4,1,2,60,0,0
78240,-83.3333333333333,4,1,1,80,0,1
78406,-83.3333333333333,4,1,1,70,0,1
89013,-83.3333333333333,4,2,1,70,0,1
89179,-83.3333333333333,4,1,1,70,0,1
89345,-83.3333333333333,4,2,1,70,0,1
89510,-83.3333333333333,4,1,1,70,0,1
89676,-83.3333333333333,4,2,1,70,0,1
89842,-83.3333333333333,4,1,1,70,0,1
90008,-83.3333333333333,4,2,1,70,0,1
90173,-83.3333333333333,4,1,1,70,0,1
90339,-83.3333333333333,4,2,1,70,0,1
90505,-83.3333333333333,4,1,1,70,0,1
90671,-83.3333333333333,4,2,1,70,0,1
90836,-83.3333333333333,4,1,1,70,0,1
91002,-83.3333333333333,4,2,1,70,0,1
91168,-83.3333333333333,4,1,1,70,0,1
91334,-83.3333333333333,4,2,1,70,0,1
91499,-83.3333333333333,4,1,1,70,0,1
91665,-83.3333333333333,4,2,1,70,0,1
91831,-83.3333333333333,4,1,1,70,0,1
91997,-83.3333333333333,4,2,1,70,0,1
92162,-83.3333333333333,4,1,1,70,0,1
92328,-83.3333333333333,4,2,1,70,0,1
92494,-83.3333333333333,4,1,1,70,0,1
92660,-83.3333333333333,4,2,1,70,0,1
92825,-83.3333333333333,4,1,1,70,0,1
92991,-83.3333333333333,4,2,1,70,0,1
93033,-83.3333333333333,4,1,1,70,0,1
93323,-83.3333333333333,4,2,1,70,0,1
93488,-83.3333333333333,4,1,1,70,0,1
94151,-100,4,1,1,60,0,1
94317,-100,4,2,1,60,0,1
94483,-100,4,1,1,60,0,1
94649,-100,4,2,1,60,0,1
94814,-100,4,1,1,60,0,1
94980,-100,4,2,1,60,0,1
95146,-100,4,1,1,60,0,1
95312,-100,4,2,1,60,0,1
95477,-100,4,1,0,60,0,1
95643,-100,4,2,1,60,0,1
95809,-100,4,1,1,60,0,1
95975,-100,4,2,1,60,0,1
96140,-100,4,1,1,60,0,1
96306,-100,4,2,1,60,0,1
96472,-83.3333333333333,4,2,2,60,0,1
96638,-100,4,2,1,60,0,1
96803,-100,4,1,0,60,0,1
96969,-100,4,2,0,60,0,1
99455,-100,4,2,0,60,0,0
99538,-100,4,2,0,50,0,0
100781,-100,4,2,0,35,0,0
102107,-100,4,2,0,15,0,0
102770,-100,4,2,0,5,0,0

[Colours]
Combo1 : 16,214,224
Combo2 : 35,225,30
Combo3 : 222,71,207
Combo4 : 233,211,63

[HitObjects]
257,92,1334,1,4
355,165,1499,1,2
316,282,1665,1,8
188,284,1831,1,2
152,160,1997,2,0,B|136:116|141:60,1,95,0|2
280,298,2328,2,0,B|250:334|199:358,1,95,8|2
336,117,2660,2,0,B|382:125|428:157,1,95,0|2
256,192,2991,5,8
134,217,3157,1,2
77,106,3323,1,0
165,20,3488,1,0
276,68,3654,2,0,B|304:55|304:55|319:72|319:72|341:67|341:67|388:69,1,114.000002717972,4|0
464,270,3986,5,0
358,332,4151,1,2
268,244,4317,1,8
328,136,4483,1,2
442,161,4649,2,0,B|415:207|365:226,1,95,0|2
189,369,4980,2,0,B|162:322|171:269,1,95,8|2
136,45,5312,2,0,B|189:46|231:79,1,95,4|2
45,89,5643,5,0
143,153,5809,1,2
43,202,5975,2,0,B|74:238|76:296,1,95,8|0
45,89,6306,5,8
235,206,6472,1,2
4,321,6638,1,4
98,364,6803,1,2
195,326,6969,1,8
295,355,7135,1,2
508,189,7301,5,0
408,159,7466,1,2
320,216,7632,1,8
224,171,7798,1,2
72,45,7964,6,0,B|115:26|166:41,1,95,0|2
322,124,8295,1,8
224,171,8461,1,2
320,216,8627,1,0
227,270,8792,1,0
311,323,8958,2,0,B|289:350|289:350|275:352|275:352|245:380|212:364,1,114.000002717972,4|0
50,299,9289,5,0
122,169,9455,1,2
227,270,9621,1,8
50,299,9787,2,0,B|20:255|34:203,1,95,2|0
161,82,10118,1,2
246,16,10284,2,0,B|276:60|262:112,1,95,8|2
320,216,10615,5,4
450,239,10781,1,2
232,188,10947,5,4
386,156,11113,1,2
127,259,11278,5,4
266,294,11444,1,2
0,212,11610,5,4
136,163,11776,1,2
274,115,11941,5,4
345,45,12107,1,2
252,27,12273,1,8
240,271,12604,5,0
169,342,12770,1,2
262,360,12936,1,8
430,305,13102,5,8
240,271,13267,2,0,B|194:264|194:264|189:215,1,95,4|2
274,115,13599,2,0,B|320:122|320:122|325:171,1,95,8|0
112,226,13930,2,0,B|96:182|96:182|120:138,1,95,4|2
400,158,14262,2,0,B|416:202|416:202|392:246,1,95,4|2
363,42,14593,5,0
252,36,14759,1,2
303,118,14925,1,8
149,342,15256,5,0
256,352,15422,1,2
209,266,15588,1,8
37,205,15754,5,8
297,273,15919,2,0,B|340:253|340:253|344:200,1,95,0|2
215,111,16251,2,0,B|172:131|172:131|168:184,1,95,0|2
331,122,16582,2,0,B|348:75|348:75|338:27,1,95,0|2
181,262,16914,2,0,B|164:309|164:309|174:357,1,95,0|2
475,179,17245,5,4
379,270,17577,1,8
306,143,17908,1,0
252,220,18240,1,8
252,220,18406,1,8
252,220,18571,5,0
154,273,18903,1,8
113,126,19234,1,0
37,205,19566,1,4
37,205,19731,1,0
37,205,19897,5,4
134,184,20229,1,8
227,207,20560,1,0
264,211,20726,1,0
301,207,20892,1,8
333,188,21057,1,8
352,155,21223,6,0,B|362:107,3,47.5
388,285,21555,2,0,B|398:237,3,47.5,0|0|0|0
448,89,21886,2,0,B|458:41,3,47.5
500,214,22218,2,0,B|510:166,3,47.5,0|0|0|0
490,256,22549,5,4
455,364,22881,1,2
400,152,23212,1,4
365,260,23544,1,2
382,205,23709,5,2
280,222,23875,2,0,B|267:260|285:293,1,71.2499978765846,0|2
218,197,24207,2,0,B|191:167|154:166,1,71.2499978765846,2|2
269,156,24538,2,0,B|309:148|328:116,2,71.2499978765846,0|2|0
147,260,25035,1,2
22,256,25201,5,4
57,364,25533,1,2
112,152,25864,1,4
147,260,26196,1,2
130,205,26361,5,2
232,222,26527,2,0,B|245:260|227:293,1,71.2499978765846,0|2
293,197,26859,2,0,B|320:167|357:166,1,71.2499978765846,2|2
242,156,27190,2,0,B|202:148|183:116,2,71.2499978765846,0|2|0
339,264,27687,1,2
468,175,27853,5,4
353,108,28185,1,2
471,55,28516,1,4
468,175,28847,1,0
426,114,29013,5,2
280,222,29179,2,0,B|267:260|285:293,1,71.2499978765846,0|2
218,197,29510,2,0,B|191:167|154:166,1,71.2499978765846,2|2
269,156,29842,2,0,B|309:148|328:116,2,71.2499978765846,0|2|0
153,267,30339,1,2
44,175,30505,5,4
159,108,30836,1,2
51,54,31168,1,4
44,175,31499,1,2
88,115,31665,5,2
221,204,31831,2,0,B|254:222|292:202,1,71.2499978765846,0|2
376,72,32162,2,0,B|343:54|305:74,1,71.2499978765846,0|2
433,281,32494,1,2
465,272,32577,1,0
482,243,32660,1,2
486,210,32743,1,0
471,180,32825,2,0,B|427:166|371:182,1,95,0|2
256,320,33157,5,4
173,214,33323,1,2
97,347,33488,2,0,B|65:315|65:315|95:273|48:233|79:153,2,190,8|0|8
348,332,34317,5,0
348,332,34400,1,0
348,332,34483,2,0,B|448:354,1,95,0|2
504,223,34814,2,0,B|412:243,1,95,8|0
168,184,35146,2,0,B|76:204,1,95,0|2
72,48,35477,2,0,B|96:56|136:28|136:28|160:36|184:28,1,114.000002717972,4|0
256,320,35809,5,0
339,214,35975,1,2
415,347,36140,2,0,B|447:315|447:315|417:273|464:233|433:153,2,190,8|0|8
169,266,36969,5,0
169,266,37052,1,0
169,266,37135,2,0,B|145:220|161:169,1,95,0|2
339,30,37466,2,0,B|363:76|347:127,1,95,8|0
94,119,37798,2,0,B|126:78|180:73,1,95,0|2
418,263,38129,2,0,B|385:303|331:308,1,95,8|2
256,192,38461,5,4
65,232,38627,1,2
187,342,38792,2,0,B|135:370|66:340|-9:361,2,190,8|0|8
339,228,39621,5,2
339,228,39704,1,0
339,228,39787,2,0,B|369:185|424:182,1,95,0|2
476,74,40118,2,0,B|374:77,1,95,8|0
109,227,40450,2,0,B|7:230,1,95,0|2
187,303,40781,1,4
38,317,40947,1,2
256,192,41113,5,4
447,152,41278,1,2
289,59,41444,2,0,B|341:31|410:61|485:40,2,190,8|0|8
343,250,42273,1,2
343,250,42356,1,0
343,250,42439,2,0,B|365:206|355:156,1,95,0|2
198,279,42770,2,0,B|242:301|292:291,1,95,8|0
169,134,43102,2,0,B|147:178|157:228,1,95,0|2
314,105,43433,2,0,B|270:83|220:93,1,95,8|2
256,192,43765,5,4
343,250,43930,1,0
403,156,44096,1,8
314,105,44262,1,2
358,321,44428,5,0
329,179,44593,1,2
186,207,44759,1,8
215,349,44925,1,2
256,192,45091,5,0
77,154,45256,1,2
144,282,45422,1,8
256,192,45588,1,2
77,154,45754,1,0
194,73,45919,1,2
132,320,46085,2,0,B|175:366|236:344,1,114.000002717972,4|0
369,282,46417,5,0
454,189,46582,1,2
500,306,46748,1,8
369,282,46914,1,2
474,91,47080,5,0
440,265,47245,1,2
269,229,47411,1,8
300,57,47577,1,0
246,352,47743,6,0,B|205:318|150:313,1,95,4|8
122,103,48074,2,0,B|171:84|203:39,1,95,4|8
399,120,48406,2,0,B|391:172|414:222,1,95,4|8
256,192,48737,1,8
256,192,48903,1,10
100,331,49068,5,4
19,208,49234,1,0
122,103,49400,1,8
202,225,49566,1,0
117,216,49731,5,0
287,235,49897,1,0
202,225,50063,1,8
372,244,50229,1,0
402,65,50394,5,4
321,188,50560,1,0
424,293,50726,1,8
504,171,50892,1,0
416,178,51057,5,0
254,322,51223,1,0
116,150,51389,2,0,B|88:92|137:38,1,114.000002717972,4|0
256,192,51720,5,0
171,256,51886,1,0
254,322,52052,1,0
336,262,52218,1,0
257,250,52383,5,0
161,137,52549,1,0
256,25,52715,1,0
351,136,52881,1,0
256,192,53046,12,4,54372
416,192,54538,5,2
332,292,54704,1,2
180,292,54870,1,2
96,192,55035,1,2
256,112,55367,5,0
256,192,55450,12,4,57024
443,311,57356,5,0
436,260,57687,1,0
256,160,58350,2,0,B|254:131|258:98|256:32,2,104.499996885657,0|0|0
256,256,59345,1,0
256,256,59510,1,0
69,311,59676,5,0
76,260,60008,1,0
83,208,60339,1,0
256,216,61002,6,0,B|258:187|254:154|256:88,1,104.499996885657
256,84,61417,2,0,B|256:43,3,26.1249992214144
256,320,61997,1,0
256,320,62162,1,0
502,194,62328,5,0
450,184,62660,1,0
398,175,62991,1,0
10,194,63654,5,0
62,184,63986,1,0
114,175,64317,1,0
256,320,64649,1,0
256,320,64814,1,0
256,192,64980,12,4,67301
188,223,67632,5,2
324,161,67964,1,8
181,197,68295,5,2
330,186,68627,1,8
183,172,68958,5,2
328,211,69289,1,8
195,148,69621,5,2
316,235,69952,2,0,B|288:274|284:317|313:330|335:307,1,114.000002717972,4|0
201,100,70284,5,2
311,284,70615,1,8
235,86,70947,5,2
276,297,71278,1,8
273,86,71610,5,2
238,297,71941,1,8
308,98,72273,5,2
203,285,72604,2,0,B|170:269|133:265|102:294|129:320,1,114.000002717972,4|0
368,92,72936,5,4
341,135,73102,1,0
293,154,73267,1,0
144,292,73433,1,4
171,249,73599,1,0
219,230,73765,1,0
406,187,73930,5,0
357,202,74096,1,0
308,186,74262,1,4
105,196,74428,1,4
154,181,74593,1,0
203,197,74759,1,0
373,284,74925,5,4
326,265,75091,1,0
299,221,75256,1,0
138,99,75422,1,0
162,107,75505,1,0
185,118,75588,6,0,B|224:160,3,47.5
164,228,75919,2,0,B|196:262,3,47.5
348,228,76251,2,0,B|316:260,7,28.500000679493
340,120,76582,2,0,B|308:152,7,28.500000679493
357,90,76914,5,4
155,90,77245,1,0
155,294,77577,1,0
357,294,77908,1,0
78,41,78240,6,2,B|58:99|58:99|16:133|16:133|47:174|47:174|52:248,1,228.000005435944,4|2
240,190,78737,1,0
342,200,78903,1,0
443,208,79068,1,2
443,208,79151,1,0
443,208,79234,2,2,B|480:251|480:251|438:291,1,114.000002717972,0|2
386,114,79566,2,0,B|349:71|349:71|391:31,1,114.000002717972,0|2
342,200,79897,5,0
250,335,80063,1,2
240,190,80229,2,2,B|158:176|158:176|95:194|95:194|12:178,1,228.000005435944
299,114,80726,1,2
333,289,80892,6,0,B|394:295|394:295|427:343,1,114.000002717972,4|0
170,277,81223,2,2,B|109:271|109:271|76:223,1,114.000002717972,2|0
342,200,81555,1,2
240,190,81720,1,0
240,190,81803,1,0
240,190,81886,1,2
197,48,82052,1,2
283,15,82218,5,4
342,200,82383,1,2
152,172,82549,1,0
342,200,82715,1,2
278,280,82881,2,2,B|360:294|360:294|423:276|423:276|500:291,1,228.000005435944
206,342,83378,1,2
333,95,83544,6,0,B|394:89|394:89|427:41,1,114.000002717972,4|0
170,107,83875,2,2,B|109:113|109:113|76:161,1,114.000002717972,2|0
256,239,84207,1,2
309,341,84372,1,0
309,341,84455,1,0
309,341,84538,2,2,B|250:366|250:366|197:336,1,114.000002717972,2|0
366,184,84870,5,0
155,154,85035,1,2
348,53,85201,1,0
256,239,85367,1,2
211,33,85533,2,2,B|90:38|90:38|50:87|50:87|103:86,1,228.000005435944,0|2
266,134,86030,5,0
266,134,86113,1,0
266,134,86196,2,0,B|380:130,1,114.000002717972,4|0
486,215,86527,1,2
354,352,86693,1,2
370,245,86859,1,0
486,215,87024,5,2
279,234,87190,1,0
444,361,87356,1,2
190,265,87522,6,0,B|170:231|170:231|164:156,1,114.000002717972,4|2
320,44,87853,2,0,B|340:78|340:78|346:153,1,114.000002717972,0|2
329,360,88185,2,2,B|450:355|450:355|490:306|490:306|437:307,1,228.000005435944,0|2
222,354,88682,5,0
222,354,88765,1,0
222,354,88847,2,0,B|110:349,1,114.000002717972,4|2
51,154,89179,2,2,B|45:267,1,114.000002717972,2|2
129,80,89510,2,0,B|243:86,1,114.000002717972,0|2
288,292,89842,2,2,B|401:286,1,114.000002717972,2|2
512,282,90173,6,0,B|522:222|522:222|506:168,1,114.000002717972,4|2
350,52,90505,2,2,B|463:46,1,114.000002717972,2|2
227,102,90836,2,0,B|217:162|217:162|232:215,1,114.000002717972,4|2
157,353,91168,2,2,B|43:347,1,114.000002717972,2|2
50,45,91499,6,0,B|163:50,1,114.000002717972,4|2
369,133,91831,2,2,B|255:138,1,114.000002717972,2|2
187,261,92162,6,0,B|300:266,1,114.000002717972,4|2
506,349,92494,2,2,B|392:354,1,114.000002717972,2|2
292,184,92825,5,0
384,31,92991,2,2,B|270:36,1,114.000002717972,2|2
150,138,93323,1,2
207,317,93488,2,2,B|436:305,1,228.000005435944,2|2
167,226,93986,5,0
167,226,94068,1,0
167,226,94151,1,0
80,196,94317,1,2
150,138,94483,1,0
64,106,94649,1,2
134,49,94814,5,0
80,196,94980,1,2
80,196,95063,1,0
80,196,95146,1,0
235,159,95312,1,2
353,81,95477,5,4
441,105,95643,1,2
371,164,95809,1,0
459,186,95975,1,2
389,244,96140,1,0
477,267,96306,1,2
408,327,96472,2,2,B|340:328|340:328|304:362,1,114.000002717972,4|2
177,262,96803,5,4
277,239,96969,1,2
147,242,97135,5,0
218,168,97301,1,2
113,230,97466,5,4
140,131,97632,1,2
77,222,97798,5,0
60,120,97964,1,2
92,329,98129,1,4
177,262,98295,1,2
277,239,98461,1,4
375,267,98627,1,2
291,208,98792,6,0,B|359:220|359:220|405:204|405:204|480:216,2,190,4|0|4
256,192,99538,12,0,103433
