osu file format v9

[General]
AudioFilename: Kaguya Reflection.mp3
AudioLeadIn: 1000
PreviewTime: 43765
Countdown: 0
SampleSet: Soft
StackLeniency: 0.7
Mode: 0
LetterboxInBreaks: 0

[Editor]
Bookmarks: 9268,17224,91499
DistanceSpacing: 0.9
BeatDivisor: 4
GridSize: 4

[Metadata]
Title:Kaguya Reflection
Artist:ZUN Vs. Ryu
Creator:Illumined
Version:BASIC
Source:
Tags:hs714 Byakko+ GariK+ Sakura Relfection Touhou Bemani Reflec Beat Mashup Ear-copy Imperishable Night Lunatic Princess

[Difficulty]
HPDrainRate:2
CircleSize:3
OverallDifficulty:2
ApproachRate:3
SliderMultiplier:0.9
SliderTickRate:2

[Events]
//Background and Video events
0,0,"BG.jpg"
//Break Periods
2,57224,66192
//Storyboard Layer 0 (Background)
//Storyboard Layer 1 (Fail)
//Storyboard Layer 2 (Pass)
//Storyboard Layer 3 (Foreground)
//Storyboard Sound Samples
//Background Colour Transformations
3,100,163,162,255

[TimingPoints]
1334.18720931067,331.491712707182,4,2,1,90,1,0
3654,-100,4,2,2,90,0,0
3986,-100,4,2,1,90,0,0
8958,-100,4,2,2,90,0,0
9289,-100,4,2,1,90,0,0
11941,-100,4,1,1,75,0,0
14262,-100,4,2,2,90,0,0
14428,-100,4,1,1,90,0,0
15588,-100,4,1,1,75,0,0
19566,-100,4,2,2,90,0,0
19897,-100,4,1,1,60,0,0
21223,-100,4,1,1,45,0,0
22549,-133.333333333333,4,2,1,50,0,0
31831,-133.333333333333,4,2,1,60,0,0
32162,-133.333333333333,4,2,1,70,0,0
32825,-100,4,2,1,80,0,0
33157,-83.3333333333333,4,1,1,80,0,0
33323,-100,4,1,2,80,0,0
35477,-83.3333333333333,4,2,2,80,0,0
35643,-100,4,1,2,80,0,0
40781,-100,4,2,2,80,0,0
40947,-100,4,1,2,80,0,0
43765,-100,4,1,2,80,0,1
46085,-100,4,2,2,80,0,1
46417,-100,4,1,2,80,0,1
47743,-100,4,1,1,80,0,1
49068,-100,4,1,2,70,0,0
51389,-83.3333333333333,4,2,2,70,0,0
51720,-100,4,1,2,70,0,0
55367,-100,4,1,2,30,0,0
57024,-100,4,2,1,60,0,0
67632,-100,4,2,2,60,0,0
69952,-100,4,2,2,50,0,0
70284,-100,4,2,2,60,0,0
72604,-100,4,2,2,50,0,0
72936,-100,4,1,2,45,0,0
74262,-100,4,1,2,50,0,0
76914,-100,4,1,2,60,0,0
78240,-83.3333333333333,4,1,1,80,0,1
78406,-83.3333333333333,4,1,1,70,0,1
91499,-83.3333333333333,4,1,1,70,0,1
94151,-100,4,1,1,60,0,1
95477,-100,4,1,0,60,0,1
95809,-100,4,1,1,60,0,1
96803,-100,4,2,0,60,0,1
99455,-100,4,2,0,50,0,0
100781,-100,4,2,0,35,0,0
102107,-100,4,2,0,15,0,0
102770,-100,4,2,0,5,0,0

[Colours]
Combo1 : 16,214,224
Combo2 : 35,225,30
Combo3 : 222,71,207
Combo4 : 233,211,63

[HitObjects]
192,88,1334,2,0,B|332:88,2,135,4|8|2
132,144,2660,1,0
288,184,3323,2,0,B|268:232|288:272,1,90,0|4
344,328,3986,6,0,B|484:332,2,135,0|8|2
264,328,5312,1,0
196,180,5975,1,2
272,36,6638,6,0,B|128:36,2,135,0|8|2
352,36,7964,1,0
240,156,8627,2,0,B|260:204|240:244,1,90,0|4
176,292,9289,6,0,B|40:296,2,135,0|8|2
228,228,10615,2,0,B|320:224,1,90,0|2
300,308,11278,2,0,B|392:304,1,90,0|2
456,260,11941,6,0,B|464:168,2,90,0|8|0
324,164,13267,2,0,B|324:68,2,90,0|8|0
256,208,14262,1,4
192,256,14593,2,0,B|192:352,2,90,0|8|0
52,176,15919,6,0,B|28:136|52:84,1,90,0|8
124,56,16582,2,0,B|224:56,1,90,0|8
224,136,17245,5,4
364,216,17908,1,8
216,280,18571,2,0,B|124:272,2,90,0|0|8
276,332,19566,1,4
276,332,19897,5,0
436,320,20560,1,8
452,160,21223,2,0,B|356:152,1,90,8|8
308,92,21886,1,0
308,92,22218,1,8
236,128,22549,6,0,B|216:196|236:268,1,134.999995976687,4|2
168,364,23875,2,0,B|116:328|112:244,1,134.999995976687,4|2
16,296,25201,2,0,B|0:224|32:156,1,134.999995976687,4|2
144,112,26527,2,0,B|128:40,2,67.4999979883433,4|2|2
244,180,27853,6,0,B|324:192|388:172,1,134.999995976687,4|2
460,84,29179,2,0,B|380:68,2,67.4999979883433,4|2|2
476,204,30505,2,0,B|432:260|440:340,1,134.999995976687,4|6
328,280,31831,2,0,B|320:208,2,67.4999979883433,0|10|0
256,324,32825,1,2
184,280,33157,6,0,B|72:276,2,108.000002574921,0|8|0
272,144,34483,2,0,B|416:152,2,135,0|8|4
260,60,35809,2,0,B|168:56,2,90,0|8|0
152,184,37135,2,0,B|12:176,2,135,0|8|0
196,252,38461,6,0,B|184:352,2,90,0|8|0
348,196,39787,2,0,B|364:56,2,135,0|8|4
292,256,41113,2,0,B|280:360,2,90,0|8|0
144,188,42439,2,0,B|160:48,2,135,0|8|0
92,252,43765,5,4
92,252,44096,1,8
148,312,44428,2,0,B|196:332|248:308,1,90,0|8
256,236,45091,2,0,B|248:56,1,180
324,32,46085,1,4
392,76,46417,6,0,B|436:92|480:80,1,90,0|8
484,160,47080,2,0,B|468:208|480:248,1,90,0|8
408,284,47743,1,4
252,244,48406,1,8
96,284,49068,1,4
124,208,49400,5,8
256,116,50063,1,8
388,208,50726,1,8
256,336,51389,1,12
256,256,51720,5,4
256,92,52383,1,8
256,192,53046,12,4,57024
256,104,67632,6,0,B|152:100,2,90,0|8|0
256,268,68958,2,0,B|352:272,2,90,0|8|0
196,212,69952,1,4
188,132,70284,6,0,B|188:32,2,90,0|8|0
320,40,71610,2,0,B|320:140,2,90,0|8|0
400,32,72604,1,4
464,84,72936,6,0,B|520:168|464:260,1,180,4|8
316,316,74262,2,0,B|300:220,2,90,0|0|8
256,192,75588,12,0,77577
300,164,78571,5,2
208,192,78903,1,8
328,344,79566,2,0,B|384:332|384:332|448:344,2,108.000002574921,0|2|8
180,216,80892,2,0,B|124:228|124:228|60:216,2,108.000002574921,0|2|8
336,100,82218,5,0
256,44,82549,1,2
180,104,82881,1,8
256,160,83212,1,2
344,200,83544,6,0,B|400:212|400:212|464:200,2,108.000002574921,0|2|8
188,316,84870,2,0,B|132:304|132:304|68:316,2,108.000002574921,0|2|8
228,228,85864,1,2
296,160,86196,5,4
200,140,86527,1,2
268,68,86859,1,8
328,252,87522,5,4
140,208,88185,1,8
60,264,88516,1,2
52,168,88847,6,0,B|52:56,2,108.000002574921,0|2|8
176,320,90173,1,0
256,264,90505,1,2
336,320,90836,1,8
456,168,91499,6,0,B|456:56,2,108.000002574921,0|2|8
264,144,92825,1,4
316,64,93157,1,2
220,56,93488,1,8
160,132,93820,1,2
160,132,94151,5,4
108,284,94814,1,8
72,124,95477,1,4
20,276,96140,1,8
176,292,96803,5,4
336,256,97466,1,4
180,208,98129,1,4
260,188,98461,1,4
336,164,98792,1,4
256,192,99455,12,0,103433
