osu file format v9

[General]
AudioFilename: song.mp3
AudioLeadIn: 2000
PreviewTime: 23357
Countdown: 0
SampleSet: Normal
StackLeniency: 0.7
Mode: 0
LetterboxInBreaks: 0

[Editor]
Bookmarks: 16,23866,47717,71568,83494,119270,131196,143121
DistanceSpacing: 0
BeatDivisor: 4
GridSize: 8

[Metadata]
Title:Year-Round Absorbed Curiosity
Artist:ZUN
Creator:saymun
Version:Insane
Source:Touhou
Tags:Cirno Sunny Milk Luna Child Star Sapphire Numbers 596108 Lybydose GladiOol Lilac Nakagawa-Kanon Gladi dksslqj MarioBros777

[Difficulty]
HPDrainRate:7
CircleSize:5
OverallDifficulty:8
ApproachRate:8
SliderMultiplier:1.7
SliderTickRate:1

[Events]
//Background and Video events
0,0,"bg.jpg"
//Break Periods
2,71814,82603
//Storyboard Layer 0 (Background)
//Storyboard Layer 1 (Fail)
//Storyboard Layer 2 (Pass)
//Storyboard Layer 3 (Foreground)
Sprite,Foreground,Centre,"sayeggpain.png",320,240 S,1,16,202,0.25,1 F,0,16,388,0,1 S,2,202,388,1,0.7 M,0,388,,444,426 F,0,388,71568,1 S,0,388,71568,0.7 F,0,71568,71941,1,0 S,2,71568,71941,0.7,2.5
Sprite,Foreground,Centre,"lyby.png",320,240 M,0,83307,,479,426 S,1,83307,83494,0.25,1 F,0,83307,83680,0,1 S,2,83494,83680,1,0.7 F,0,83680,143121,1 S,0,83680,143121,0.7 F,0,143121,143494,1,0 S,2,143121,143494,0.7,2.5
Sprite,Foreground,Centre,"black.png",320,240 M,0,71568,,320,240 S,0,71568,,1 F,0,71568,72034,0,0.7 F,0,72034,82283,0.7 F,0,82283,82748,0.7,0
Sprite,Foreground,Centre,"break.png",320,240 S,1,71568,71801,1,2 F,0,71568,72034,0,1 S,2,71801,72034,2,1 F,0,72034,82283,1 F,0,82283,82748,1,0
//Storyboard Sound Samples
//Background Colour Transformations
3,100,0,0,0

[TimingPoints]
62,372.670807453416,4,1,1,50,1,0
11987,-100,4,1,1,70,0,0
23912,-100,4,1,1,70,0,0
35372,-100,4,1,1,50,0,0
47763,-100,4,1,1,70,0,0
83167,-100,4,1,1,70,0,0
94813,-100,4,1,1,86,0,0
107298,-100,4,1,1,61,0,0
119316,-100,4,1,1,75,0,0
122204,-100,4,1,1,60,0,0
123695,-100,4,1,1,70,0,0
123975,-100,4,1,1,80,0,0
124347,-100,4,1,1,90,0,0
124720,-100,4,1,1,100,0,0
125093,-100,4,1,1,75,0,0
128167,-100,4,1,1,60,0,0
129658,-100,4,1,1,75,0,0
134130,-100,4,1,1,60,0,0
135621,-100,4,1,1,70,0,0
135900,-100,4,1,1,80,0,0
136273,-100,4,1,1,90,0,0
136645,-100,4,1,1,100,0,0
137018,-100,4,1,1,75,0,0
140093,-100,4,1,1,60,0,0
141397,-100,4,1,1,75,0,0
142701,-100,4,1,1,90,0,0

[Colours]
Combo1 : 255,150,0
Combo2 : 9,164,247
Combo3 : 200,38,38
Combo4 : 255,255,255

[HitObjects]
256,248,62,1,0
208,168,248,1,0
304,168,434,1,0
336,80,621,2,0,B|440:88|456:192,2,170,0|0|0
256,32,1552,1,0
176,80,1739,2,0,B|72:88|56:192,1,170,0|0
104,264,2298,1,2
408,264,2670,1,2
256,376,3043,5,0
304,296,3229,1,0
208,296,3416,1,0
176,208,3602,2,0,B|122:128|176:48,1,170
256,0,4161,1,0
336,49,4347,2,0,B|390:128|336:208,1,170
184,280,4906,2,0,B|96:336,1,85
256,296,5279,2,0,B|256:400,1,85
328,280,5652,2,0,B|416:336,1,85
400,232,6024,5,0
488,200,6211,1,0
456,112,6397,1,0
368,144,6583,2,0,B|288:176,1,85,2|0
296,80,6956,2,0,B|216:48,1,85,2|0
224,144,7329,2,0,B|184:224,1,85,2|0
144,136,7701,2,0,B|104:56,1,85,2|0
32,120,8074,1,2
96,192,8260,1,2
416,192,8633,1,2
256,288,9006,5,0
208,368,9192,1,0
304,368,9378,1,0
352,288,9565,2,0,B|400:200,1,85,2|0
304,192,9937,2,0,B|312:104,1,85,2|0
208,192,10310,2,0,B|200:104,1,85,2|0
160,288,10683,2,0,B|112:200,2,85,2|2|2
80,336,11242,1,2
16,272,11428,1,8
24,248,11521,1,0
32,224,11614,1,8
40,200,11707,1,0
48,176,11801,1,8
56,152,11894,1,0
64,128,11987,6,0,B|96:32,1,85
160,112,12360,2,0,B|192:208,1,85,8|0
256,128,12732,1,0
336,88,12919,1,0
416,128,13105,1,8
376,216,13291,1,0
368,240,13384,1,0
360,264,13478,6,0,B|328:360,2,85,0|0|8
272,224,14037,1,0
280,200,14130,1,0
224,304,14316,1,0
232,328,14409,1,0
136,264,14596,1,8
112,272,14689,1,0
88,280,14782,1,0
48,200,14968,6,0,B|16:120,2,85,0|0|8
120,144,15527,1,0
192,200,15714,1,0
264,88,15900,1,0
336,200,16086,1,8
408,32,16273,1,0
480,200,16459,5,2
408,32,16645,1,2
336,200,16832,1,10
264,88,17018,1,2
192,200,17204,1,2
120,144,17391,1,0
120,144,17484,1,0
120,144,17577,1,8
48,200,17763,1,0
64,288,17950,6,0,B|120:360,1,85
208,328,18322,2,0,B|312:360,1,85,8|0
384,328,18695,1,0
480,328,18881,1,0
384,328,19068,1,8
336,248,19254,1,0
328,224,19347,1,0
320,200,19440,5,0
320,104,19627,1,0
320,200,19813,1,8
240,248,19999,1,0
248,272,20093,1,0
160,200,20279,1,0
168,176,20372,1,0
80,248,20558,1,8
72,272,20652,1,0
64,296,20745,1,0
0,200,20931,6,0,B|-32:112,1,85
32,48,21304,1,8
104,104,21490,1,0
176,48,21676,1,0
248,160,21863,1,0
320,48,22049,1,8
392,216,22235,1,0
464,48,22422,5,2
464,240,22608,1,2
328,368,22794,1,10
136,368,22981,1,2
136,368,23074,1,0
136,368,23167,1,2
328,368,23353,1,2
136,368,23540,1,10
328,368,23726,1,2
232,328,23912,6,0,B|184:256,1,85,2|0
280,256,24285,2,0,B|328:184,1,85,2|0
288,104,24658,1,0
272,120,24751,1,0
256,136,24844,1,0
168,168,25030,1,10
80,144,25217,5,0
64,128,25310,1,0
56,104,25403,1,0
64,80,25496,1,0
80,64,25589,1,0
168,88,25776,1,10
240,24,25962,2,0,B|184:0,1,42.5,0|0
344,8,26242,2,0,B|400:0,1,42.5,0|0
464,56,26521,1,10
456,80,26614,1,0
448,104,26707,1,2
368,240,26894,6,0,B|392:352,1,85
368,144,27266,2,0,B|392:32,1,85,8|0
256,280,27639,2,0,B|280:392,1,85
256,112,28012,2,0,B|280:0,1,85,8|0
160,48,28384,5,0
88,104,28571,1,0
160,336,28757,1,8
88,280,28943,1,0
56,192,29130,1,0
80,192,29223,1,0
104,192,29316,1,0
128,192,29409,1,0
152,192,29502,1,8
176,192,29596,1,0
200,192,29689,1,0
224,192,29782,1,0
248,192,29875,6,0,B|360:192,1,85,2|0
424,224,30248,2,0,B|520:224,2,85,10|0|0
424,224,30714,1,0
424,224,30807,1,0
360,288,30993,1,10
264,288,31180,5,0
240,296,31273,1,0
216,304,31366,1,0
192,312,31459,1,0
168,320,31552,1,0
72,304,31739,1,10
88,208,31925,1,0
96,184,32018,1,0
104,160,32111,1,0
112,136,32204,1,0
120,112,32298,1,0
136,16,32484,1,10
232,32,32670,6,0,B|408:32,2,170,2|0|0
296,104,33602,1,8
208,176,33788,1,0
320,248,33975,1,8
184,320,34161,1,8
256,192,34347,12,4,35465
256,259,35652,5,0
188,192,35838,1,0
256,124,36024,1,0
323,192,36211,1,0
392,256,36397,2,0,B|432:248|464:192|432:136|392:128,1,170,2|2
118,128,37142,2,0,B|80:136|48:192|80:248|120:256,1,170,2|2
256,48,37888,1,2
256,144,38074,2,0,B|256:336,1,170,2|2
72,344,38819,5,0
40,256,39006,1,0
112,200,39192,1,0
184,256,39378,2,0,B|368:256,1,170,2|2
440,216,39937,1,0
354,176,40124,2,0,B|240:176,1,85,2|0
191,119,40496,6,0,B|230:43,1,85,2|2
143,190,40869,2,0,B|96:120,1,85,0|2
201,268,41242,2,0,B|240:192,1,85
152,336,41614,1,0
56,336,41801,5,0
8,256,41987,1,0
56,336,42173,1,0
104,256,42360,2,0,B|96:152|200:128,2,170,2|2|2
152,336,43291,1,0
232,384,43478,2,0,B|336:392|360:288,1,170,2|2
360,200,44037,2,0,B|368:96|264:72,1,170,2|2
128,192,44782,5,0
152,280,44968,1,0
240,256,45155,1,0
216,168,45341,2,0,B|264:80,1,85,2|0
352,88,45714,2,0,B|304:176,1,85,2|0
360,240,46086,2,0,B|408:152,1,85,2|0
472,104,46459,1,2
504,192,46645,1,2
472,280,46832,1,2
392,328,47018,2,0,B|208:328,1,170,2|0
222,328,47437,2,0,B|222:358,6,21.25
222,328,47763,6,0,B|112:328,1,85
112,328,48043,1,0
88,328,48136,1,8
8,288,48322,1,0
88,248,48509,1,0
456,192,48881,5,8
424,104,49068,2,0,B|376:8|240:56,1,170
304,136,49627,2,0,B|248:216,1,85,8|0
208,128,49999,1,0
32,192,50186,5,8
32,192,50372,1,8
208,256,50558,5,0
184,344,50745,2,0,B|200:376|256:403|312:376|328:344,1,170,0|8
328,40,51490,2,0,B|312:8|256:-19|200:8|184:40,1,170,0|8
184,39,52049,1,0
104,32,52235,5,4
96,344,52608,1,8
408,352,52981,1,4
416,40,53353,1,8
256,192,53726,5,0
336,240,53912,1,0
360,248,54006,1,0
384,256,54099,1,8
448,192,54285,1,0
384,128,54471,1,0
360,136,54565,1,0
336,144,54658,1,0
312,152,54751,1,0
288,160,54844,1,8
208,120,55030,6,0,B|176:88|184:24,2,85
152,192,55589,1,8
96,120,55776,1,0
16,168,55962,1,0
24,192,56055,1,0
32,216,56148,1,0
40,240,56242,1,0
48,264,56335,1,8
72,352,56521,1,0
160,320,56707,6,0,B|336:320,1,170,4|8
408,272,57266,1,0
456,192,57453,2,0,B|488:112,1,85,4|0
360,144,57825,2,0,B|384:40,1,85,8|0
256,128,58198,6,0,B|256:24,1,85,8|0
256,256,58571,2,0,B|256:360,1,85,8|0
192,192,58943,5,8
96,192,59130,1,8
320,192,59316,5,8
344,192,59409,1,8
368,192,59502,1,8
392,192,59596,1,0
416,192,59689,1,0
488,256,59875,1,0
416,320,60062,2,0,B|344:368,2,85,8|0|0
232,272,60621,5,8
232,272,60807,1,8
48,320,60993,6,0,B|120:368,2,85,0|0|0
40,224,61552,1,8
40,224,61645,1,0
40,224,61739,1,0
128,264,61925,1,0
128,264,62018,1,0
128,264,62111,1,8
120,168,62298,1,8
112,72,62484,1,0
200,40,62670,6,0,B|376:40,1,170,4|8
456,72,63229,1,0
424,160,63416,2,0,B|248:160,1,170,4|8
224,248,63975,1,0
192,336,64161,5,0
192,336,64254,1,0
192,336,64347,1,0
104,312,64534,1,8
72,224,64720,1,0
72,224,64813,1,8
104,136,64999,1,8
104,136,65093,1,8
192,112,65279,1,8
216,104,65372,1,8
240,96,65465,1,8
264,88,65558,1,0
288,80,65652,6,0,B|368:53,1,85,0|0
456,96,66024,2,0,B|375:122,1,85,8|0
344,208,66397,2,0,B|424:181,2,85,0|0|8
256,240,66956,1,0
168,272,67142,5,0
168,272,67235,1,0
168,272,67329,2,0,B|88:232,1,85,0|8
72,144,67701,2,0,B|152:184,1,85
232,144,68074,2,0,B|152:104,2,85,0|8|0
256,56,68633,6,0,B|376:56|400:160,1,170,4|8
384,232,69192,1,0
304,272,69378,2,0,B|184:272|160:168,1,170,4|8
176,96,69937,1,0
88,56,70124,5,0
88,56,70310,1,0
88,152,70496,1,8
120,240,70683,1,0
120,240,70776,1,0
184,312,70962,1,0
184,312,71055,1,0
272,344,71242,1,8
272,344,71335,1,0
272,344,71428,1,0
272,344,71521,1,0
272,344,71614,1,4
168,192,83353,5,0
168,192,83447,1,0
168,192,83540,1,4
336,192,83912,1,8
176,336,84285,1,0
256,360,84471,1,2
336,336,84658,1,8
176,48,85030,5,0
256,24,85217,1,2
336,48,85403,1,10
32,192,85776,2,0,B|152:192,2,85,2|0|8
117,192,86335,1,0
160,264,86521,1,10
160,120,86707,5,4
160,120,87080,1,0
240,152,87266,2,0,B|288:104|264:48,3,85,8|2|0|10
240,152,88012,5,0
320,288,88198,1,2
176,200,88384,1,8
192,320,88571,1,2
384,232,88757,2,0,B|432:192|440:120|392:72,1,170,2|10
328,144,89316,5,0
288,128,89409,1,0
247,135,89502,2,0,B|184:80|87:101,2,170,4|10|4
168,200,90434,1,2
87,298,90621,2,0,B|184:320|248:264,1,170,10|0
344,200,91180,5,2
104,200,91366,2,0,B|274:200,1,170,8|2
448,232,91925,1,0
280,280,92111,1,8
336,96,92298,1,0
344,200,92484,1,8
192,280,92670,5,4
192,280,93043,2,0,B|256:208,1,85,0|8
184,32,93416,2,0,B|120:96,1,85,2|0
184,240,93788,1,10
216,64,93975,2,0,B|161:121|96:192,1,170,0|8
120,288,94534,1,2
120,288,94627,1,2
120,288,94720,1,0
120,288,94906,5,4
368,256,95093,1,12
216,64,95279,1,4
120,288,95465,5,4
392,96,95838,1,10
88,128,96211,2,0,B|48:160|64:208,1,85,0|2
136,192,96583,1,8
424,128,96956,6,0,B|464:160|448:208,1,85,0|2
376,192,97329,1,8
256,104,97701,1,2
184,152,97888,1,0
232,216,98074,1,10
168,272,98260,1,0
96,240,98447,1,10
248,304,98633,5,4
256,32,99006,2,0,B|336:96,1,85,0|8
200,88,99378,2,0,B|128:144,1,85,2|0
256,136,99751,2,0,B|336:200,1,85,10|0
200,192,100124,2,0,B|128:248,1,85,2|8
179,321,100496,1,2
179,321,100589,1,2
179,321,100683,2,0,B|227:369|307:361|347:305,1,170,0|8
464,192,101242,5,0
464,192,101335,1,0
464,192,101428,2,0,B|408:168|416:96,1,85,4|2
487,63,101801,2,0,B|408:16|324:36,1,170,10|0
280,144,102360,1,0
232,240,102546,2,0,B|148:260|68:212,1,170,8|0
232,240,103105,5,2
104,336,103291,2,0,B|162:264|154:178,1,170,8|2
232,112,103850,1,0
128,104,104037,1,8
56,184,104223,1,0
128,104,104409,1,8
208,264,104596,5,4
208,264,104968,2,0,B|152:176,1,85,0|8
320,264,105341,2,0,B|376:360,1,85,2|0
392,160,105714,1,8
464,264,105900,5,8
464,264,106273,1,8
461,179,106459,1,2
482,142,106552,1,2
463,103,106645,1,8
371,35,106832,1,8
276,85,107018,1,8
251,186,107204,1,0
384,232,107391,5,4
312,296,107577,1,2
216,272,107763,1,0
152,184,107950,1,2
168,152,108043,1,0
184,120,108136,1,8
320,192,108322,5,2
64,320,108695,1,2
80,48,109068,1,2
264,136,109440,1,2
248,168,109534,1,0
232,200,109627,2,0,B|296:272|376:272|424:264,1,170,8|2
432,72,110372,6,0,B|392:152,1,85,0|2
320,104,110745,1,0
232,80,110931,1,2
200,64,111024,1,0
168,72,111117,1,8
64,160,111304,5,2
184,208,111490,1,0
120,320,111676,1,2
120,320,111770,1,0
120,320,111863,1,0
264,352,112049,2,0,B|312:312|312:264,1,85,2|0
320,104,112422,2,0,B|280:144|280:184,1,85,2|8
456,192,112794,1,0
456,192,112981,1,2
456,192,113074,1,0
456,192,113167,1,0
432,312,113353,5,4
344,216,113540,1,2
448,120,113726,1,0
320,64,113912,1,2
288,64,114006,1,0
256,64,114099,1,8
104,88,114285,5,2
200,344,114658,1,2
376,120,115030,2,0,B|448:200|376:288,1,170,2|2
336,200,115589,1,8
200,168,115962,1,2
200,208,116055,1,0
200,248,116148,1,2
200,168,116335,5,0
104,168,116521,1,2
152,72,116707,1,0
256,72,116894,2,0,B|304:32,2,42.5,2|0|8
328,152,117266,1,2
344,272,117453,1,0
256,344,117639,5,2
256,312,117732,1,0
256,280,117825,1,0
256,192,118012,1,2
184,104,118198,1,0
216,80,118291,1,2
256,72,118384,1,2
296,80,118478,1,2
328,104,118571,1,8
184,280,118943,1,8
216,304,119037,1,8
256,312,119130,1,8
296,304,119223,1,0
328,280,119316,5,4
448,240,119502,1,2
344,160,119689,1,8
464,120,119875,1,2
384,56,120061,2,0,B|296:-16|304:136|208:24,1,170,0|10
104,64,120621,6,0,B|176:152|24:144|136:240,1,170,0|2
184,264,121180,1,8
264,296,121366,1,2
184,264,121552,1,4
112,216,121739,2,0,B|40:304|192:296|80:392,1,170,0|0
184,192,122298,5,4
328,192,122670,1,0
256,120,123043,1,4
256,264,123416,1,0
256,264,123602,1,0
256,376,123788,5,4
256,8,124161,1,4
8,192,124534,1,4
504,192,124906,1,4
144,72,125279,6,0,B|104:104|120:160,1,85,4|2
80,224,125652,1,8
160,248,125838,1,2
152,280,125931,1,0
144,312,126024,1,0
224,344,126211,2,0,B|272:376|328:336,1,85,0|8
296,264,126583,2,0,B|352:240|384:176|320:104,1,170,0|2
280,184,127142,5,8
248,96,127329,1,2
216,96,127422,1,0
184,96,127515,1,0
96,40,127701,1,0
72,168,127888,1,8
152,264,128074,1,0
64,344,128260,5,0
368,344,128633,1,0
432,216,128912,1,0
296,184,129192,1,2
296,184,129378,1,0
312,104,129565,1,0
256,48,129751,2,0,B|80:88,2,170,8|8|8
256,296,130869,1,8
256,296,131055,1,0
328,344,131242,6,0,B|360:304|352:256,1,85,4|2
280,136,131614,2,0,B|240:168|248:224,1,85,8|2
390,149,131987,2,0,B|426:107|400:29|326:30,1,170,0|10
238,31,132546,6,0,B|165:29|138:108|175:149,1,170
240,288,133105,2,0,B|288:320|336:272,1,85,8|2
280,104,133478,1,0
200,192,133664,2,0,B|370:192,1,170
336,112,134223,5,4
336,272,134596,1,0
176,272,134968,1,4
176,112,135341,1,0
176,112,135527,1,0
24,24,135714,5,4
24,360,136086,1,4
488,360,136459,1,4
488,24,136832,1,4
72,232,137204,5,4
72,232,137391,2,0,B|168:200,1,85,2|8
208,320,137763,1,2
208,320,137857,1,0
208,320,137950,1,0
344,232,138136,2,0,B|248:200,1,85,0|8
120,120,138509,2,0,B|296:120,1,170,0|2
392,184,139068,5,8
288,208,139254,1,2
280,248,139347,1,0
272,288,139440,1,0
184,272,139627,1,0
208,192,139813,1,8
120,208,139999,1,0
56,128,140186,5,0
56,128,140558,1,0
256,64,140838,1,0
456,128,141117,1,2
408,208,141304,1,0
320,208,141490,2,0,B|224:264,1,85,8|8
264,336,141863,5,2
264,336,142049,1,8
168,312,142235,1,2
136,304,142329,1,2
112,280,142422,1,10
104,248,142515,1,2
112,216,142608,1,2
208,224,142794,5,8
288,24,142981,1,0
440,176,143167,1,4
