osu file format v9

[General]
AudioFilename: song.mp3
AudioLeadIn: 2000
PreviewTime: 23357
Countdown: 0
SampleSet: Normal
StackLeniency: 0.7
Mode: 1
LetterboxInBreaks: 0

[Editor]
Bookmarks: 16,23866,47717,71568,83494,119270,131196,143121
DistanceSpacing: 0.8
BeatDivisor: 4
GridSize: 8

[Metadata]
Title:Year-Round Absorbed Curiosity
Artist:ZUN
Creator:saymun
Version:596108's Taiko
Source:Touhou
Tags:Cirno Sunny Milk Luna Child Star Sapphire Numbers 596108 Lybydose GladiOol Lilac Nakagawa-Kanon Gladi dksslqj MarioBros777

[Difficulty]
HPDrainRate:6
CircleSize:5
OverallDifficulty:6
ApproachRate:6
SliderMultiplier:1.4
SliderTickRate:1

[Events]
//Background and Video events
0,0,"bg.jpg"
//Break Periods
//Storyboard Layer 0 (Background)
Sprite,Background,Centre,"Taiko BG.jpg",320,240 M,0,-2779,0,320,240 S,0,0,,0.808 F,0,0,16,1 F,0,16,155331,1
//Storyboard Layer 1 (Fail)
//Storyboard Layer 2 (Pass)
//Storyboard Layer 3 (Foreground)
//Storyboard Sound Samples
//Background Colour Transformations
3,100,0,0,0

[TimingPoints]
62,372.670807453416,4,1,1,70,1,0
23912,-100,4,1,1,70,0,1
35838,-100,4,1,1,70,0,0
47763,-100,4,1,1,70,0,1
71614,-100,4,1,1,70,0,0
95465,-100,4,1,1,70,0,1
107391,-100,4,1,1,70,0,0
119316,-100,4,1,1,70,0,1
143167,-100,4,1,1,70,0,0

[Colours]
Combo1 : 255,150,0
Combo2 : 9,164,247
Combo3 : 200,38,38
Combo4 : 255,255,255

[HitObjects]
208,160,62,1,0
272,176,248,1,0
296,160,341,1,2
240,216,434,1,2
256,128,621,1,2
296,104,807,1,0
272,176,993,1,0
272,176,1086,1,0
472,112,1180,1,2
400,120,1273,1,0
384,152,1366,1,0
384,152,1552,1,0
400,120,1739,1,2
384,152,1925,1,2
384,152,2111,1,2
400,120,2298,1,0
400,120,2484,1,2
400,120,2577,1,2
400,120,2670,1,2
232,352,2856,1,0
264,160,3043,1,2
264,160,3136,1,2
504,96,3229,1,0
416,144,3322,1,0
344,128,3416,1,2
344,128,3602,1,0
288,192,3788,1,0
288,192,3881,1,0
400,120,3975,1,2
344,128,4068,1,2
328,168,4161,1,2
416,144,4347,1,0
288,192,4534,1,0
416,144,4720,1,2
392,160,4813,1,2
392,160,4906,1,2
256,120,5093,1,0
288,192,5279,1,0
256,200,5372,1,0
400,120,5465,1,2
400,120,5558,1,0
416,144,5652,1,2
176,152,5838,1,0
288,192,6024,1,0
256,200,6117,1,0
416,144,6211,1,2
392,160,6304,1,2
352,160,6397,1,2
400,120,6583,1,0
280,160,6770,1,0
288,192,6863,1,0
400,120,6956,1,2
320,176,7049,1,2
288,192,7142,1,2
400,120,7329,1,0
344,128,7515,1,2
256,144,7701,1,2
328,104,7888,1,0
280,160,8074,1,0
344,128,8260,1,2
160,200,8447,1,2
232,160,8633,1,0
232,160,9006,1,0
344,128,9192,1,0
320,200,9285,1,0
304,128,9378,1,2
216,264,9565,1,2
256,144,9751,1,0
256,144,9844,1,0
344,128,9937,1,2
344,128,10030,1,2
344,128,10124,1,0
328,160,10217,1,0
456,104,10310,1,2
344,128,10403,1,0
360,152,10496,1,2
328,160,10589,1,2
296,184,10683,1,2
344,128,10776,1,0
328,160,10869,1,0
232,200,11055,1,0
456,104,11242,1,2
400,152,11335,1,2
296,184,11428,1,2
296,184,11521,1,2
296,184,11614,1,2
272,168,11987,1,0
328,160,12360,1,8
296,184,12732,1,0
280,208,12919,1,0
280,208,13012,1,0
312,224,13105,1,8
272,168,13478,1,0
248,232,13664,1,0
248,232,13757,1,0
312,224,13850,1,8
248,232,14037,1,0
248,232,14223,1,0
248,232,14409,1,0
248,232,14502,1,0
312,224,14596,1,8
256,144,14968,1,0
256,144,15155,1,2
256,144,15248,1,2
312,224,15341,1,8
432,128,15527,1,0
392,184,15714,1,0
392,184,15807,1,0
448,104,15900,1,2
352,128,15993,1,0
312,224,16086,1,8
312,224,16273,1,0
432,128,16459,1,2
400,136,16552,1,2
400,136,16645,1,2
400,136,16739,1,2
432,128,16832,1,0
200,112,16925,1,2
224,176,17018,1,2
224,176,17111,1,2
224,176,17204,1,2
224,176,17298,1,2
224,176,17391,1,2
224,176,17484,1,2
432,128,17577,1,0
272,192,17950,1,0
400,136,18136,1,2
312,224,18322,1,8
432,128,18509,1,0
432,128,18695,1,2
400,136,18881,1,2
400,136,18975,1,2
312,224,19068,1,8
280,152,19254,1,0
256,224,19440,1,0
256,224,19534,1,0
400,136,19627,1,2
400,136,19720,1,0
312,224,19813,1,8
400,136,19999,1,0
336,192,20186,1,0
336,192,20279,1,0
456,112,20372,1,2
400,136,20465,1,0
312,224,20558,1,8
256,192,20745,1,0
256,224,20931,1,0
256,192,21117,1,0
312,224,21304,1,8
256,192,21676,1,0
256,192,21863,1,0
312,224,22049,1,8
256,192,22422,1,0
256,192,22608,1,0
312,224,22794,1,8
256,192,22981,1,0
256,192,23074,1,0
256,192,23167,1,0
256,192,23353,1,0
312,224,23540,1,8
280,176,23726,1,0
336,104,23912,1,2
280,176,24006,1,2
280,176,24099,1,2
280,176,24192,1,2
256,192,24285,1,2
408,136,24471,1,0
392,112,24658,1,2
408,136,24751,1,2
408,136,24937,1,2
408,136,25030,1,2
320,128,25217,1,0
320,208,25403,1,0
320,208,25496,1,0
424,112,25589,1,2
408,136,25683,1,0
280,176,25776,1,8
280,176,25962,1,0
400,192,26148,1,0
400,192,26242,1,0
384,104,26335,1,2
408,136,26428,1,0
400,192,26521,1,8
256,192,26707,1,0
424,112,26894,1,2
424,112,27080,1,2
280,176,27266,1,8
272,136,27453,1,0
384,104,27639,1,2
336,152,27825,1,2
256,160,28012,1,8
384,104,28198,1,0
376,176,28384,1,0
424,112,28478,1,2
424,112,28571,1,0
400,144,28664,1,0
256,160,28757,1,8
400,144,28943,1,0
400,144,29130,1,0
400,144,29223,1,0
400,144,29316,1,0
384,104,29409,1,0
256,160,29502,1,8
384,104,29689,1,2
400,144,29875,1,2
400,144,30061,1,2
400,144,30155,1,2
256,160,30248,1,8
400,144,30434,1,2
400,144,30621,1,2
400,144,30807,1,0
256,160,30993,1,8
328,160,31366,1,0
328,160,31552,1,0
328,160,31645,1,0
256,160,31739,1,8
328,160,31925,1,0
328,160,32111,1,0
328,160,32298,1,0
328,160,32391,1,0
256,160,32484,1,8
496,120,32670,1,0
384,128,32857,1,2
384,128,33043,1,2
384,128,33136,1,2
256,160,33229,1,8
384,128,33416,1,0
328,160,33602,1,0
328,160,33695,1,0
328,160,33788,1,0
328,160,33881,1,0
256,160,33975,1,8
256,192,34161,12,0,35279
304,112,35465,5,2
352,160,35652,1,0
304,264,35838,1,0
384,208,36024,1,0
312,144,36211,1,2
248,200,36397,1,2
288,216,36770,1,0
384,128,37142,1,2
328,192,37329,1,2
384,128,37515,1,0
416,112,37701,1,2
328,192,37888,1,2
448,112,38074,1,0
288,216,38260,1,0
256,224,38447,1,0
256,224,38540,1,0
448,112,38633,1,2
440,152,38726,1,2
440,152,38819,1,2
344,128,39006,1,0
328,192,39192,1,0
328,192,39378,1,0
328,192,39471,1,0
344,128,39565,1,2
288,120,39751,1,2
440,152,39937,1,0
400,152,40124,1,2
368,192,40310,1,2
344,128,40496,1,2
344,128,40589,1,2
344,128,40683,1,2
368,192,40869,1,0
344,128,41055,1,2
304,176,41148,1,2
304,176,41242,1,2
304,176,41335,1,2
432,120,41428,1,0
368,192,41614,1,0
432,120,41801,1,2
336,176,41987,1,0
304,176,42173,1,0
208,168,42266,1,0
320,200,42360,1,0
320,200,42453,1,0
432,120,42546,1,2
432,120,42732,1,0
304,112,42919,1,2
304,112,43012,1,2
432,120,43105,1,0
392,144,43198,1,0
368,128,43291,1,2
392,144,43478,1,0
304,112,43664,1,2
304,168,43850,1,2
152,144,44037,1,0
392,144,44223,1,2
352,176,44316,1,2
296,208,44409,1,2
192,192,44596,1,0
392,144,44782,1,0
304,296,44968,1,0
304,296,45061,1,0
448,112,45155,1,2
392,144,45248,1,0
384,176,45341,1,0
368,208,45527,1,0
192,192,45714,1,0
336,136,45900,1,2
448,112,46086,1,2
392,144,46180,1,2
312,256,46273,1,2
312,256,46366,1,2
312,256,46459,1,2
312,256,46552,1,2
408,120,46645,1,0
312,256,46832,1,0
472,136,47018,1,2
352,216,47204,1,2
408,120,47391,1,0
232,224,47763,1,0
232,224,47950,1,0
232,224,48043,1,0
272,176,48136,1,8
336,160,48322,1,2
288,208,48509,1,2
408,120,48695,1,0
272,176,48881,1,8
360,144,49068,1,0
320,200,49161,1,0
456,128,49254,1,2
424,160,49440,1,2
320,200,49627,1,8
480,112,49813,1,0
456,128,49999,1,2
224,192,50372,1,8
384,168,50558,1,0
224,192,50745,1,8
408,184,50931,1,0
408,184,51024,1,0
480,112,51117,1,2
456,128,51211,1,2
456,128,51304,1,2
480,112,51397,1,0
224,192,51490,1,8
408,144,51583,1,0
456,128,51676,1,0
480,112,51770,1,2
456,128,51863,1,2
296,208,52049,1,8
368,128,52235,1,0
384,160,52422,1,0
384,160,52515,1,0
320,144,52608,1,8
480,112,52794,1,2
408,144,52981,1,2
256,136,53167,1,0
256,136,53260,1,0
336,176,53353,1,8
368,128,53540,1,2
480,112,53726,1,0
280,224,53912,1,0
280,224,54006,1,0
256,136,54099,1,8
304,200,54192,1,0
304,200,54285,1,0
336,176,54471,1,0
416,112,54658,1,2
480,112,54751,1,0
416,160,54937,1,0
448,112,55030,1,2
480,112,55217,1,0
392,184,55403,1,0
256,136,55589,1,8
376,144,55683,1,2
416,112,55776,1,0
416,160,55869,1,0
416,112,55962,1,2
480,112,56148,1,0
256,136,56335,1,8
376,144,56428,1,2
376,144,56614,1,2
240,200,56707,1,8
296,184,56894,1,0
296,184,57080,1,0
296,184,57266,1,0
296,184,57360,1,0
240,200,57453,1,8
296,184,57639,1,0
296,184,57825,1,0
240,200,58012,1,8
408,192,58198,1,12
232,112,58384,1,0
240,200,58571,1,12
336,88,58757,1,2
368,176,58943,1,12
384,128,59130,1,0
240,200,59316,1,12
368,176,59689,1,0
336,192,59875,1,0
336,224,59968,1,0
376,176,60061,1,8
256,232,60248,1,0
256,232,60434,1,0
256,232,60621,1,0
392,112,60714,1,2
376,176,60807,1,8
248,128,60993,1,0
304,184,61180,1,0
304,184,61273,1,0
304,184,61366,1,0
304,184,61459,1,0
376,176,61552,1,8
376,176,61739,1,0
344,144,61925,1,2
344,144,62111,1,2
376,176,62298,1,8
344,144,62391,1,2
344,144,62484,1,2
376,176,62670,1,8
208,224,63043,1,0
376,176,63416,1,8
208,224,63602,1,0
176,152,63788,1,0
376,176,63975,1,8
144,224,64161,1,0
144,224,64254,1,0
144,224,64347,1,0
144,224,64440,1,0
376,176,64534,1,8
144,224,64720,1,0
144,224,64906,1,0
144,224,64999,1,0
144,224,65093,1,0
144,224,65186,1,0
328,200,65279,1,8
208,184,65652,1,0
328,200,66024,1,8
384,128,66211,1,0
352,176,66304,1,0
416,128,66397,1,2
384,168,66583,1,2
328,200,66770,1,8
496,128,66956,1,0
400,216,67142,1,0
400,216,67235,1,0
384,128,67329,1,2
384,128,67422,1,0
328,200,67515,1,8
296,144,67701,1,0
440,112,67888,1,2
408,144,68074,1,2
328,200,68260,1,8
384,128,68447,1,0
328,200,68633,1,8
320,128,68819,1,0
296,144,69006,1,0
296,144,69099,1,0
296,144,69192,1,0
328,200,69378,1,8
320,128,69565,1,0
320,128,69751,1,0
320,128,69844,1,0
328,200,69937,1,8
328,200,70124,1,12
328,200,70496,1,12
208,184,70869,1,12
328,200,71242,1,12
264,168,71614,1,0
264,168,71801,1,0
264,200,71987,1,0
280,144,72173,1,2
296,184,72546,1,2
264,200,72732,1,2
240,224,72825,1,2
368,160,72919,1,0
272,272,73105,1,0
416,136,73291,1,2
296,184,73478,1,2
344,176,73664,1,0
360,208,73850,1,0
384,136,74037,1,2
344,176,74130,1,2
344,176,74223,1,2
344,176,74596,1,0
296,184,74782,1,0
336,136,74968,1,2
296,184,75155,1,2
416,104,75527,1,0
272,104,75714,1,2
248,160,75807,1,2
248,160,75900,1,2
248,160,76086,1,0
184,192,76273,1,0
304,120,76459,1,2
280,160,76552,1,2
280,160,76645,1,2
272,104,76832,1,0
248,160,77018,1,0
248,160,77204,1,0
272,104,77391,1,0
192,144,77577,1,0
312,176,77763,1,0
352,160,77857,1,0
336,128,77950,1,2
280,160,78136,1,2
248,160,78509,1,2
248,200,78695,1,2
296,128,78788,1,2
240,96,78881,1,0
392,120,78975,1,0
240,96,79068,1,2
336,128,79254,1,0
280,160,79440,1,0
248,160,79534,1,0
392,120,79627,1,2
360,104,79813,1,2
296,96,79999,1,0
360,104,80186,1,2
336,128,80372,1,2
392,120,80558,1,0
248,160,80745,1,0
392,120,80838,1,0
336,128,80931,1,2
320,168,81117,1,2
320,168,81490,1,2
320,168,81676,1,2
320,168,81770,1,2
320,168,81863,1,2
320,168,81956,1,2
320,168,82049,1,2
264,184,82235,1,0
216,152,82422,1,0
336,112,82608,1,2
256,192,82794,12,2,83353
296,144,83540,5,0
296,144,83726,1,2
352,136,83912,1,2
176,136,84099,1,0
336,112,84192,1,2
392,96,84285,1,0
352,136,84378,1,0
392,96,84471,1,2
408,128,84658,1,0
392,96,84844,1,2
408,128,85030,1,0
448,112,85124,1,2
336,112,85217,1,0
448,112,85310,1,0
408,128,85403,1,2
264,176,85589,1,0
336,112,85776,1,2
312,160,85869,1,2
312,160,85962,1,0
448,112,86055,1,0
360,136,86148,1,2
392,96,86335,1,0
352,176,86521,1,2
352,176,86707,1,2
352,176,86801,1,2
352,176,86894,1,2
400,128,87080,1,0
336,208,87266,1,0
432,136,87360,1,2
400,128,87453,1,0
400,160,87546,1,0
392,96,87639,1,2
336,152,87732,1,2
296,136,87825,1,0
360,128,87919,1,2
336,152,88012,1,2
256,168,88198,1,0
264,200,88384,1,0
360,128,88571,1,2
400,128,88757,1,0
304,232,89130,1,8
264,200,89316,1,0
264,200,89409,1,0
304,200,89502,1,2
256,168,89689,1,2
376,216,89875,1,8
384,160,90248,1,2
304,200,90434,1,2
376,216,90621,1,8
328,144,90993,1,0
304,200,91180,1,0
304,200,91273,1,0
376,216,91366,1,8
368,112,91552,1,2
328,144,91739,1,2
328,144,91925,1,0
376,216,92111,1,8
240,120,92298,1,2
248,152,92391,1,2
360,152,92484,1,0
360,152,92670,1,0
376,216,92857,1,8
360,152,93043,1,0
360,152,93136,1,0
424,112,93229,1,2
360,152,93322,1,0
360,152,93416,1,0
376,216,93602,1,8
392,136,93788,1,0
360,152,93975,1,0
360,152,94161,1,2
376,216,94347,1,8
392,136,94906,1,0
376,216,95093,1,8
360,152,95279,1,0
272,256,95465,1,0
432,120,95652,1,2
184,176,95745,1,2
336,208,95838,1,8
184,176,96024,1,2
184,176,96211,1,2
360,152,96397,1,0
336,208,96583,1,8
384,88,96956,1,2
400,128,97142,1,0
336,208,97329,1,8
304,128,97701,1,0
304,128,97888,1,2
304,128,97981,1,0
336,208,98074,1,8
288,176,98260,1,0
352,144,98447,1,8
232,160,98633,1,0
376,232,98819,1,0
376,232,98912,1,0
376,232,99006,1,0
376,232,99099,1,0
288,176,99192,1,8
336,120,99378,1,0
304,128,99565,1,0
352,144,99751,1,8
160,160,99937,1,0
232,160,100124,1,0
232,160,100217,1,0
352,144,100310,1,8
232,160,100496,1,0
232,160,100683,1,0
352,144,101055,1,8
376,112,101428,1,0
304,184,101801,1,8
288,72,101987,1,0
304,184,102173,1,0
304,184,102266,1,0
304,184,102360,1,0
304,184,102453,1,0
352,144,102546,1,8
288,120,102919,1,0
288,120,103012,1,0
288,120,103105,1,0
288,120,103198,1,0
368,96,103291,1,8
288,120,103478,1,0
352,144,103664,1,2
328,160,103757,1,2
328,160,103850,1,2
328,160,103943,1,2
368,96,104037,1,8
200,144,104409,1,8
232,120,104782,1,0
256,136,104968,1,0
256,136,105061,1,0
272,168,105155,1,8
256,136,105341,1,0
256,136,105527,1,0
272,168,105714,1,8
320,136,105900,1,14
272,168,106273,1,12
336,200,106645,1,12
336,200,107018,1,12
272,168,107391,1,0
272,168,107577,1,0
344,112,107763,1,2
312,144,107857,1,2
272,168,107950,1,2
416,120,108322,1,0
344,112,108509,1,2
344,160,108602,1,2
272,168,108695,1,0
272,168,108788,1,0
312,144,108881,1,2
344,112,109068,1,0
416,120,109254,1,2
312,144,109440,1,2
416,120,109627,1,0
344,112,109813,1,0
192,184,109999,1,2
416,120,110372,1,0
344,112,110558,1,2
344,112,110652,1,2
344,112,110745,1,2
376,120,110931,1,0
376,120,111117,1,2
344,112,111211,1,2
296,96,111304,1,0
296,96,111397,1,0
256,104,111490,1,2
192,176,111676,1,0
256,104,111863,1,2
312,128,112235,1,0
376,120,112422,1,2
344,112,112608,1,0
312,128,112794,1,0
464,104,112981,1,0
376,120,113167,1,2
312,128,113353,1,0
344,192,113540,1,0
344,192,113633,1,0
344,112,113726,1,2
256,136,113912,1,0
232,104,114099,1,2
232,104,114192,1,2
272,104,114285,1,0
272,104,114378,1,0
376,120,114471,1,2
376,120,114658,1,0
344,112,114844,1,0
440,120,115030,1,2
440,120,115124,1,2
440,120,115217,1,2
376,120,115403,1,0
376,120,115589,1,0
472,120,115776,1,2
376,120,115962,1,0
256,120,116335,1,0
288,152,116521,1,0
288,152,116614,1,0
376,120,116707,1,2
376,120,116894,1,2
376,120,117080,1,2
376,120,117266,1,2
376,120,117360,1,2
376,120,117453,1,2
376,120,117639,1,0
376,120,117825,1,0
408,104,117919,1,2
376,120,118012,1,2
376,120,118105,1,2
376,120,118198,1,0
376,120,118291,1,2
376,120,118384,1,2
376,120,118478,1,2
408,104,118571,1,0
376,120,118757,1,0
336,112,118943,1,2
336,112,119037,1,2
336,112,119130,1,2
336,112,119223,1,2
336,112,119316,1,2
200,160,119502,1,0
416,160,119689,1,8
304,216,119782,1,0
408,104,119875,1,2
408,104,120061,1,2
384,240,120434,1,8
272,144,120621,1,0
304,216,120807,1,0
304,216,120900,1,0
304,216,120993,1,0
304,216,121086,1,0
384,240,121180,1,8
296,184,121366,1,0
408,104,121552,1,2
408,104,121739,1,2
408,104,121832,1,2
384,240,121925,1,8
488,120,122111,1,0
384,240,122298,1,8
424,128,122670,1,2
424,128,122857,1,2
424,128,122950,1,2
280,208,123043,1,8
424,128,123229,1,0
424,128,123416,1,2
400,144,123509,1,0
368,184,123602,1,8
456,128,123695,1,2
424,128,123788,1,0
424,128,123881,1,0
424,128,123975,1,0
424,128,124068,1,0
368,184,124161,1,8
232,160,124347,1,0
304,144,124534,1,0
304,144,124720,1,0
304,144,124813,1,0
344,160,124906,1,8
304,144,125279,1,0
304,144,125465,1,0
344,160,125652,1,8
400,120,125838,1,0
400,120,126024,1,0
376,96,126211,1,2
376,96,126304,1,2
344,160,126397,1,8
456,104,126583,1,0
424,136,126770,1,0
456,104,126863,1,0
456,104,126956,1,2
456,104,127049,1,2
344,160,127142,1,8
400,120,127329,1,0
400,168,127515,1,0
400,168,127701,1,0
344,160,127888,1,8
456,104,127981,1,2
456,104,128074,1,2
456,104,128167,1,0
344,160,128260,1,8
328,120,128447,1,0
328,120,128633,1,0
400,120,128819,1,2
400,120,128912,1,2
344,80,129006,1,8
456,104,129192,1,0
400,120,129378,1,0
384,136,129565,1,8
392,184,129751,1,8
384,136,130124,1,8
384,136,130496,1,8
384,136,130869,1,8
80,184,131242,1,0
384,136,131428,1,0
368,96,131521,1,2
416,104,131707,1,2
232,152,131801,1,0
144,176,131987,1,0
384,136,132173,1,0
384,136,132360,1,0
384,136,132453,1,0
416,104,132546,1,2
320,120,132732,1,2
384,136,132919,1,2
288,136,133012,1,0
240,224,133198,1,0
416,104,133291,1,2
384,136,133478,1,2
416,104,133664,1,0
352,152,133850,1,8
288,136,134037,1,0
288,136,134223,1,0
320,120,134316,1,0
416,104,134409,1,2
360,120,134502,1,2
288,136,134596,1,8
296,168,134782,1,0
232,136,134968,1,0
232,136,135061,1,0
288,136,135155,1,2
288,136,135248,1,2
296,168,135341,1,8
232,192,135527,1,0
288,136,135714,1,4
256,104,136086,1,12
288,136,136459,1,4
288,136,136832,1,2
448,120,137204,1,0
288,136,137391,1,0
400,112,137484,1,0
272,160,137577,1,8
400,112,137670,1,2
448,120,137763,1,0
400,112,137950,1,0
320,104,138136,1,0
272,160,138322,1,8
272,160,138509,1,0
280,232,138695,1,0
352,120,138788,1,0
448,120,138881,1,2
400,112,138975,1,2
192,144,139161,1,0
320,104,139347,1,2
400,112,139440,1,0
400,112,139534,1,0
448,120,139627,1,2
256,112,139813,1,8
352,120,139999,1,0
256,112,140186,1,8
296,144,140372,1,0
296,144,140558,1,0
296,144,140652,1,0
296,144,140745,1,0
296,144,140838,1,0
256,112,140931,1,8
400,112,141024,1,2
448,120,141117,1,0
464,144,141211,1,0
464,144,141304,1,0
400,112,141397,1,2
256,112,141490,1,8
256,112,141676,1,12
264,144,142049,1,12
264,144,142422,1,12
264,144,142794,1,12
256,192,143167,12,0,146148
