osu file format v9

[General]
AudioFilename: song.mp3
AudioLeadIn: 2000
PreviewTime: 23357
Countdown: 0
SampleSet: Normal
StackLeniency: 0.7
Mode: 0
LetterboxInBreaks: 0

[Editor]
Bookmarks: 16,23866,47717,71568,83494,119270
DistanceSpacing: 1
BeatDivisor: 4
GridSize: 8

[Metadata]
Title:Year-Round Absorbed Curiosity
Artist:ZUN
Creator:saymun
Version:Normal
Source:Touhou
Tags:Cirno Sunny Milk Luna Child Star Sapphire Numbers 596108 Lybydose GladiOol Lilac Nakagawa-Kanon Gladi dksslqj MarioBros777

[Difficulty]
HPDrainRate:2
CircleSize:4
OverallDifficulty:4
ApproachRate:5
SliderMultiplier:1.3
SliderTickRate:1

[Events]
//Background and Video events
0,0,"bg.jpg"
//Break Periods
2,71814,82340
//Storyboard Layer 0 (Background)
//Storyboard Layer 1 (Fail)
//Storyboard Layer 2 (Pass)
//Storyboard Layer 3 (Foreground)
Sprite,Foreground,Centre,"sayeggpain.png",320,240 S,1,16,202,0.25,1 F,0,16,388,0,1 S,2,202,388,1,0.7 M,0,388,,444,426 F,0,388,71568,1 S,0,388,71568,0.7 F,0,71568,71941,1,0 S,2,71568,71941,0.7,2.5
Sprite,Foreground,Centre,"gladi.png",320,240 M,0,83307,,460,426 S,1,83307,83494,0.25,1 F,0,83307,83680,0,1 S,2,83494,83680,1,0.7 F,0,83680,143121,1 S,0,83680,143121,0.7 F,0,143121,143494,1,0 S,2,143121,143494,0.7,2.5
Sprite,Foreground,Centre,"black.png",320,240 M,0,71568,,320,240 S,0,71568,,1 F,0,71568,72034,0,0.7 F,0,72034,82283,0.7 F,0,82283,82748,0.7,0
Sprite,Foreground,Centre,"break.png",320,240 S,1,71568,71801,1,2 F,0,71568,72034,0,1 S,2,71801,72034,2,1 F,0,72034,82283,1 F,0,82283,82748,1,0
//Storyboard Sound Samples
//Background Colour Transformations
3,100,0,0,0

[TimingPoints]
62,372.670807453416,4,1,1,70,1,0

[Colours]
Combo1 : 255,150,0
Combo2 : 9,164,247
Combo3 : 200,38,38
Combo4 : 255,255,255

[HitObjects]
256,320,62,1,0
448,288,621,2,0,B|464:224|448:160,1,130
320,192,1366,2,0,B|304:128|320:64,2,130
264,224,2298,2,0,B|200:240|136:224,1,130,2|2
48,128,3043,5,0
224,48,3602,2,0,B|288:32|352:48,3,130
376,112,4906,2,0,B|440:128|504:112,2,130
328,232,6024,5,0
160,336,6583,2,0,B|96:368|32:360,2,130,2|2|2
96,224,7701,2,0,B|56:176|56:88,1,130,2|2
64,40,8260,1,2
64,40,8633,1,2
192,72,9006,5,0
384,48,9565,2,0,B|448:80|448:152,1,130,2|2
336,216,10310,2,0,B|272:184|272:112,1,130,2|2
320,64,10869,2,0,B|280:8,2,65,2|2|2
456,280,11987,5,0
336,336,12360,1,8
208,304,12732,2,0,B|80:304,1,130,0|8
184,224,13478,2,0,B|312:224,1,130,0|8
208,144,14223,2,0,B|80:144,1,130,0|8
248,48,15155,6,0,B|456:48|456:248,1,325
344,312,16459,1,2
216,312,16832,1,2
88,312,17204,1,4
160,64,17950,5,0
288,32,18322,1,8
416,64,18695,2,0,B|416:200,1,130,0|8
296,144,19440,2,0,B|296:280,1,130,0|8
176,216,20186,2,0,B|176:352,1,130,0|8
32,216,21117,6,0,B|32:16|240:16,1,325
368,16,22422,1,4
56,336,23912,5,2
184,336,24285,1,10
120,224,24658,2,0,B|88:160|120:96,1,130,0|8
200,200,25403,2,0,B|222:132|290:109,1,130,0|8
272,240,26148,2,0,B|336:208|400:240,1,130,0|8
352,48,27080,6,0,B|284:-28|212:48|212:48|140:124|72:48,1,325,2|2
40,176,28384,2,0,B|40:248|16:312,2,130,2|2|4
256,320,29875,5,2
384,352,30248,1,10
432,232,30621,2,0,B|432:96,1,130,0|8
312,54,31366,2,0,B|312:184,1,130,0|8
192,232,32111,2,0,B|192:96,1,130,0|8
16,192,33043,6,0,B|16:384|232:384,1,325,2|2
328,304,34347,1,4
72,112,35838,5,4
256,48,36397,2,0,B|320:32|392:32,1,130,2|2
336,152,37142,2,0,B|272:168|200:168,2,130,2|2|2
384,192,38074,2,0,B|392:272|440:328,1,130,2|2
304,360,38819,5,4
112,360,39378,2,0,B|32:360|32:280,1,130,2|2
112,176,40124,2,0,B|192:176|192:256,1,130,2|2
208,320,40683,1,2
328,280,41055,1,2
424,192,41428,1,2
464,72,41800,5,4
272,40,42360,2,0,B|128:40,1,130,2|2
70,144,43105,2,0,B|200:144,1,130,2|2
272,248,43850,1,2
272,248,44037,2,0,B|128:248,1,130,2|2
256,192,44782,12,4,47018
256,192,47763,5,0
256,256,47950,1,2
256,320,48136,1,8
128,352,48509,2,0,B|48:352|48:272,1,130,0|8
64,208,49068,2,0,B|64:72,1,130,2|2
112,32,49627,1,10
240,32,49999,1,0
240,32,50186,1,2
432,32,50745,6,0,B|512:40|536:120|512:200|432:208,3,260
184,128,53726,5,0
160,184,53912,1,2
136,240,54099,1,8
144,368,54471,2,0,B|208:384|272:368,1,130,0|8
336,360,55030,2,0,B|400:344|464:360,1,130,2|2
512,320,55589,1,10
440,216,55962,1,0
440,216,56148,1,2
272,112,56707,6,0,B|264:32|184:8|104:32|96:112,2,260,0|0|8
240,240,58571,1,8
184,120,58943,1,8
128,240,59316,1,8
40,336,59689,5,4
40,208,60061,1,8
64,152,60248,1,2
88,96,60434,1,0
272,40,60993,6,0,B|400:40|400:152,1,195,2|8
400,280,61925,1,0
400,280,62111,1,2
216,352,62670,6,0,B|56:352|56:184,3,260
272,48,65652,5,0
400,72,66024,1,8
432,128,66211,1,2
464,184,66397,1,0
360,352,66956,6,0,B|240:352|240:232,1,195,2|8
136,160,67888,1,0
136,160,68074,1,2
256,192,68633,12,4,71614
200,120,83540,5,2
168,248,83912,2,0,B|232:264|304:272,1,130,8|2
352,304,84471,2,0,B|400:240,1,65,0|8
368,120,85030,2,0,B|416:56,2,65,2|0|10
256,56,85776,2,0,B|136:16|80:144,1,195,2|0
56,248,86707,5,2
160,328,87080,1,0
160,328,87266,2,0,B|224:312|296:280,1,130,10|0
336,248,87825,2,0,B|352:208|360:168,1,65,8|2
312,64,88384,1,10
312,64,88757,1,2
72,160,89502,6,0,B|80:224|96:288,1,130,2|8
224,288,90248,2,0,B|224:320|216:360,2,65,2|0|8
240,160,90993,2,0,B|240:128|248:88,2,65,2|0|8
344,240,91739,1,0
344,240,91925,2,0,B|416:232|480:200,1,130,2|2
488,80,92670,5,2
368,40,93043,1,2
368,40,93229,2,0,B|304:40|240:56,1,130,8|0
176,80,93788,2,0,B|144:88|88:88,1,65,8|2
168,320,94906,5,0
168,320,95093,1,10
256,224,95465,2,0,B|288:160|304:80,1,130,6|8
368,216,96211,2,0,B|376:256|392:304,2,65,2|0|10
464,128,96956,2,0,B|456:88|440:40,2,65,2|0|10
456,256,97701,2,0,B|344:208|288:320,1,195,2|2
256,192,98633,5,2
352,104,99006,1,2
352,104,99192,2,0,B|288:80|224:64,1,130,8|2
168,48,99751,2,0,B|128:48|80:64,1,65,10|2
64,184,100310,1,8
64,184,100683,1,0
296,304,101428,5,2
296,304,101801,2,0,B|320:240|336:168,1,130,8|0
352,120,102360,2,0,B|344:88|328:48,1,65,0|8
208,104,102919,2,0,B|216:136|232:176,2,65,2|0|10
88,64,103664,1,0
88,64,103850,2,0,B|72:128|64:200,1,130,2|2
112,312,104596,5,2
224,240,104968,1,0
224,240,105155,2,0,B|296:248|368:272,1,130,8|2
408,296,105714,2,0,B|448:288|480:272,1,65,8|10
264,56,107018,5,8
200,64,107204,1,0
136,72,107391,1,4
104,264,107950,2,0,B|176:280|256:288,1,130,2|2
320,192,108695,2,0,B|248:176|168:168,2,130,2|2|2
352,248,109627,2,0,B|424:264|504:272,1,130,10|2
496,144,110372,5,4
320,64,110931,1,2
320,64,111304,2,0,B|248:72|192:96,1,130,2|2
136,216,112049,1,2
136,216,112235,2,0,B|144:256|152:288,2,65,2|0|10
256,160,112981,1,2
296,280,113353,5,4
456,168,113912,2,0,B|440:96|408:24,1,130,2|2
352,160,114658,2,0,B|368:232|400:304,2,130,2|2|2
360,96,115589,2,0,B|296:80|208:72,1,130,10|2
112,128,116335,5,4
176,312,116894,1,2
176,312,117266,2,0,B|248:296|312:256,1,130,2|2
392,176,118012,1,0
392,176,118198,2,0,B|408:216|416:256,2,65,2|0|10
312,72,118943,1,8
208,144,119316,6,0,B|144:144|64:120,1,130,6|8
160,224,120061,2,0,B|224:224|304:248,1,130,2|8
352,264,120621,1,2
456,184,120993,2,0,B|464:152|472:112,1,65,0|8
376,32,121552,2,0,B|368:64|360:104,1,65,2|0
384,224,122111,5,2
384,224,122298,2,0,B|320:200|232:176,1,130,8|2
144,128,123043,2,0,B|208:104|296:80,1,130,8|2
400,80,123788,1,2
312,176,124161,1,10
352,304,124534,1,2
352,304,124906,1,10
224,344,125279,6,0,B|192:288|176:216,1,130,6|10
264,120,126024,2,0,B|296:176|312:248,1,130,2|10
320,304,126583,1,2
448,272,126956,2,0,B|464:232|472:200,1,65,0|10
408,96,127515,2,0,B|392:136|384:168,1,65,2|0
288,240,128074,5,2
288,240,128260,2,0,B|224:216|160:176,1,130,8|2
192,56,129006,2,0,B|256:80|320:120,1,130,8|2
432,64,129751,1,10
472,192,130124,1,10
384,288,130496,1,10
384,288,130869,1,10
288,200,131242,6,0,B|224:176|152:168,1,130,6|8
80,72,131987,2,0,B|40:136|24:200,1,130,2|8
32,256,132546,1,2
144,320,132919,2,0,B|160:288|168:248,1,65,2|8
288,200,133478,2,0,B|280:160|264:112,1,65,2|0
352,32,134037,5,2
352,32,134223,2,0,B|408:64|464:120,1,130,8|2
376,216,134968,2,0,B|416:272|440:352,1,130,8|2
312,368,135714,1,2
240,264,136086,1,10
304,152,136459,1,2
304,152,136832,1,10
224,48,137204,6,0,B|152:48|80:80,1,130,6|8
72,200,137950,2,0,B|144:200|216:168,1,130,2|10
256,144,138509,1,2
360,64,138881,2,0,B|384:96|400:136,1,65,2|8
496,192,139440,2,0,B|488:224|472:264,1,65,2|0
368,328,139999,5,2
368,328,140186,2,0,B|304:320|240:296,1,130,8|2
168,192,140931,2,0,B|176:128|200:64,1,130,8|2
199,66,141676,1,10
256,192,141770,12,4,143167
