osu file format v9

[General]
AudioFilename: song.mp3
AudioLeadIn: 2000
PreviewTime: 23357
Countdown: 0
SampleSet: Normal
StackLeniency: 0.7
Mode: 0
LetterboxInBreaks: 0

[Editor]
Bookmarks: 16,23866,47717,71568,119270
DistanceSpacing: 1
BeatDivisor: 4
GridSize: 8

[Metadata]
Title:Year-Round Absorbed Curiosity
Artist:ZUN
Creator:saymun
Version:Hard
Source:Touhou
Tags:Cirno Sunny Milk Luna Child Star Sapphire Numbers 596108 Lybydose GladiOol Lilac Nakagawa-Kanon Gladi dksslqj MarioBros777

[Difficulty]
HPDrainRate:4
CircleSize:4
OverallDifficulty:6
ApproachRate:7
SliderMultiplier:1.6
SliderTickRate:1

[Events]
//Background and Video events
0,0,"bg.jpg"
//Break Periods
2,71814,82453
//Storyboard Layer 0 (Background)
//Storyboard Layer 1 (Fail)
//Storyboard Layer 2 (Pass)
//Storyboard Layer 3 (Foreground)
Sprite,Foreground,Centre,"sayeggpain.png",320,240 S,1,16,202,0.25,1 F,0,16,388,0,1 S,2,202,388,1,0.7 M,0,388,,444,426 F,0,388,71568,1 S,0,388,71568,0.7 F,0,71568,71941,1,0 S,2,71568,71941,0.7,2.5
Sprite,Foreground,Centre,"dk.png",320,240 M,0,83307,,468,426 S,1,83307,83494,0.25,1 F,0,83307,83680,0,1 S,2,83494,83680,1,0.7 F,0,83680,143121,1 S,0,83680,143121,0.7 F,0,143121,143494,1,0 S,2,143121,143494,0.7,2.5
Sprite,Foreground,Centre,"black.png",320,240 M,0,71568,,320,240 S,0,71568,,1 F,0,71568,72034,0,0.7 F,0,72034,82283,0.7 F,0,82283,82748,0.7,0
Sprite,Foreground,Centre,"break.png",320,240 S,1,71568,71801,1,2 F,0,71568,72034,0,1 S,2,71801,72034,2,1 F,0,72034,82283,1 F,0,82283,82748,1,0
//Storyboard Sound Samples
//Background Colour Transformations
3,100,0,0,0

[TimingPoints]
62,372.670807453416,4,1,1,70,1,0
43943,-200,4,1,1,70,0,0
44502,-100,4,1,1,70,0,0
71521,-100,4,1,1,70,0,0
82049,-100,4,1,1,70,0,0

[Colours]
Combo1 : 255,150,0
Combo2 : 9,164,247
Combo3 : 200,38,38
Combo4 : 255,255,255

[HitObjects]
448,56,62,1,8
400,120,248,1,0
480,128,434,1,0
432,192,621,2,0,B|432:296|336:296,1,160,2|2
176,296,1366,2,0,B|82:296|82:192,1,160,2|2
256,304,2111,2,0,B|256:408,1,80,2|2
256,192,2670,1,2
120,112,3043,6,0,B|32:80,2,80,2|0|0
192,72,3602,2,0,B|360:72,3,160,2|2|2|2
424,104,4906,1,0
424,104,5093,1,2
432,184,5279,1,2
432,184,5465,1,0
440,264,5652,1,2
440,264,5838,1,0
384,320,6024,6,0,B|328:376,1,80,2|0
272,320,6397,2,0,B|216:264,1,80,0|2
256,112,6956,1,2
104,72,7329,1,2
63,223,7701,1,2
215,263,8074,2,0,B|272:320,1,80,2|2
160,168,8633,1,2
256,40,9006,5,2
336,56,9192,1,0
400,104,9378,1,0
416,184,9565,2,0,B|416:344,3,160,0|0|0|2
336,344,10869,2,0,B|240:344,1,80,0|2
200,288,11242,1,2
120,288,11428,2,0,B|72:288,2,40,0|0|2
64,136,11987,5,0
200,56,12360,1,8
360,56,12732,2,0,B|448:56,2,80,0|2|8
304,112,13291,1,0
360,168,13478,2,0,B|448:168,2,80,0|2|8
304,224,14037,1,0
360,280,14223,2,0,B|448:280,2,80,0|2|8
304,336,14782,1,2
304,336,15155,6,0,B|248:304|192:376|152:336,1,160
88,288,15714,2,0,B|16:232,1,80,8|0
96,200,16086,2,0,B|24:144,1,80,0|8
104,112,16459,2,0,B|32:56,2,80,0|0|8
168,64,17018,1,0
248,88,17204,2,0,B|304:56|360:128|400:88,1,160,0|8
472,120,17763,5,0
472,120,17857,1,0
472,120,17950,2,0,B|472:296,1,160,0|8
328,344,18695,1,0
264,296,18881,1,2
264,216,19068,1,8
200,72,19440,1,0
200,152,19627,1,2
136,200,19813,1,8
16,304,20186,1,0
64,368,20372,1,2
144,344,20559,1,8
224,368,20745,1,2
224,368,21117,6,0,B|384:368,1,160
448,320,21676,2,0,B|528:320,2,80,8|0|0
384,272,22235,2,0,B|288:272,1,80,8|0
144,272,22794,1,8
64,136,23167,2,0,B|144:136,1,80
216,168,23540,2,0,B|296:168,1,80,8|0
368,136,23912,5,2
488,32,24285,1,10
488,192,24658,1,0
488,272,24844,2,0,B|488:312|448:336,1,80,2|8
296,288,25403,2,0,B|296:248|336:224,1,80,0|2
392,280,25776,1,8
256,360,26148,2,0,B|224:384|176:376,1,80,0|2
128,312,26521,2,0,B|160:288|208:296,1,80,8|2
288,160,27080,6,0,B|296:64|200:48,1,160
120,32,27639,2,0,B|40:24,1,80,8|0
112,112,28012,2,0,B|32:120,1,80,0|8
128,192,28384,2,0,B|56:224,1,80
176,256,28757,2,0,B|120:312,1,80,8|0
240,296,29130,2,0,B|216:376,2,80,0|0|8
376,352,29875,6,0,B|464:320|464:224,2,160,2|8|0
344,280,30807,1,2
360,200,30993,2,0,B|384:104|304:64,1,160,8|0
224,64,31552,1,2
168,120,31739,2,0,B|144:216|224:256,1,160,8|0
176,320,32298,1,2
104,352,32484,1,8
32,312,32670,1,2
32,152,33043,6,0,B|32:64|120:32,1,160
192,72,33602,1,8
192,72,33788,1,0
272,48,33975,2,0,B|296:16,2,40,0|0|8
336,88,34347,2,0,B|416:112,1,80
480,208,34720,2,0,B|400:184,1,80,8|0
304,232,35093,2,0,B|384:256,1,80,8|0
448,352,35466,6,0,B|368:328,1,80,8|0
296,352,35838,2,0,B|208:352,3,80
56,352,36770,1,2
80,192,37142,1,2
56,32,37515,1,2
216,56,37888,1,2
296,80,38074,2,0,B|352:112|384:32|448:72,1,160,10|2
480,144,38633,1,0
472,224,38819,6,0,B|464:280|408:288,1,80
344,272,39192,2,0,B|352:216|408:208,2,80,0|0|8
296,336,39751,2,0,B|240:376|136:368,2,160,2|2|2
256,264,40683,1,2
256,264,40869,1,0
200,208,41055,2,0,B|200:120,1,80,10|0
120,104,41428,2,0,B|120:192,1,80,2|0
40,208,41801,6,0,B|40:120,2,80
40,288,42360,1,0
184,360,42732,1,2
256,216,43105,1,2
328,360,43478,1,2
472,288,43850,1,2
472,208,44037,2,0,B|472:120,1,80,10|2
328,56,44782,5,0
248,32,44968,1,0
168,48,45155,1,0
112,104,45341,2,0,B|48:160|64:248,1,160,0|2
216,296,46086,2,0,B|280:240|264:152,1,160,2|2
344,168,46645,1,2
376,240,46832,1,2
432,296,47018,2,0,B|464:328,4,40,10|0|0|0|0
472,144,47763,6,0,B|424:48,1,80,0|2
360,80,48136,2,0,B|312:-16,2,80,8|2|0
288,120,48695,1,2
288,120,48881,1,10
232,176,49068,2,0,B|160:320,1,160,2|2
88,280,49627,2,0,B|52:352,2,80,8|2|0
56,208,50186,1,2
56,208,50372,1,10
72,128,50558,1,0
112,56,50745,6,0,B|208:56|216:152,1,160,8|0
392,48,51490,2,0,B|392:144|296:152,1,160,8|0
400,328,52235,2,8,B|304:328|296:232,1,160,8|8
120,336,52980,2,8,B|120:240|216:232,1,160,8|8
192,40,53726,6,0,B|112:56,1,80,0|2
88,136,54099,1,8
88,136,54192,1,0
88,136,54285,2,0,B|8:152,2,80,2|0|2
160,176,54844,1,10
232,216,55030,2,0,B|412:180,1,160,2|2
432,256,55589,2,0,B|512:240,2,80,8|2|0
432,256,56148,1,2
376,312,56335,2,0,B|280:312,1,80,8|2
224,336,56707,6,0,B|144:368|64:336,2,160,8|0|8
232,256,57639,1,0
224,176,57825,2,0,B|144:144|64:176,4,160,0|8|8|8|8
344,72,59689,5,0
424,88,59875,1,2
344,72,60061,1,8
264,56,60248,1,2
344,72,60434,1,0
344,152,60621,2,0,B|344:232,1,80,2|10
344,312,60993,2,0,B|424:296,2,80,2|0|2
344,312,61552,2,0,B|264:328,2,80,8|2|0
344,312,62111,1,2
304,232,62298,1,0
232,192,62484,1,2
152,192,62670,6,0,B|64:240|112:336,1,160,8|0
256,296,63416,2,0,B|304:384|400:336,1,160,8|0
360,192,64161,2,8,B|448:144|400:48,1,160
256,88,64907,2,8,B|208:0|112:48,1,160
64,192,65652,5,0
64,192,65838,1,2
88,272,66024,2,0,B|88:368,2,80,8|2|0
160,232,66583,1,2
160,232,66770,1,10
232,264,66956,2,0,B|304:216|392:256,1,160,2|2
448,304,67515,1,8
384,352,67701,1,2
304,336,67888,2,0,B|248:328|216:368,1,80,0|2
152,336,68260,1,8
152,336,68353,1,0
152,336,68447,1,2
72,352,68633,6,0,B|16:280|56:200,3,160,8|0|8|0
120,152,69937,1,0
256,192,70124,12,0,71614
256,192,83353,6,0,B|304:192,2,40,0|0|2
96,192,83912,2,8,B|48:104,1,80,8|2
56,40,84285,1,0
136,40,84471,1,2
216,40,84658,2,0,B|400:40,1,160,8|0
360,120,85217,1,2
432,88,85403,2,0,B|488:160|472:256,2,160,8|0|8
360,120,86335,1,2
288,152,86521,5,8
208,152,86707,2,0,L|152:152|120:184|56:184,1,160,0|2
88,112,87266,2,0,L|119:84|169:84,1,80,8|2
184,224,87639,2,0,L|153:252|103:252,1,80,0|8
32,256,88012,2,0,L|72:320|160:320,1,160,2|8
240,320,88571,2,0,L|240:360,2,40
320,320,88943,2,0,B|352:280|312:240,1,80,2|8
320,168,89316,6,0,B|320:120,2,40,0|0|2
160,168,89875,1,8
48,280,90248,2,0,B|32:328|72:368,1,80,0|2
120,304,90621,2,0,B|208:264|152:152,1,160,8|0
96,216,91180,1,2
160,168,91366,2,0,B|344:168,1,160,8|0
448,168,91925,1,2
320,168,92111,1,8
384,280,92298,2,0,B|384:184,1,80,0|8
384,56,92670,6,0,B|384:152,2,80
312,96,93229,1,8
456,96,93416,1,2
320,168,93602,1,0
448,168,93788,1,8
312,240,93975,5,0
456,240,94161,1,2
384,280,94347,2,0,B|352:376|240:344,1,160,8|0
136,328,94906,5,2
152,208,95093,1,8
272,224,95279,1,2
208,272,95465,2,0,B|200:176|256:112,2,160,0|8|0
152,208,96397,1,2
272,224,96583,2,0,B|264:320|320:384,1,160,8|0
392,376,97142,1,2
360,304,97329,2,0,B|424:256|440:168,1,160,8|0
448,88,97888,1,2
392,32,98074,1,8
336,88,98260,2,0,B|248:88,1,80,2|8
184,128,98633,1,0
184,128,99006,5,0
96,256,99192,1,8
184,128,99378,1,2
176,280,99565,1,0
184,128,99751,1,8
256,256,99937,1,0
256,256,100124,1,2
304,184,100310,2,0,B|312:128|296:80,1,80,8|0
392,200,100683,2,0,B|376:280|392:376,1,160,0|8
464,320,101242,5,2
464,320,101335,1,0
464,320,101428,2,0,B|480:240|464:144,1,160,0|8
368,32,102173,2,0,B|408:48|440:104,2,80,0|2|8
208,64,102919,2,0,B|240:24|288:24,2,80,0|2|8
208,224,103664,1,0
136,264,103850,1,2
136,184,104037,1,8
208,224,104223,2,0,B|312:224,1,80,2|8
368,200,104596,5,0
368,200,104968,1,0
368,120,105155,2,0,B|464:120,1,80,8|2
312,64,105527,2,0,B|224:64,1,80,0|8
152,64,105900,2,0,B|112:104|120:168,1,80,8|2
168,200,106273,2,0,B|208:160|200:96,1,80,8|2
120,136,106645,2,0,B|32:136,1,80,8|2
8,208,107018,6,0,B|96:208,1,80,8|0
136,272,107391,1,0
216,272,107577,1,0
296,272,107763,1,0
376,272,107950,1,0
384,256,108043,1,0
392,240,108136,6,0,B|416:192|384:136,2,80,8|0|0
328,192,108695,2,0,B|292:119|340:35,2,160,2|2|2
320,208,109534,1,0
312,224,109627,2,0,B|184:224,1,120,8|0
176,224,109999,2,0,B|96:192|120:56,1,160
32,96,110558,5,0
72,24,110745,1,0
152,24,110931,1,0
200,88,111117,1,8
248,24,111304,2,0,B|432:24,2,160
200,88,112235,1,0
248,152,112422,1,0
200,216,112608,2,0,B|112:248|144:152|48:184,1,160,8|0
8,248,113167,1,0
72,296,113353,6,0,B|48:336|-8:336,2,80
144,336,113912,2,0,B|232:336,1,80,0|8
288,288,114285,2,0,B|352:208|280:136,3,160
248,216,115589,2,0,B|64:216,1,160,8|0
24,72,116335,6,0,B|-16:112|24:176,1,80
88,120,116707,1,0
152,72,116894,2,0,B|256:72,1,80,0|8
296,120,117266,2,0,B|376:168|464:112,2,160
232,168,118198,1,0
296,216,118384,1,0
232,264,118571,1,8
72,264,118943,6,8,B|24:264,4,40
152,264,119502,2,0,B|152:168,1,80,2|8
152,104,119875,1,2
224,144,120061,2,0,L|312:144|368:88,1,160,0|8
280,80,120621,6,0,L|344:240,1,160,2|2
360,304,121180,2,0,L|408:304|440:264,2,80,8|2|0
280,304,121739,2,0,L|168:304,1,80,2|8
120,304,122111,1,2
40,304,122298,6,0,B|32:232|72:192|144:208,1,160,8|2
472,80,123043,2,0,B|480:152|440:192|368:176,1,160,8|2
304,152,123602,1,8
232,128,123788,2,0,B|48:128,1,160,0|8
120,192,124347,1,2
72,256,124534,2,0,B|264:256,1,160,0|8
392,256,125279,6,0,B|408:312|464:320,2,80,0|2|8
344,192,125838,1,2
392,128,126024,2,0,B|408:72|464:64,2,80,0|2|8
344,192,126583,2,0,B|168:192,1,160,2|2
136,128,127142,1,8
88,192,127329,1,2
136,256,127515,1,0
216,256,127701,2,0,B|304:256,2,80,2|8|2
264,184,128260,6,0,B|208:112,1,80,8|0
176,48,128633,2,0,B|376:48,1,160,0|8
416,48,129192,2,0,B|456:88|432:144,2,80,2|0|8
368,120,129751,6,0,B|328:160|352:216,1,80,8|2
304,304,130124,2,0,B|264:264|288:208,1,80,8|2
232,120,130496,2,0,B|192:160|216:216,1,80,8|2
160,304,130869,2,0,B|120:264|144:208,1,80,8|2
64,192,131242,5,0
64,112,131428,1,2
104,40,131614,1,8
184,40,131801,1,2
232,104,131987,2,0,B|304:192|373:97,1,160,0|8
304,56,132546,2,0,B|304:240,1,160,2|2
344,288,133105,2,0,B|424:248,1,80,8|2
264,288,133478,2,0,B|184:248,1,80,0|2
304,216,133850,2,0,B|304:128,1,80,8|2
224,136,134223,6,0,B|120:152|128:64|128:32,1,160,8|0
208,64,134782,1,2
208,64,134968,2,0,B|80:184,1,160,8|0
24,216,135527,1,8
64,288,135714,2,0,B|152:280|224:352,1,160,2|8
448,288,136459,2,0,B|360:280|288:352,1,160,2|8
256,184,137204,6,0,B|256:272,2,80,0|2|8
256,104,137763,1,2
184,144,137950,2,0,B|152:184|96:184,1,80,0|2
328,144,138322,2,0,B|360:184|416:184,1,80,8|2
256,264,138881,5,2
184,224,139068,1,8
184,144,139254,1,2
256,104,139440,1,0
328,144,139627,1,2
328,224,139813,1,8
256,184,139999,1,2
256,264,140186,6,0,B|192:336|80:312,1,160,8|0
40,280,140745,2,0,B|24:360,2,80,2|8|0
88,216,141304,2,0,B|64:128,1,80,2|8
16,80,141676,2,8,B|192:80,1,160
496,304,142422,2,8,B|320:304,1,160
256,280,142981,1,2
176,304,143167,1,2
