osu file format v9

[General]
AudioFilename: song.mp3
AudioLeadIn: 2000
PreviewTime: 23357
Countdown: 0
SampleSet: Normal
StackLeniency: 0.7
Mode: 0
LetterboxInBreaks: 0

[Editor]
Bookmarks: 16,23866,47717,71568,83494,119270
DistanceSpacing: 1
BeatDivisor: 4
GridSize: 8

[Metadata]
Title:Year-Round Absorbed Curiosity
Artist:ZUN
Creator:saymun
Version:Easy
Source:Touhou
Tags:Cirno Sunny Milk Luna Child Star Sapphire Numbers 596108 Lybydose GladiOol Lilac Nakagawa-Kanon Gladi dksslqj MarioBros777

[Difficulty]
HPDrainRate:1
CircleSize:3
OverallDifficulty:2
ApproachRate:3
SliderMultiplier:0.8
SliderTickRate:1

[Events]
//Background and Video events
0,0,"bg.jpg"
//Break Periods
2,71814,82100
//Storyboard Layer 0 (Background)
//Storyboard Layer 1 (Fail)
//Storyboard Layer 2 (Pass)
//Storyboard Layer 3 (Foreground)
Sprite,Foreground,Centre,"sayeggpain.png",320,240 S,1,16,202,0.25,1 F,0,16,388,0,1 S,2,202,388,1,0.7 M,0,388,,444,426 F,0,388,71568,1 S,0,388,71568,0.7 F,0,71568,71941,1,0 S,2,71568,71941,0.7,2.5
Sprite,Foreground,Centre,"lilac.png",320,240 M,0,83307,,409,426 S,1,83307,83494,0.25,1 F,0,83307,83680,0,1 S,2,83494,83680,1,0.7 F,0,83680,143121,1 S,0,83680,143121,0.7 F,0,143121,143494,1,0 S,2,143121,143494,0.7,2.5
Sprite,Foreground,Centre,"black.png",320,240 M,0,71568,,320,240 S,0,71568,,1 F,0,71568,72034,0,0.7 F,0,72034,82283,0.7 F,0,82283,82748,0.7,0
Sprite,Foreground,Centre,"break.png",320,240 S,1,71568,71801,1,2 F,0,71568,72034,0,1 S,2,71801,72034,2,1 F,0,72034,82283,1 F,0,82283,82748,1,0
//Storyboard Sound Samples
//Background Colour Transformations
3,100,0,0,0

[TimingPoints]
62,372.670807453416,4,1,1,70,1,0

[Colours]
Combo1 : 255,150,0
Combo2 : 9,164,247
Combo3 : 200,38,38
Combo4 : 255,255,255

[HitObjects]
296,88,62,2,0,B|368:104|408:192|368:280|296:296,2,280,0|0|2
216,88,3043,6,0,B|144:104|104:192|144:280|216:296,2,280,0|0|2
296,88,6024,6,0,B|432:88,4,120,0|0|0|0|2
256,160,8633,1,2
216,88,9006,2,0,B|80:88,4,120,0|0|0|0|0
96,192,11987,5,0
176,328,12732,1,0
336,328,13478,1,0
416,192,14223,1,0
256,72,15155,6,0,B|56:72,1,200,2|2
40,152,16459,1,2
56,232,16832,1,2
40,312,17204,1,4
192,352,17950,5,0
328,272,18695,1,0
328,112,19440,1,0
192,32,20186,1,0
72,192,21117,6,0,B|272:192,1,200,2|2
352,192,22422,1,4
64,336,23912,5,2
144,352,24285,1,8
224,336,24658,1,2
304,352,25030,2,0,B|400:344|408:248,2,160,8|8|8
304,232,27080,6,0,B|304:112|176:112,1,200,0|0
96,112,28384,1,2
96,192,28757,1,2
176,192,29130,1,4
256,328,29875,5,2
328,368,30248,1,8
400,328,30621,1,2
328,288,30993,2,0,B|328:128,2,160,8|8|8
440,248,33043,6,0,B|440:48,1,200
360,48,34347,1,4
56,152,35838,6,0,B|32:216|56:288,4,120,0|0|0|0|2
136,168,38447,1,2
216,184,38819,2,0,B|240:120|216:48,4,120,0|0|0|0|2
240,344,41801,6,0,B|184:376|120:368,4,120,0|0|0|0|2
288,280,44409,1,2
336,216,44782,2,0,B|392:184|456:192,4,120,0|0|0|0|2
256,72,47763,5,2
192,19,48136,1,10
109,25,48509,1,2
53,83,48882,1,8
52,166,49254,1,2
108,226,49627,1,10
189,232,50000,1,2
312,328,50745,6,0,B|464:328|464:184,1,240,4|0
464,104,52235,2,0,B|312:104|312:248,1,240,4|0
256,312,53726,5,2
192,365,54099,1,10
109,359,54472,1,2
53,301,54845,1,8
52,218,55217,1,2
108,158,55590,1,10
189,152,55963,1,2
256,192,56335,12,0,58198
216,72,59689,6,0,B|312:72,3,80,2|8|2|8
296,152,61180,2,0,B|216:152,3,80,2|8|2|8
136,168,62670,6,0,B|72:328|216:352,1,240,4|0
299,351,64161,2,0,B|440:328|376:168,1,240,4|0
296,152,65652,6,0,B|216:152,3,80,2|8|2|8
216,72,67143,2,0,B|296:72,3,80,2|8|2|8
256,192,68633,12,4,71614
202,55,83540,5,0
256,120,83912,1,8
298,187,84285,2,0,B|354:219|346:315|284:325,2,160,2|2|2
256,255,86148,1,0
256,255,86335,1,2
212,322,86707,2,0,B|156:290|164:194|226:184,1,160,2|2
216,72,88012,5,2
296,72,88384,1,2
296,152,88757,1,4
216,152,89130,1,0
184,224,89502,5,0
256,264,89875,1,8
256,344,90248,2,8,B|168:344,1,80,0|8
256,344,90993,2,0,B|344:344,1,80,0|8
416,328,91739,2,0,B|488:304|480:184|384:184,1,200
360,256,93043,2,0,B|240:336|88:232|136:88,1,360
200,56,95093,5,0
256,112,95465,2,0,B|280:152|336:160,2,80,2|10|0
312,56,96583,1,8
200,192,97329,1,8
304,336,98074,1,8
304,336,98260,2,0,B|432:336|448:208,1,200
384,168,99565,1,8
296,120,99937,6,0,B|256:96|208:128,3,80,2|10|4|8
152,168,101428,6,0,B|128:248,1,80,2|10
192,296,102173,1,0
256,248,102546,1,8
320,296,102919,1,0
382,244,103291,2,0,B|360:168,1,80,8|0
280,164,104037,2,0,B|280:124,1,40,8|0
301,46,104596,2,4,B|432:45|478:192|432:339|300:337,1,440
256,272,107018,5,0
212,205,107391,2,0,B|291:185|282:64|188:57,1,200,2|0
175,136,108695,1,2
373,161,109627,1,8
368,240,109999,1,0
291,266,110372,2,0,B|230:341|116:314|87:187|176:137,1,320,4|0
255,132,112235,1,8
255,132,112608,1,2
210,225,113353,6,0,B|194:289|113:303,1,120,2|2
48,328,114285,1,2
32,248,114658,2,0,B|32:128|168:112,1,200,2|2
232,104,115962,1,2
304,136,116335,6,0,B|464:200,2,160,2|0|2
256,200,118198,1,2
216,272,118571,1,4
296,296,118943,1,0
256,368,119316,6,0,B|96:368,1,160
96,208,120807,2,0,B|256:208,1,160
256,48,122298,5,2
328,80,122670,1,0
376,144,123043,1,2
384,224,123416,1,0
361,300,123788,2,0,B|317:369|178:366|148:290,1,240,4|0
216,248,125279,6,0,B|168:168,2,80,2|8|2
296,248,126397,2,0,B|344:168,2,80,8|0|8
328,320,127515,1,0
256,360,127888,1,8
184,320,128260,5,2
256,192,129006,1,2
328,48,129751,2,0,B|376:48|400:88,3,80,2|4|2|4
456,136,131242,6,0,B|388:179|388:179|308:127,1,160,2|0
200,240,132732,2,0,B|132:283|132:283|52:231,2,160,2|0|2
64,152,134968,1,2
176,40,135714,5,2
192,120,136086,1,4
256,168,136459,1,2
320,120,136832,1,4
336,40,137204,6,0,B|400:56|416:128|384:168,2,160,2|0|2
256,56,139068,1,2
256,136,139440,1,0
256,216,139813,1,8
256,192,140186,12,4,143167
