osu file format v11

[General]
AudioFilename: PCB Stage 6 - Ultimate Truth .mp3
AudioLeadIn: 0
PreviewTime: 19748
Countdown: 1
SampleSet: Normal
StackLeniency: 0.7
Mode: 0
LetterboxInBreaks: 1

[Editor]
DistanceSpacing: 0.8
BeatDivisor: 4
GridSize: 8

[Metadata]
Title:Ultimate Truth
TitleUnicode:Ultimate Truth
Artist:ZUN
ArtistUnicode:ZUN
Creator:lavalake
Version:Easy
Source:Touhou
Tags:7 Stage 6 Youmu Konpaku Yuyuko Saigyouji
BeatmapID:182734
BeatmapSetID:49940

[Difficulty]
HPDrainRate:3
CircleSize:2
OverallDifficulty:1
ApproachRate:2
SliderMultiplier:1.4
SliderTickRate:1

[Events]
//Background and Video events
0,0,"Youmu_and_Yuyuko_by_Marionette_ex.jpg"
//Break Periods
2,74332,77509
//Storyboard Layer 0 (Background)
//Storyboard Layer 1 (Fail)
//Storyboard Layer 2 (Pass)
//Storyboard Layer 3 (Foreground)
//Storyboard Sound Samples
//Background Colour Transformations
3,100,163,162,255

[TimingPoints]
1601,379.746835443038,4,1,0,45,1,0
28862,-100,4,1,0,45,0,1
56204,-100,4,1,0,45,0,0
83546,-100,4,1,0,45,0,1
110888,-100,4,1,0,45,0,0

[Colours]
Combo1 : 255,0,0
Combo2 : 255,255,255
Combo3 : 192,192,192
Combo4 : 0,128,128

[HitObjects]
208,72,1601,2,0,B|208:240|384:240,1,280
384,144,2740,2,0,B|208:144|208:312,1,280
304,312,3879,2,0,B|304:144|128:144,1,280
128,240,5018,2,0,B|304:240|304:72,1,280
208,64,6157,6,0,B|208:152|120:152|24:152|24:248,1,280
88,328,7297,2,0,B|88:248|176:248|272:240|288:144,1,280
304,64,8436,2,0,B|304:152|392:152|488:152|488:248,1,280
424,328,9576,2,0,B|424:248|336:248|240:240|224:144,1,280
256,64,10714,6,0,B|384:192|528:48,1,280,4|0,0:0|0:0,0:0:0
512,168,11854,2,0,B|376:256|224:152,1,280
256,72,12993,2,0,B|128:200|-16:56,1,280
0,176,14133,2,0,B|136:264|288:160,1,280
256,280,15271,6,0,B|256:168|448:168|448:296,1,280,4|0,0:0|0:0,0:0:0
352,288,16411,2,0,B|352:400|160:400|160:272,1,280
256,280,17550,2,0,B|368:280|368:88|240:88,1,280
248,192,18689,2,0,B|136:192|136:0|264:0,1,280
336,40,19828,6,0,B|336:184,2,140,8|0|0,0:0|0:0|0:0,0:0:0
432,40,20968,2,0,B|432:208,2,140,8|0|0,0:0|0:0|0:0,0:0:0
336,40,22107,1,8,0:0:0
240,40,22487,1,0,0:0:0
144,40,22866,1,0,0:0:0
288,128,23436,2,2,B|288:256|152:256,1,210
160,160,24385,6,0,B|72:168|64:256,2,140,8|0|0,0:0|0:0|0:0,0:0:0
160,256,25525,2,0,B|248:248|256:160,2,140,8|0|0,0:0|0:0|0:0,0:0:0
160,352,26664,2,0,B|304:352,1,140,8|0,0:0|0:0,0:0:0
400,344,27423,2,0,B|400:192,1,140,0|8,0:0|0:0,0:0:0
256,296,28942,6,0,B|344:296|360:208,2,140,8|0|0,0:0|0:0|0:0,0:0:0
264,200,30082,2,0,B|176:200|160:288,2,140,8|0|0,0:0|0:0|0:0,0:0:0
264,104,31221,1,8,0:0:0
360,104,31601,1,0,0:0:0
456,104,31980,1,0,0:0:0
224,104,32550,2,2,B|96:104|96:240,1,210
192,240,33499,6,0,B|280:240|296:152,2,140,8|0|0,0:0|0:0|0:0,0:0:0
200,144,34638,2,0,B|112:144|96:232,2,140,8|0|0,0:0|0:0|0:0,0:0:0
208,48,35778,2,0,B|352:48,1,140,8|0,0:0|0:0,0:0:0
440,48,36537,1,0,0:0:0
440,144,36917,2,0,B|440:312|256:312,1,280,8|0,0:0|0:0,0:0:0
272,216,38056,6,0,B|184:200|168:112,2,140,8|0|0,0:0|0:0|0:0,0:0:0
264,120,39195,2,0,B|252:49|164:33,2,140,8|0|0,0:0|0:0|0:0,0:0:0
360,128,40335,2,0,B|448:144|464:232,1,140,8|0,0:0|0:0,0:0:0
368,224,41094,1,0,0:0:0
160,224,41664,2,2,B|176:96|312:80,1,210
392,80,42613,6,0,B|392:240,2,140,8|0|0,0:0|0:0|0:0,0:0:0
296,80,43752,2,0,B|296:240,2,140,8|0|0,0:0|0:0|0:0,0:0:0
200,80,44892,2,0,B|48:80,1,140,8|0,0:0|0:0,0:0:0
56,176,45651,1,0,0:0:0
152,176,46031,2,0,B|320:176|320:352,1,280,8|0,0:0|0:0,0:0:0
224,352,47170,6,0,B|224:192,2,140,8|0|0,0:0|0:0|0:0,0:0:0
128,352,48309,2,0,B|40:344|32:256,2,140,8|0|0,0:0|0:0|0:0,0:0:0
128,256,49449,1,8,0:0:0
128,160,49828,1,0,0:0:0
128,64,50208,1,0,0:0:0
344,64,50778,2,2,B|472:72|480:208,1,210
384,192,51727,6,0,B|312:160|312:224|240:192,2,140,8|0|0,0:0|0:0|0:0,0:0:0
416,288,52866,2,0,B|344:256|344:320|272:288,2,140,8|0|0,0:0|0:0|0:0,0:0:0
480,216,54006,2,0,B|480:64,1,140,8|0,0:0|0:0,0:0:0
384,56,54765,1,0,0:0:0
288,56,55145,2,0,B|120:56|88:232,1,280,8|0,0:0|0:0,0:0:0
88,312,56284,6,0,B|256:312|256:136,1,280
344,136,57423,2,0,B|344:304|216:376,1,280
128,376,58563,2,0,B|112:288|248:312|256:120,1,280
160,136,59702,2,0,B|166:308|302:284|288:376,1,280
384,368,60841,6,0,B|400:240|240:192|256:184|256:112,1,280
352,128,61980,2,0,B|352:64|296:16|216:16|168:56|160:128,1,280
256,128,63119,2,0,B|256:192|200:240|120:240|72:192|64:128,1,280
64,40,64259,2,0,B|352:40,1,280
440,40,65398,6,0,B|440:112|440:112|312:112|312:240,1,280,4|0,0:0|0:0,0:0:0
408,248,66537,2,0,B|400:336|312:376|216:336|208:232,1,280
216,160,67676,2,0,B|48:160|48:336,1,280
144,336,68816,2,0,B|144:240|248:264|344:288|344:192,1,280
344,96,69955,6,0,B|512:96|512:272,1,280,4|0,0:0|0:0,0:0:0
416,272,71094,2,0,B|264:224|264:320|120:272,1,280
192,192,72233,2,0,B|280:160|376:144|480:200,1,280
472,96,73373,2,0,B|320:48|176:104,1,280
256,192,79069,12,0,82487,0:0:0
256,72,83626,6,0,B|256:224,2,140,8|0|0,0:0|0:0|0:0,0:0:0
160,72,84765,2,0,B|72:80|56:168,2,140,8|0|0,0:0|0:0|0:0,0:0:0
152,168,85904,2,0,B|152:320,1,140,8|0,0:0|0:0,0:0:0
248,312,86664,1,0,0:0:0
248,88,87233,2,2,B|376:88|376:224,1,210
280,216,88183,6,0,B|280:304|384:320,2,140,8|0|0,0:0|0:0|0:0,0:0:0
184,216,89322,2,0,B|184:128|80:112,2,140,8|0|0,0:0|0:0|0:0,0:0:0
88,208,90461,2,0,B|88:296|176:312,1,140,8|0,0:0|0:0,0:0:0
264,312,91221,1,0,0:0:0
360,312,91601,2,0,B|352:224|264:216,2,140,8|0|0,0:0|0:0|0:0,0:0:0
456,312,92740,6,0,B|456:160,1,140,8|0,0:0|0:0,0:0:0
456,72,93499,1,0,0:0:0
360,72,93879,2,0,B|208:72,1,140,8|0,0:0|0:0,0:0:0
120,72,94638,1,0,0:0:0
120,168,95018,2,0,B|280:168,1,140,8|0,0:0|0:0,0:0:0
360,168,95778,1,0,0:0:0
176,264,96347,2,2,B|256:264|280:296|304:232|328:264|416:264,1,210
480,296,97297,6,0,B|480:152,1,140,8|0,0:0|0:0,0:0:0
480,56,98056,1,0,0:0:0
384,56,98436,2,0,B|232:56,1,140,8|0,0:0|0:0,0:0:0
144,56,99195,1,0,0:0:0
144,152,99575,2,0,B|296:152,1,140,8|0,0:0|0:0,0:0:0
384,152,100335,1,0,0:0:0
384,248,100714,2,0,B|384:344|296:344|200:344|200:240,1,280,8|0,0:0|0:0,0:0:0
296,240,101854,6,0,B|296:96,2,140,8|0|0,0:0|0:0|0:0,0:0:0
200,240,102993,2,0,B|112:240|96:152,2,140,8|0|0,0:0|0:0|0:0,0:0:0
192,144,104132,1,8,0:0:0
192,48,104512,1,0,0:0:0
288,48,104892,1,0,0:0:0
288,272,105461,2,2,B|416:272|416:128,1,210
256,192,106411,12,4,110968,0:0:0
