osu file format v5

[General]
AudioFilename: U.N. Owen was her.mp3
AudioLeadIn: 0
PreviewTime: -1
Countdown: 1
SampleSet: Normal
StackLeniency: 0.7
Mode: 0
LetterboxInBreaks: 0
EditorBookmarks: 42695

[Metadata]
Title:U.N. Owen was her?
Artist:ZUN
Creator:AnimeJesus
Version:Original
Source:Tohou 6
Tags:tohou u.n. owen

[Difficulty]
HPDrainRate:7
CircleSize:5
OverallDifficulty:7
SliderMultiplier:1.5
SliderTickRate:0.5

[Events]
//Background and Video events
0,0,"1226577898104.jpg"
//Break Periods
2,55290,57273
//Storyboard Layer 0 (Background)
//Storyboard Layer 1 (Failing)
//Storyboard Layer 2 (Passing)
//Storyboard Layer 3 (Foreground)
//Storyboard Sound Samples
//Background Colour Transformations
3,100,163,162,255

[TimingPoints]
3623,359.281437125748,4,1,0,100,1

[HitObjects]
64,64,3623,2,0,B|192:64,1,112.5
256,64,4117,1,4
224,224,5554,6,0,B|352:224,1,112.5
416,224,6093,1,4
352,96,7530,6,0,B|352:192,1,93.75
352,256,8024,1,4
352,160,9417,6,0,B|224:160,1,112.5
160,160,9956,1,4
192,224,11348,6,0,B|64:224,1,112.5
128,160,11887,1,4
160,32,13279,6,0,B|288:32,1,112.5
224,96,13818,1,4
96,192,15210,6,0,B|224:192,1,112.5
160,128,15749,1,4
64,288,17186,6,0,B|64:160,1,112.5
64,96,17725,1,4
32,32,17935,5,0
96,64,18309,1,0
160,32,18713,1,0
224,64,19072,1,0
288,32,19492,1,0
352,64,19911,1,0
416,32,20270,1,0
480,64,20629,1,0
448,128,21048,1,0
384,160,21408,1,0
320,192,21827,1,0
256,160,22186,1,0
192,192,22605,1,0
128,160,22965,1,0
64,192,23384,1,0
224,240,24146,5,0
176,192,24551,1,0
224,144,24910,1,0
272,192,25315,1,0
272,192,25673,1,0
320,144,26078,1,0
368,192,26437,1,0
320,240,26841,1,0
360,296,27200,1,0
296,320,27649,1,0
256,264,28009,1,0
304,216,28413,1,0
240,200,28772,1,0
200,248,29176,1,0
216,304,29581,1,0
96,224,30330,5,0
32,224,30689,1,0
32,288,31108,1,0
96,288,31468,1,0
160,288,31872,1,0
192,224,32231,2,4,B|224:128,2,93.75
256,224,33039,1,0
320,160,33399,2,0,B|384:96,1,75
448,96,33803,1,0
448,64,33983,1,0
416,32,34162,1,0
352,64,34387,1,0
352,64,34477,1,0
352,64,34566,1,0
288,64,34791,1,0
224,96,34971,1,0
160,128,35150,1,0
96,160,35330,1,0
256,192,35509,12,0,36542
256,192,36902,5,0
192,160,37306,1,0
160,96,37665,1,0
224,64,38069,1,0
288,96,38429,2,4,B|320:192,2,93.75
352,96,39237,1,0
416,96,39596,2,0,B|512:96,1,93.75
480,160,40000,1,0
416,160,40180,1,0
352,128,40360,1,0
288,96,40584,1,0
288,96,40674,1,0
288,96,40764,1,0
224,96,40944,1,0
256,192,41168,12,0,42695
256,192,43099,5,0
192,160,43459,1,0
128,192,43863,1,0
64,160,44267,1,0
128,128,44626,2,4,B|128:32,2,93.75
192,160,45435,1,0
192,224,45794,2,0,B|128:288,1,75
192,320,46153,1,0
256,288,46378,1,0
320,320,46602,1,0
352,256,46782,1,0
352,256,46872,1,0
352,256,46962,1,0
352,192,47141,1,0
352,128,47365,1,0
352,64,47545,1,0
288,64,47724,1,0
256,192,47949,12,0,48892
32,32,49296,5,0
96,64,49655,1,0
160,32,50060,1,0
224,64,50419,1,0
288,64,50823,2,4,B|224:128,2,75
320,128,51587,1,0
256,128,51991,2,0,B|192:192,1,75
160,128,52395,1,0
128,192,52575,1,0
64,224,52754,1,0
128,256,52979,1,0
128,256,53069,1,0
128,256,53158,1,0
192,224,53338,1,0
256,192,53518,12,0,55090
32,32,58323,5,8
256,192,59895,1,8
32,352,61512,1,8
256,192,62320,1,8
480,352,63084,1,8
256,192,63892,1,8
32,32,64655,1,8
480,32,65419,1,8
480,352,66227,1,8
256,192,67036,1,8
480,352,67799,5,8
416,352,68203,1,8
416,288,68608,5,8
480,288,69012,1,8
480,224,69416,5,8
416,224,69820,1,8
416,160,70224,5,8
480,160,70584,1,8
480,96,70988,5,8
416,96,71347,1,8
416,32,71751,5,8
480,32,72155,1,8
416,96,72560,5,8
352,160,72964,1,8
256,192,73368,5,4
256,192,73682,1,4
256,192,73952,1,4
224,96,74491,5,0
160,96,74895,1,0
160,160,75299,5,0
224,160,75658,1,0
224,224,76063,5,0
160,224,76467,1,0
160,160,76826,5,0
224,160,77230,1,0
224,96,77634,5,0
160,96,77994,1,0
160,160,78398,5,0
224,160,78757,1,0
224,224,79161,5,0
160,224,79521,1,0
160,288,79925,5,0
224,288,80329,1,0
224,224,80688,5,0
160,224,81093,1,0
160,160,81452,5,0
224,160,81856,1,0
224,96,82260,5,0
160,96,82620,1,0
160,288,83383,5,0
224,288,84146,1,0
288,288,84955,5,0
352,288,85359,1,0
288,224,85763,5,0
352,224,86122,1,0
224,160,86512,5,0
160,160,86901,1,0
96,160,87290,1,0
96,224,87665,1,0
96,288,88054,1,0
160,288,88428,1,0
224,288,88862,1,0
288,288,89221,1,0
288,224,89625,1,0
288,160,90000,1,0
352,160,90389,1,0
352,224,90748,1,0
288,224,91152,1,0
224,224,91557,1,0
160,224,91961,1,0
96,224,92724,5,0
96,288,93084,1,0
160,288,93488,1,0
160,224,93892,1,0
160,160,94251,1,0
224,160,94655,1,0
288,160,95060,1,0
288,224,95419,1,0
224,224,95823,1,0
224,288,96182,1,0
224,352,96587,1,0
288,352,96946,1,0
352,352,97350,1,0
352,288,97754,1,0
416,288,98158,1,0
96,192,99685,5,0
32,224,100044,1,0
64,288,100463,1,0
128,256,100823,1,0
160,320,101227,1,0
224,288,101586,2,4,B|256:192,2,93.75
288,320,102394,1,0
288,256,102754,2,0,B|352:192,1,75
384,160,103158,1,0
384,128,103338,1,0
384,96,103517,1,0
320,96,103742,1,0
320,96,103832,1,0
320,96,103921,1,0
256,128,104146,1,0
192,160,104326,1,0
128,192,104505,1,0
64,224,104685,1,0
256,192,104864,12,0,105897
256,192,106257,5,0
192,160,106661,1,0
160,96,107020,1,0
224,64,107424,1,0
160,96,107784,2,4,B|192:192,2,93.75
224,128,108592,1,0
256,192,108951,2,0,B|352:192,1,93.75
256,256,109355,1,0
288,288,109535,1,0
320,320,109715,1,0
384,288,109939,1,0
384,288,110029,1,0
384,288,110119,1,0
384,224,110299,1,0
256,192,110523,12,0,112050
96,192,112454,5,0
128,128,112814,1,0
160,192,113218,1,0
128,256,113622,1,0
224,256,113981,2,4,B|224:160,2,93.75
288,192,114790,1,0
288,256,115149,2,0,B|224:320,1,75
160,320,115508,1,0
160,256,115733,1,0
160,192,115957,1,0
160,128,116137,1,0
160,128,116227,1,0
160,128,116317,1,0
96,192,116496,1,0
160,192,116720,1,0
224,192,116900,1,0
288,192,117079,1,0
256,192,117304,12,0,118247
320,128,118651,5,0
256,160,119010,1,0
224,96,119415,1,0
160,96,119774,1,0
192,160,120178,2,4,B|128:224,2,75
256,160,120942,1,0
320,192,121346,2,0,B|256:256,1,75
256,192,121750,1,0
192,192,121930,1,0
128,192,122109,1,0
192,128,122334,1,0
192,128,122424,1,0
192,128,122513,1,0
256,96,122693,1,0
256,192,122873,12,0,124445
64,64,125599,6,0,B|192:64,1,112.5
256,64,126093,1,4
160,64,127530,6,0,B|160:192,1,112.5
224,128,128024,1,4
