osu file format v6

[General]
AudioFilename: U.N Owen Was Her.mp3
AudioLeadIn: 0
PreviewTime: 30360
Countdown: 1
SampleSet: Soft
StackLeniency: 0.7
Mode: 0
LetterboxInBreaks: 1

[Editor]
DistanceSpacing: 0.800000011920929
BeatDivisor: 4
GridSize: 16

[Metadata]
Title:U.N Owen Was Her
Artist:ZUN
Creator:Crimson_SoulZ
Version:Two of a Kind
Source:Touhou Project 06 ~ the Embodiment of Scarlet Devil
Tags:flandre scarlet Daiyousei

[Difficulty]
HPDrainRate:5
CircleSize:6
OverallDifficulty:8
SliderMultiplier:1.4
SliderTickRate:1

[Events]
//Background and Video events
0,0,"Konachan.com - 66172 flandre_scarlet tagme touhou.jpg"
//Break Periods
//Storyboard Layer 0 (Background)
//Storyboard Layer 1 (Fail)
//Storyboard Layer 2 (Pass)
//Storyboard Layer 3 (Foreground)
//Storyboard Sound Samples
//Background Colour Transformations
3,100,223,0,0

[TimingPoints]
2490,387.096774193548,4,2,0,100,1,0
23393,-100,4,2,0,0,0,0
23844,-100,4,2,0,100,0,0
29586,-100,4,2,0,0,0,0
29973,-100,4,2,0,100,0,0
35780,-100,4,2,0,0,0,0
35828,-100,4,2,0,10,0,0
35877,-100,4,2,0,20,0,0
35925,-100,4,2,0,30,0,0
35973,-100,4,2,0,40,0,0
36022,-100,4,2,0,50,0,0
36070,-100,4,2,0,70,0,0
36119,-100,4,2,0,90,0,0
36167,-100,4,2,0,100,0,0
41199,-100,4,2,0,0,0,0
42360,-100,4,2,0,100,0,0
48167,-100,4,2,0,0,0,0
48215,-100,4,2,0,10,0,0
48264,-100,4,2,0,20,0,0
48312,-100,4,2,0,30,0,0
48360,-100,4,2,0,40,0,0
48409,-100,4,2,0,50,0,0
48457,-100,4,2,0,70,0,0
48506,-100,4,2,0,90,0,0
48554,-100,4,2,0,100,0,0
55135,400,4,2,0,100,1,0
61522,394.736842105263,4,2,0,100,1,0
74153,387.096774193548,4,2,0,100,1,0
91185,-50,4,2,0,100,0,0
91765,-100,4,2,0,100,0,0
97378,-50,4,2,0,100,0,0
97959,-100,4,2,0,100,0,0
98153,-100,4,2,0,0,0,0
99023,-100,4,2,0,100,0,0
105120,-100,4,2,0,0,0,0
105169,-100,4,2,0,10,0,0
105217,-100,4,2,0,20,0,0
105265,-100,4,2,0,30,0,0
105314,-100,4,2,0,40,0,0
105362,-100,4,2,0,50,0,0
105411,-100,4,2,0,60,0,0
105459,-100,4,2,0,80,0,0
105507,-100,4,2,0,100,0,0
117507,-100,4,2,0,0,0,0
117556,-100,4,2,0,10,0,0
117604,-100,4,2,0,20,0,0
117652,-100,4,2,0,30,0,0
117701,-100,4,2,0,40,0,0
117749,-100,4,2,0,50,0,0
117798,-100,4,2,0,61,0,0
117846,-100,4,2,0,80,0,0
117894,-100,4,2,0,100,0,0

[Colours]
Combo1 : 239,16,78
Combo2 : 255,0,0
Combo3 : 233,129,225
Combo4 : 231,24,210

[HitObjects]
128,192,2490,2,0,B|128:256,11,35,0|0|0|0|2|0|8|8|0|0|0|0
160,256,3651,2,0,B|272:256,2,105
384,192,4425,6,0,B|384:256,11,35,0|0|8|8|2|0|0|0|0|0|8|0
352,256,5586,2,8,B|240:256,2,105
128,192,6360,6,0,B|128:128,11,35,0|0|0|0|2|0|8|8|0|0|0|0
160,128,7522,2,0,B|272:128,2,105
384,192,8296,6,0,B|384:128,11,35,0|0|8|8|2|0|0|0|0|0|8|0
352,128,9457,2,8,B|240:128,2,105
256,192,10231,6,0,B|301:237,11,35,0|0|0|0|2|0|8|8|0|0|0|0
256,128,11393,2,0,B|368:128,2,105
256,192,12167,6,0,B|206:150,11,35,0|0|8|8|2|0|0|0|0|0|8|0
256,256,13328,2,8,B|144:256,2,105
256,192,14102,6,0,B|301:146,11,35,0|0|0|0|2|0|8|8|0|0|0|0
192,192,15264,2,0,B|192:304,2,105
256,192,16038,6,0,B|210:146,11,35,2|2|2|2|2|0|0|2|0|2|0|2
320,192,17199,2,0,B|320:80,2,105,10|8|8
224,192,17973,2,0,B|80:192,1,140
416,48,18748,2,0,B|416:208,1,140
416,320,19522,2,0,B|256:320,1,140
96,320,20296,2,0,B|96:160,1,140
112,48,21070,6,0,B|192:48,1,70
256,48,21457,2,0,B|336:48,1,70
352,112,21844,2,0,B|400:176,1,70
368,240,22231,2,0,B|304:304,1,70
256,272,22619,6,0,B|176:272,1,70
144,224,23006,2,0,B|80:160,1,70
96,112,23393,2,0,B|96:80,5,23.3333333333333
208,192,24167,6,0,B|352:192,1,140,4|0
304,256,24941,2,0,B|160:256,1,140,2|0
96,256,25715,2,0,B|96:112,2,140,0|0|2
96,320,26877,1,8
240,320,27264,6,0,B|288:256,1,70
368,272,27651,2,0,B|448:272,1,70
432,208,28038,2,0,B|432:128,1,70
368,144,28425,2,0,B|288:144,1,70
208,144,28812,1,0
144,256,29199,1,0
64,144,29586,2,0,B|64:176,5,23.3333333333333
80,64,30360,6,0,B|130:81|171:49|224:64,1,140,8|0
432,320,31135,2,0,B|381:302|340:334|288:320,1,140,8|0
80,192,31909,1,8
432,192,32296,2,0,B|352:192,2,70,0|0|8
256,112,33070,1,10
160,192,33457,6,0,B|144:223|160:272,3,70,8|0|0|0
352,192,34231,1,8
256,288,34425,2,0,B|256:240,2,35
256,112,34812,1,0
304,32,35006,2,0,B|304:128,1,70,8|0
208,282,35393,2,0,B|208:352,1,70,8|0
336,352,35780,2,0,B|360:352,8,17.5,0|0|0|0|0|0|0|0|2
416,80,36554,1,0
144,80,36941,1,0
272,336,37328,1,0
272,64,37715,1,0
32,208,38102,1,0
304,208,38489,2,0,B|208:208,1,70
234,208,38877,1,0
112,64,39264,1,0
416,48,39651,2,0,B|416:144,1,70
352,112,40038,2,0,B|272:112,1,70
224,112,40425,2,0,B|224:192|224:208,1,70
224,182,40715,1,0
224,182,40812,1,0
224,182,40909,1,0
336,288,41199,6,0,B|368:288,17,23.3333333333333
128,368,42748,6,0,B|145:317|113:276|128:224,1,140,8|0
384,16,43522,2,0,B|366:66|398:107|384:160,1,140,8|0
256,368,44296,1,8
256,16,44683,2,0,B|256:96,2,70,0|0|8
176,192,45457,1,10
256,288,45844,6,0,B|287:303|336:288,3,70,8|0|0|0
256,96,46619,1,8
352,192,46812,2,0,B|304:192,2,35
176,192,47199,1,0
96,144,47393,2,0,B|192:144,1,70,8|0
346,240,47780,2,0,B|416:240,1,70,8|0
416,112,48167,2,0,B|416:88,8,17.5,0|0|0|0|0|0|0|0|2
80,32,48941,5,8
160,112,49328,1,0
224,208,49715,1,0
288,304,50102,1,0
288,192,50489,1,8
288,80,50877,2,0,B|288:0,2,70
288,192,51651,1,0
64,32,52038,2,0,B|64:112,1,70
128,96,52425,2,0,B|224:96,1,70
192,160,52812,2,0,B|192:256,1,70
192,230,53102,1,0
192,230,53199,1,0
192,230,53296,1,0
256,208,53586,12,0,54748
304,192,55135,6,0,B|368:192,11,46.6666666666667,2|2|2|0|0|0|2|2|2|0|0|0
208,192,56734,2,0,B|144:192,11,46.6666666666667,2|2|2|0|0|0|2|2|2|0|0|0
256,240,58334,6,0,B|256:304,11,46.6666666666667,2|2|2|0|0|0|2|2|2|0|0|0
256,144,59934,2,0,B|256:80,11,46.6666666666667,2|2|2|0|0|0|2|2|2|0|0|0
384,80,61522,6,0,B|448:80,11,46.6666666666667,0|0|0|8|0|0|0|0|0|8|0|0
128,304,63100,2,0,B|64:304,6,46.6666666666667,0|0|0|8|0|8|0
288,304,64285,1,0
384,304,64482,2,4,B|448:304,1,46.6666666666667
384,256,64679,6,0,B|448:256,11,46.6666666666667,0|0|8|0|0|8|0|0|8|0|8|8
384,128,66258,2,2,B|320:128,6,46.6666666666667,2|2|2|2|2|2|6
256,128,67443,5,0
128,128,67837,6,0,B|64:128,11,46.6666666666667,0|0|0|8|0|0|0|0|0|8|0|0
128,176,69416,2,0,B|192:176,6,46.6666666666667,0|0|0|8|0|8|12
128,216,70600,1,0
128,256,70798,2,4,B|192:256,1,46.6666666666667
368,192,70995,6,0,B|432:192,11,46.6666666666667,0|0|8|0|0|8|0|0|8|0|0|8
144,192,72574,2,0,B|80:192,5,46.6666666666667,0|0|8|0|0|8
256,192,73364,2,2,B|278:245|240:280|256:320,2,116.666666666667,10|2|10
192,96,74153,6,0,B|251:20|265:85|264:127|355:75|399:60|319:136|387:167|464:128,4,280,0|8|0|8|0
208,160,77443,2,0,B|272:160,1,35
288,160,77830,2,0,B|288:208,1,35
288,240,78217,2,0,B|352:240,1,35
368,240,78604,2,0,B|368:304,1,35
368,320,78991,2,0,B|304:304,1,35
304,288,79378,2,0,B|288:240,1,35
288,208,79765,2,0,B|352:192,1,35
352,160,80152,2,0,B|384:112,1,35
256,208,80346,12,0,81120
256,192,81507,5,8
256,208,81894,12,0,82669
256,192,83056,5,8
256,144,83443,2,0,B|320:144,2,35
304,192,83830,2,2,B|304:256,2,35
256,240,84217,2,0,B|192:240,2,35
208,192,84604,2,2,B|208:128,2,35
291,144,84991,2,0,B|256:144,2,35
208,157,85378,2,2,B|208:192,2,35
221,240,85765,2,0,B|256:240,4,35,0|0|0|2|2
176,240,86346,1,2
128,192,86540,6,0,B|128:128|176:96|208:96|224:112,1,140
352,128,87314,2,0,B|384:160|416:192|400:224|384:224|384:224,1,140
224,272,88088,2,0,B|128:240|144:176|176:160,1,140
256,192,88862,1,0
256,192,89249,5,8
192,112,89636,2,2,B|256:80|320:112|320:112|336:128,1,140
320,272,90411,2,2,B|256:304|192:272|192:272|176:256,1,140
336,112,91185,2,0,B|224:192|256:224|288:192|192:96,2,210
256,208,91959,12,4,92346
80,96,92733,6,0,B|160:96,1,70
192,160,93120,2,0,B|256:224,1,70
192,240,93507,2,0,B|128:304,1,70
208,304,93894,2,0,B|288:304,1,70
352,304,94282,6,0,B|352:224,1,70
416,240,94669,2,0,B|496:240,1,70
448,192,95056,1,0
256,192,95443,5,8
336,128,95830,2,2,B|368:192|336:256|336:256|320:272,1,140
176,256,96604,2,2,B|144:192|176:128|176:128|192:112,1,140
336,272,97378,6,0,B|256:160|224:192|256:224|352:128,2,210
256,208,98152,12,4,98927
442,304,99701,6,0,B|391:291|353:327|299:316,1,140,8|0
69,79,100475,2,0,B|121:93|159:57|212:67,1,140,8|0
431,176,101249,1,8
80,207,101636,2,0,B|160:200,2,70,0|0|8
262,271,102411,1,10
351,183,102798,6,0,B|364:151|344:103,3,70,8|0|0|0
160,200,103572,1,8
247,96,103765,2,0,B|251:144,2,35
262,271,104152,1,0
222,355,104346,2,0,B|213:259,1,70,8|0
295,98,104733,2,0,B|289:28,1,70,8|0
162,39,105120,2,0,B|138:41,8,17.5,0|0|0|0|0|0|0|0|2
465,13,105894,5,0
271,367,106282,1,4
18,52,106669,1,0
271,367,107056,1,4
242,32,107443,1,0
144,201,107830,2,2,B|48:210,2,70,2|2|0
367,182,108604,1,4
256,192,108991,5,0
226,226,109185,1,0
285,157,109378,1,2
197,261,109572,1,2
314,122,109765,1,0
325,250,109959,2,2,B|360:279,2,35,2|2|10
186,133,110346,1,0
256,208,110540,12,0,111701
432,64,112088,5,0
288,304,112475,1,0
80,80,112862,1,0
256,304,113249,1,0
256,32,113636,5,8
256,304,114023,2,0,B|263:384,2,70,0|0|8
400,64,114798,1,10
128,96,115185,1,0
208,64,115378,1,0
256,144,115572,1,0
272,240,115765,5,0
368,240,115959,1,8
464,224,116152,2,0,B|512:220,2,35
368,240,116540,1,0
272,256,116733,2,0,B|176:265,1,70,8|0
272,192,117120,2,0,B|202:198,1,70,8|0
192,112,117507,2,0,B|194:136,8,17.5,0|0|0|0|0|0|0|0|2
336,224,118282,5,8
192,112,118669,1,0
336,224,119056,1,0
192,112,119443,1,0
192,288,119830,1,8
368,288,120217,2,0,B|361:208,2,70
352,112,120991,1,0
176,112,121378,5,8
128,192,121572,1,0
224,192,121765,1,0
176,112,121959,1,0
128,192,122152,1,8
80,272,122346,2,0,B|50:309,2,35
176,272,122733,1,0
256,208,122927,12,0,124088
384,192,124475,6,0,B|384:128,11,35,0|0|0|0|2|0|8|8|0|0|0|0
352,128,125636,2,0,B|240:128,2,105
128,192,126411,6,0,B|128:128,11,35,0|0|8|8|2|0|0|0|0|0|8|0
160,128,127572,2,8,B|272:128,2,105,12|12|12
