osu file format v6

[General]
AudioFilename: U.N Owen Was Her.mp3
AudioLeadIn: 0
PreviewTime: -1
Countdown: 1
SampleSet: Soft
StackLeniency: 0.7
Mode: 0
LetterboxInBreaks: 1

[Editor]
DistanceSpacing: 0.800000011920929
BeatDivisor: 4
GridSize: 8

[Metadata]
Title:U.N Owen Was Her
Artist:ZUN
Creator:Crimson_SoulZ
Version:Taboo
Source:Touhou 06 - Embodiment Of Scarlet Devil
Tags:Touhou Flandre Scarlet theme

[Difficulty]
HPDrainRate:4
CircleSize:5
OverallDifficulty:7
SliderMultiplier:2
SliderTickRate:2

[Events]
//Background and Video events
0,0,"Konachan.com - 66432 blonde_hair dress flandre_scarlet hat moon night red_eyes ribbons short_hair touhou vampire wings.jpg"
//Break Periods
//Storyboard Layer 0 (Background)
//Storyboard Layer 1 (Fail)
//Storyboard Layer 2 (Pass)
//Storyboard Layer 3 (Foreground)
//Storyboard Sound Samples
//Background Colour Transformations
3,100,163,162,255

[TimingPoints]
2491,387.096774193548,4,2,0,100,1,0
17974,-200,4,2,0,100,0,0
21071,-100,4,2,0,100,0,0
23394,-200,4,2,0,100,0,0
23781,387.096774193548,4,2,0,100,1,0

[Colours]
Combo1 : 180,0,0
Combo2 : 55,55,55
Combo3 : 180,0,0
Combo4 : 255,255,255

[HitObjects]
112,64,2491,2,0,B|176:64,9,50
280,64,3651,2,0,B|280:224,2,150
440,320,4426,6,0,B|376:320,9,50,0|0|0|0|0|0|0|0|0|0
272,320,5587,2,0,B|272:160,2,150
416,48,6361,6,0,B|352:48,9,50
256,56,7523,2,0,B|256:216,2,150
88,336,8297,6,0,B|152:336,9,50
248,336,9458,2,0,B|248:176,2,150
104,56,10232,6,0,B|104:120,9,50
216,56,11393,2,0,B|216:216,2,150
344,168,12167,6,0,B|344:232,9,50
232,168,13329,2,0,B|232:328,2,150
88,336,14103,6,0,B|88:272,9,50
200,336,15265,2,0,B|200:176,2,150
112,96,16039,6,0,B|112:160,9,50
264,152,17201,2,0,B|264:312,2,150
88,64,17974,6,0,C|176:56|160:112|240:112,1,200
360,72,19523,2,0,C|296:72|296:144|224:144,1,200
408,56,21071,2,0,B|352:56|352:56|352:112,1,100
352,100,21458,2,0,B|352:168|352:168|296:168,1,100
319,168,21845,6,0,B|256:168|256:168|256:120,1,100
256,131,22232,2,0,B|256:72|256:72|200:72,1,100
215,72,22619,2,0,B|112:72,1,100
115,72,23006,2,0,B|120:200,1,100
120,176,23394,2,0,B|184:176|192:192|192:224|184:240,1,100,0|0
344,264,24168,6,0,B|264:264|264:264|264:336|264:336|200:336,1,200
56,336,24942,2,0,B|56:280|56:280|8:280|8:280|8:232|8:232|64:232,1,200
216,232,25716,2,0,B|320:232|320:232|320:128,1,200
480,144,26490,2,0,B|376:144|376:144|376:256,1,200
144,296,27264,6,0,B|216:296,2,50
192,232,27651,2,0,B|136:232,2,50
144,168,28039,2,0,B|200:168,2,50
192,104,28426,2,0,B|128:104,2,50
192,24,28813,2,0,B|416:24,1,200
256,208,29587,12,0,30361
112,80,30748,5,0
272,80,31135,1,0
440,80,31522,1,0
352,216,31910,1,0
256,344,32297,1,0
200,288,32490,1,0
152,224,32684,1,0
144,64,33071,1,0
432,304,33458,6,0,B|312:304,1,100
328,224,33845,2,0,B|328:104,1,100
328,40,34232,2,0,B|200:40,1,100
228,40,34523,1,0
228,40,34620,1,0
228,40,34716,1,0
112,40,35006,1,0
112,120,35200,1,0
112,40,35393,1,0
112,120,35587,1,0
256,208,35780,12,0,36555
104,320,36942,5,0
408,64,37329,1,0
104,64,37716,1,0
416,320,38104,1,0
416,160,38490,1,0
336,160,38684,1,0
256,160,38877,1,0
256,320,39264,1,0
96,320,39651,2,0,B|96:192,1,100
176,224,40039,2,0,B|296:224,1,100
360,224,40426,2,0,B|360:112,1,100
360,124,40716,1,0
360,124,40813,1,0
360,124,40910,1,0
240,120,41135,2,0,B|184:120,24,33.3333333333333
240,280,43135,1,0
352,168,43522,1,0
240,280,43910,1,0
128,160,44297,1,0
240,280,44684,2,0,B|240:168,2,100
240,280,45458,1,0
424,168,45845,2,0,B|312:168,1,100
256,64,46232,2,0,B|256:176,1,100
88,168,46619,2,0,B|200:168,1,100
188,168,46909,1,0
188,168,47006,1,0
188,168,47103,1,0
352,160,47393,2,0,B|352:272,4,100
80,48,48555,1,0
456,48,48942,1,0
464,344,49328,1,0
80,48,49716,1,0
72,344,50103,1,0
264,176,50490,1,0
424,176,50877,2,0,B|424:320,2,100
424,336,51651,1,0
80,336,52039,2,0,B|80:224|88:216,1,100
160,240,52426,2,0,B|288:240,1,100
344,240,52813,2,0,B|344:104,1,100
344,140,53103,1,0
344,140,53200,1,0
344,140,53297,1,0
256,208,53587,12,0,55135
112,48,55522,5,0
432,40,55910,1,0
432,360,56297,1,0
112,360,56684,1,0
96,40,57071,1,0
432,40,57458,1,0
440,344,57845,1,0
112,224,58328,2,0,B|112:-8,1,200
432,8,59104,2,0,B|432:216,1,200
432,336,59876,2,0,B|208:336,1,200
80,328,60651,2,0,B|80:112,1,200,0|0
80,48,61522,2,0,B|176:48,18,66.6666666666667
400,56,64426,2,0,B|400:136,1,66.6666666666667
304,120,64684,2,0,B|224:120,18,66.6666666666667
80,328,67458,2,0,B|80:232,1,66.6666666666667
80,152,67716,1,0
408,152,67846,2,0,B|408:232,18,66.6666666666667
96,304,70748,2,0,B|104:224,1,66.6666666666667
224,120,70942,2,0,B|304:120,17,66.6666666666667
256,208,73393,12,0,73522
256,208,73652,12,0,73781
256,208,73974,12,0,74038
392,48,74200,6,0,C|448:56|464:96|464:96|448:112|432:120,1,150
328,240,74877,2,0,C|296:288|296:288|168:224,1,200
64,136,75651,2,0,C|144:64|144:64|200:112,1,200
328,208,76426,2,0,C|328:320|328:320|328:248,1,200
264,296,77200,2,0,B|192:296,2,50
216,232,77587,2,0,B|296:232,2,50
264,160,77974,2,0,B|200:160,2,50
216,88,78361,2,0,B|280:88,2,50
216,8,78748,2,0,B|296:8,2,50
264,80,79135,2,0,B|192:80,2,50
224,152,79522,2,0,B|320:152,2,50
272,216,79910,2,0,B|208:216,2,50
256,208,80297,12,0,81071
224,152,81362,5,0
224,152,81651,1,0
256,208,81845,12,0,82619
224,152,82910,5,0
224,152,83201,1,0
56,64,83490,1,0
56,64,83587,1,0
56,64,83684,1,0
136,64,83877,2,0,L|136:128,2,50
432,64,84361,1,0
432,64,84458,1,0
432,64,84555,1,0
352,64,84748,2,0,L|352:152,2,50
448,304,85232,1,0
448,304,85329,1,0
448,304,85426,1,0
368,304,85619,2,0,L|368:240,2,50
288,304,85910,1,0
288,304,86007,1,0
288,304,86104,1,0
208,304,86201,2,0,L|208:224,2,50
