osu file format v12

[General]
AudioFilename: Touhou Imperishiable Night.mp3
AudioLeadIn: 0
PreviewTime: 110226
Countdown: 1
SampleSet: Normal
StackLeniency: 0.4
Mode: 0
LetterboxInBreaks: 1
EpilepsyWarning: 1
WidescreenStoryboard: 1

[Editor]
DistanceSpacing: 1.1
BeatDivisor: 4
GridSize: 8

[Metadata]
Title:Touhou Eiyashou ~ Imperishable Night Compilation
TitleUnicode:東方永夜抄 ~ Imperishable Night Compilation
Artist:ZUN
ArtistUnicode:ZUN
Creator:Innocentius
Version:Marathon
Source:Touhou
Tags:Touhou Marathon Compilation Imperishable Night ZUN sm17600532 名波
BeatmapID:305919
BeatmapSetID:119087

[Difficulty]
HPDrainRate:7
CircleSize:4
OverallDifficulty:8
ApproachRate:9
SliderMultiplier:1.4
SliderTickRate:1

[Events]
//Background and Video events
0,0,"ImperishableNight.jpg",0,0
//Break Periods
2,76820,80520
2,308420,317220
2,366020,374820
2,435620,444120
2,493145,499620
//Storyboard Layer 0 (Background)
//Storyboard Layer 1 (Fail)
//Storyboard Layer 2 (Pass)
//Storyboard Layer 3 (Foreground)
//Storyboard Sound Samples
//Background Colour Transformations
3,100,163,162,255

[TimingPoints]
4620,300,4,1,0,74,1,0
27420,-100,4,1,0,74,0,0
38220,-100,4,1,0,74,0,0
57420,-100,4,1,0,74,0,0
98220,-100,4,1,0,74,0,0
110220,-100,4,1,0,74,0,1
129420,-100,4,1,0,74,0,0
139020,-58.8235294117647,4,1,0,74,0,0
182220,-58.8235294117647,4,1,0,74,0,0
201420,-100,4,1,0,74,0,0
213420,-58.8235294117647,4,1,0,74,0,1
230220,-100,4,1,0,74,0,0
244620,300,3,1,0,74,1,0
287820,300,4,1,0,74,1,0
290220,-100,4,1,0,74,0,0
308220,-100,4,1,0,74,0,0
325020,-100,4,1,0,74,0,1
352620,-100,4,1,0,74,0,0
356220,-100,4,1,0,74,0,1
365820,-100,4,1,0,74,0,0
416220,-100,4,1,0,74,0,1
435420,-100,4,1,0,74,0,0
445020,-100,4,1,0,74,0,0
454620,-100,4,1,0,74,0,1
473820,-100,4,1,0,74,0,0
493020,-100,4,1,0,74,0,0
502620,-100,4,1,0,74,0,1
525420,-100,4,1,0,74,0,0
536020,461.538461538462,4,1,0,74,1,0

[Colours]
Combo1 : 9,80,247
Combo2 : 153,0,0
Combo3 : 251,43,245
Combo4 : 242,24,57
Combo5 : 255,192,0
Combo6 : 149,153,172
Combo7 : 219,223,253
Combo8 : 243,243,33

[HitObjects]
176,112,27420,1,4,0:0:0:0:
328,112,27720,1,4,0:0:0:0:
256,248,28020,2,8,L|256:288,7,35
104,80,28920,5,0,0:0:0:0:
128,96,28995,1,0,0:0:0:0:
152,112,29070,1,0,0:0:0:0:
72,192,29220,1,0,0:0:0:0:
104,192,29295,1,0,0:0:0:0:
136,192,29370,1,0,0:0:0:0:
80,304,29520,1,0,0:0:0:0:
112,288,29595,1,0,0:0:0:0:
144,272,29670,1,0,0:0:0:0:
400,344,30120,1,0,0:0:0:0:
376,320,30195,1,0,0:0:0:0:
352,304,30270,1,0,0:0:0:0:
390,130,30420,2,8,P|411:189|352:208,2,140
256,288,31320,6,0,L|256:328,2,35
160,192,31620,2,0,L|120:192,2,35
256,80,31920,2,0,L|256:40,2,35
376,192,32520,6,0,L|416:192,2,35
256,192,32820,2,8,P|216:216|256:280,1,140
256,96,33420,6,0,P|272:56|248:40,1,70
128,96,33720,2,0,P|80:136|128:168,1,140
120,264,34320,1,0,0:0:0:0:
184,264,34470,2,0,L|264:264,2,70
184,184,34920,1,0,0:0:0:0:
256,72,35220,2,8,P|224:48|216:72,3,70
96,192,36120,6,0,P|96:272|152:280,1,140
256,304,36720,2,0,L|176:304,1,70
256,224,37020,1,0,0:0:0:0:
256,104,37320,5,0,0:0:0:0:
256,192,37620,12,0,38220,0:0:0:0:
80,88,38520,5,0,0:0:0:0:
80,184,38670,1,0,0:0:0:0:
80,280,38820,2,0,P|112:344|200:344,2,140
224,240,39720,1,0,0:0:0:0:
296,168,39870,1,0,0:0:0:0:
392,136,40020,2,0,P|296:72|264:64,1,140
144,166,40620,6,0,L|144:96,2,70
144,248,41070,2,0,L|144:328,2,70
216,208,41520,1,0,0:0:0:0:
296,208,41670,1,0,0:0:0:0:
400,256,41820,5,8,0:0:0:0:
368,360,41970,1,0,0:0:0:0:
456,296,42120,1,8,0:0:0:0:
344,296,42270,1,0,0:0:0:0:
432,360,42420,1,8,0:0:0:0:
264,320,42720,6,0,P|224:288|232:264,1,70
144,208,43020,1,8,0:0:0:0:
232,152,43320,2,0,L|184:80,1,70
328,152,43620,2,0,P|384:96|464:104,1,140
424,192,44070,1,8,0:0:0:0:
400,216,44145,1,8,0:0:0:0:
376,248,44220,1,8,0:0:0:0:
456,304,44520,2,0,P|488:336|480:352,1,70
368,328,44820,2,8,P|288:360|240:344,1,140
320,232,45420,6,0,L|256:272,1,70
280,176,45720,2,0,L|216:216,1,70
240,120,46020,2,0,L|176:160,1,70
200,64,46320,2,4,L|80:136,1,140
328,192,47520,5,0,0:0:0:0:
328,192,47595,1,0,0:0:0:0:
328,192,47670,1,0,0:0:0:0:
328,192,47745,1,0,0:0:0:0:
328,192,47820,2,0,P|368:216|368:240,1,70
264,224,48120,2,0,P|216:192|232:176,1,70
320,264,48420,2,8,L|360:336,3,70
192,312,49020,6,0,P|208:256|144:200,1,140
136,272,49470,1,0,0:0:0:0:
72,232,49620,2,8,P|56:288|120:344,1,140
288,344,50220,5,8,0:0:0:0:
312,320,50370,1,0,0:0:0:0:
336,296,50520,1,8,0:0:0:0:
240,296,50670,1,0,0:0:0:0:
264,272,50820,1,8,0:0:0:0:
272,240,50970,1,0,0:0:0:0:
184,256,51120,2,8,P|208:224|200:192,1,70
328,176,51420,6,0,L|384:224,1,70
368,112,51720,2,0,L|304:56,1,70
240,168,52020,1,0,0:0:0:0:
128,88,52320,6,0,P|152:128|136:152,1,70
64,144,52620,1,0,0:0:0:0:
64,272,52920,2,0,P|104:312|120:304,1,70
136,248,53220,1,0,0:0:0:0:
304,224,53670,5,0,0:0:0:0:
304,224,53745,1,0,0:0:0:0:
304,224,53820,2,0,P|320:296|256:320,1,140
248,256,54270,1,0,0:0:0:0:
184,216,54420,2,0,P|128:136|160:120,1,140
200,152,55020,6,0,L|280:112,1,70,0|0,0:0|0:0,0:0:0:0:
192,72,55320,1,0,0:0:0:0:
288,48,55470,2,0,L|344:90,1,70
296,176,55770,1,0,0:0:0:0:
336,256,55920,1,0,0:0:0:0:
256,192,56220,12,0,57420,0:0:0:0:
328,88,57720,6,0,L|256:88,1,70
328,160,58020,2,0,L|376:160,2,35
408,224,58320,1,8,0:0:0:0:
472,312,58470,1,8,0:0:0:0:
368,312,58620,2,8,P|312:352|264:312,2,140
152,320,59520,5,0,0:0:0:0:
80,256,59670,1,0,0:0:0:0:
168,208,59820,1,0,0:0:0:0:
168,208,59895,1,0,0:0:0:0:
168,208,59970,1,0,0:0:0:0:
80,136,60120,2,0,L|16:88,2,70
168,128,60720,2,8,L|240:128,1,70
112,56,61020,2,8,P|168:24|232:56,2,140
80,120,61770,6,0,P|80:168|96:176,2,70
40,256,62220,2,8,L|24:296,2,35
128,264,62520,2,8,L|120:304,2,35
216,264,62820,2,0,L|248:328,2,70
296,232,63270,2,0,L|344:288,1,70
216,184,63720,1,0,0:0:0:0:
376,152,64020,6,0,L|264:80,1,105
368,224,64470,2,0,P|416:256|432:296,1,70
296,192,64920,1,0,0:0:0:0:
160,136,65220,6,0,L|104:80,1,70
216,184,65520,1,0,0:0:0:0:
216,184,65670,1,0,0:0:0:0:
224,256,65820,2,0,P|256:272|248:312,1,70
216,184,66120,1,0,0:0:0:0:
216,184,66270,1,0,0:0:0:0:
144,216,66420,2,0,L|112:248,4,35
216,184,67020,1,0,0:0:0:0:
448,320,67320,6,0,P|384:320|384:304,1,70
416,216,67620,2,8,L|448:200,2,35
376,136,67920,2,8,L|312:168,1,70
336,56,68220,2,8,P|280:40|200:64,2,140
264,160,69120,5,0,0:0:0:0:
232,240,69270,1,0,0:0:0:0:
288,328,69420,1,8,0:0:0:0:
288,328,69495,1,8,0:0:0:0:
288,328,69570,1,8,0:0:0:0:
80,296,69720,2,0,P|80:248|96:224,1,70
160,296,70020,1,8,0:0:0:0:
80,296,70320,2,8,P|80:344|96:368,1,70
160,296,70620,1,8,0:0:0:0:
224,184,70920,1,12,0:0:0:0:
96,184,71220,1,4,0:0:0:0:
160,112,71370,6,0,L|160:32,1,70
160,192,71670,2,0,L|160:272,1,70
280,192,72120,1,8,0:0:0:0:
328,288,72420,2,8,L|248:360,1,105
384,232,72870,2,8,L|448:176,1,70
280,224,73320,1,0,0:0:0:0:
336,152,73620,2,0,L|336:48,2,105
200,136,74520,1,0,0:0:0:0:
232,216,74820,2,0,L|168:256,1,70
168,64,75120,2,0,L|240:24,1,70
256,192,75420,12,0,76620,0:0:0:0:
328,160,81120,5,8,0:0:0:0:
328,160,81195,1,8,0:0:0:0:
328,160,81270,1,8,0:0:0:0:
328,160,81345,1,8,0:0:0:0:
328,160,81420,1,8,0:0:0:0:
400,256,81720,2,8,P|377:230|344:224,2,70
296,336,82320,2,8,P|352:344|360:336,2,70
272,232,82920,2,8,P|248:240|240:304,2,70
144,160,83520,1,4,0:0:0:0:
368,328,83820,6,0,L|304:288,1,70
368,248,84120,1,8,0:0:0:0:
368,248,84270,1,8,0:0:0:0:
368,176,84420,2,0,L|432:144,1,70
368,104,84720,1,8,0:0:0:0:
368,104,84870,1,8,0:0:0:0:
296,104,85020,2,0,L|272:24,1,70
224,104,85320,1,8,0:0:0:0:
224,104,85470,1,8,0:0:0:0:
152,104,85620,2,4,P|96:160|112:168,1,140
208,240,86220,5,4,0:0:0:0:
312,200,86520,2,0,L|368:248,1,70
312,320,86820,2,0,L|280:344,2,35
152,352,87120,2,8,L|88:304,1,70
160,192,87420,2,8,P|168:80|272:160,1,280
160,192,88320,6,0,L|104:240,1,70
288,288,88620,1,0,0:0:0:0:
288,288,88695,1,0,0:0:0:0:
288,288,88770,1,0,0:0:0:0:
360,216,88920,2,8,P|352:168|312:168,2,70
240,168,89520,1,8,0:0:0:0:
160,248,89670,1,8,0:0:0:0:
40,200,89820,2,8,P|48:120|96:112,1,140
120,192,90270,1,0,0:0:0:0:
120,192,90420,2,0,L|184:240,3,70
181,129,91020,6,0,L|240:168,2,70
336,88,91620,2,8,P|392:120|400:168,1,105
312,176,92070,1,0,0:0:0:0:
312,176,92220,2,8,L|240:240,2,70
80,200,92820,2,0,P|56:256|88:288,1,105
136,240,93270,2,0,P|224:240|240:344,1,210
160,320,94020,2,0,L|88:344,1,70
248,296,94320,2,0,L|320:272,1,70
256,192,94620,12,0,95820,0:0:0:0:
184,128,96120,6,0,P|128:160|136:176,1,70
176,200,96420,1,0,0:0:0:0:
176,200,96495,1,0,0:0:0:0:
176,200,96570,1,0,0:0:0:0:
328,224,96720,1,0,0:0:0:0:
288,344,96870,1,0,0:0:0:0:
392,272,97020,1,0,0:0:0:0:
264,272,97170,1,0,0:0:0:0:
368,344,97320,1,0,0:0:0:0:
256,192,97470,1,0,0:0:0:0:
152,136,97620,6,4,P|96:136|80:120,1,70
152,56,97920,2,4,P|200:48|240:80,1,70
296,64,98220,6,0,L|384:64,1,70
440,64,98520,2,0,L|440:144|440:152,2,70
352,192,99120,1,0,0:0:0:0:
352,192,99270,1,0,0:0:0:0:
352,192,99420,2,8,L|272:192,1,70
208,192,99720,1,8,0:0:0:0:
176,192,99870,1,0,0:0:0:0:
144,192,100020,1,8,0:0:0:0:
144,112,100170,5,8,0:0:0:0:
224,112,100320,1,8,0:0:0:0:
304,112,100470,1,8,0:0:0:0:
304,184,100620,2,0,P|272:216|256:208,1,70
208,264,100920,2,0,P|240:296|256:288,1,70
336,288,101220,1,0,0:0:0:0:
376,224,101370,1,0,0:0:0:0:
336,160,101520,1,0,0:0:0:0:
256,128,101670,1,0,0:0:0:0:
256,80,101820,2,0,L|200:128,1,70
256,184,102120,2,0,L|312:232,1,70
256,288,102420,1,8,0:0:0:0:
176,288,102570,1,8,0:0:0:0:
96,288,102720,1,8,0:0:0:0:
144,128,103020,5,4,0:0:0:0:
144,280,103320,1,4,0:0:0:0:
256,192,103620,2,0,P|264:144|288:160,2,70
256,40,104070,2,0,L|256:184,1,140
176,184,104520,2,0,L|176:264,2,70
256,248,104970,1,0,0:0:0:0:
256,216,105120,1,0,0:0:0:0:
256,184,105270,1,0,0:0:0:0:
256,192,105420,12,0,107820,0:0:0:0:
256,192,108270,1,4,0:0:0:0:
256,192,108420,1,4,0:0:0:0:
192,120,109020,1,4,0:0:0:0:
312,120,109320,1,4,0:0:0:0:
256,192,109620,1,0,0:0:0:0:
256,192,109770,1,0,0:0:0:0:
256,192,109920,1,0,0:0:0:0:
256,192,110070,1,0,0:0:0:0:
256,80,110220,6,0,L|320:128,1,70
320,128,110520,2,8,L|352:192,1,70
352,192,110820,2,0,L|312:280,1,70
320,256,111120,2,8,L|256:296,1,70
256,296,111420,2,0,L|184:256,1,70
192,256,111720,2,8,L|152:192,1,70
152,192,112020,2,0,L|176:120,1,70
184,120,112320,2,8,L|256:88,1,70
256,96,112620,5,0,0:0:0:0:
320,128,112770,1,0,0:0:0:0:
360,192,112920,1,8,0:0:0:0:
320,256,113070,1,8,0:0:0:0:
256,296,113220,1,0,0:0:0:0:
192,256,113370,1,0,0:0:0:0:
152,192,113520,1,8,0:0:0:0:
192,128,113670,1,8,0:0:0:0:
256,96,113820,1,0,0:0:0:0:
320,128,113970,1,0,0:0:0:0:
360,192,114120,1,8,0:0:0:0:
320,256,114270,1,8,0:0:0:0:
256,296,114420,1,14,0:0:0:0:
192,256,114570,1,14,0:0:0:0:
152,192,114720,1,14,0:0:0:0:
192,128,114870,1,14,0:0:0:0:
256,152,115020,6,0,L|256:232,3,70
288,192,115620,2,8,L|192:192,3,70
256,224,116220,2,0,L|256:152,3,70
216,192,116820,2,8,L|304:192,3,70
256,96,117420,5,8,0:0:0:0:
304,112,117570,1,0,0:0:0:0:
344,144,117720,1,0,0:0:0:0:
360,176,117870,1,0,0:0:0:0:
360,208,118020,1,8,0:0:0:0:
344,248,118170,1,8,0:0:0:0:
304,280,118320,1,0,0:0:0:0:
256,296,118470,1,0,0:0:0:0:
208,280,118620,1,8,0:0:0:0:
168,248,118770,1,0,0:0:0:0:
152,208,118920,1,8,0:0:0:0:
152,176,119070,1,0,0:0:0:0:
168,136,119220,1,8,0:0:0:0:
208,112,119370,1,8,0:0:0:0:
240,104,119520,1,8,0:0:0:0:
272,104,119670,1,8,0:0:0:0:
304,120,119820,6,0,L|336:136,3,35
352,160,120120,2,0,L|352:216,3,35
336,224,120420,2,0,L|312:256,3,35
280,272,120720,2,0,L|240:272,3,35
208,256,121020,2,0,L|168:216,3,35
168,200,121320,2,0,L|168:152,3,35
168,128,121620,2,0,L|192:96,3,35
208,72,121920,2,0,L|264:72,3,35
288,72,122220,6,0,L|240:72,3,35
216,80,122520,2,0,L|184:112,3,35
176,136,122820,2,0,L|176:184,3,35
184,208,123120,2,0,L|216:264,3,35
232,264,123420,2,0,L|280:264,3,35
304,248,123720,2,0,L|336:224,1,35
352,208,123870,2,0,L|384:176,1,35
384,176,124020,2,0,L|384:128,3,35
368,104,124320,2,0,L|312:80,3,35
304,72,124620,5,0,0:0:0:0:
264,64,124695,1,0,0:0:0:0:
224,56,124770,1,0,0:0:0:0:
184,56,124845,1,0,0:0:0:0:
144,64,124920,1,0,0:0:0:0:
112,88,124995,1,0,0:0:0:0:
80,112,125070,1,0,0:0:0:0:
56,136,125145,1,0,0:0:0:0:
40,168,125220,1,0,0:0:0:0:
32,208,125295,1,0,0:0:0:0:
40,248,125370,1,0,0:0:0:0:
64,280,125445,1,0,0:0:0:0:
88,312,125520,1,0,0:0:0:0:
120,328,125595,1,0,0:0:0:0:
152,352,125670,1,0,0:0:0:0:
192,360,125745,1,0,0:0:0:0:
232,360,125820,5,0,0:0:0:0:
264,352,125895,1,0,0:0:0:0:
304,344,125970,1,0,0:0:0:0:
336,328,126045,1,0,0:0:0:0:
368,312,126120,1,0,0:0:0:0:
392,280,126195,1,0,0:0:0:0:
416,248,126270,1,0,0:0:0:0:
424,208,126345,1,0,0:0:0:0:
432,168,126420,1,0,0:0:0:0:
424,128,126495,1,0,0:0:0:0:
400,96,126570,1,0,0:0:0:0:
376,64,126645,1,0,0:0:0:0:
344,48,126720,1,0,0:0:0:0:
304,48,126795,1,0,0:0:0:0:
264,56,126870,1,0,0:0:0:0:
224,64,126945,1,0,0:0:0:0:
184,72,127020,5,0,0:0:0:0:
144,80,127095,1,0,0:0:0:0:
112,104,127170,1,0,0:0:0:0:
96,136,127245,1,0,0:0:0:0:
88,176,127320,1,0,0:0:0:0:
96,216,127395,1,0,0:0:0:0:
120,256,127470,1,0,0:0:0:0:
152,280,127545,1,0,0:0:0:0:
184,296,127620,1,0,0:0:0:0:
216,312,127695,1,0,0:0:0:0:
256,312,127770,1,0,0:0:0:0:
296,304,127845,1,0,0:0:0:0:
328,288,127920,1,0,0:0:0:0:
360,264,127995,1,0,0:0:0:0:
384,240,128070,1,0,0:0:0:0:
408,208,128145,1,0,0:0:0:0:
408,168,128220,1,0,0:0:0:0:
400,128,128295,1,0,0:0:0:0:
376,96,128370,1,0,0:0:0:0:
344,80,128445,1,0,0:0:0:0:
312,64,128520,1,0,0:0:0:0:
280,48,128595,1,0,0:0:0:0:
240,40,128670,1,0,0:0:0:0:
200,48,128745,1,0,0:0:0:0:
160,64,128820,5,4,0:0:0:0:
96,104,128970,1,4,0:0:0:0:
96,184,129120,1,4,0:0:0:0:
144,240,129270,1,4,0:0:0:0:
192,304,129420,6,0,P|256:304|280:240,2,140
360,144,130470,2,0,L|224:48,1,140
168,80,130920,1,0,0:0:0:0:
104,128,131070,1,0,0:0:0:0:
104,208,131220,1,0,0:0:0:0:
104,288,131370,2,0,L|192:288,2,70
104,208,131820,6,0,L|104:56,1,140
272,80,132420,1,8,0:0:0:0:
336,120,132570,1,0,0:0:0:0:
360,192,132720,1,8,0:0:0:0:
320,256,132870,1,0,0:0:0:0:
256,304,133020,1,8,0:0:0:0:
192,256,133170,1,0,0:0:0:0:
152,192,133320,1,8,0:0:0:0:
184,120,133470,1,0,0:0:0:0:
232,64,133620,1,8,0:0:0:0:
312,64,133770,1,8,0:0:0:0:
392,64,133920,1,8,0:0:0:0:
256,192,134220,5,4,0:0:0:0:
256,192,134520,1,12,0:0:0:0:
256,192,134820,1,4,0:0:0:0:
112,192,135270,2,0,L|256:192,1,140
320,192,135720,1,8,0:0:0:0:
360,192,135870,1,8,0:0:0:0:
400,192,136020,1,8,0:0:0:0:
400,112,136170,2,0,P|376:80|344:88,2,70
256,192,136620,12,0,137820,0:0:0:0:
96,64,138720,5,8,0:0:0:0:
96,64,139020,6,0,P|176:96|232:88,1,119.000002269745
248,192,139320,2,0,L|360:152,1,119.000002269745,8|0,0:0|0:0,0:0:0:0:
480,104,139620,1,0,0:0:0:0:
464,224,139845,1,0,0:0:0:0:
368,160,139920,2,0,P|352:224|352:288,1,119.000002269745,8|0,0:0|0:0,0:0:0:0:
350,276,140370,6,0,L|240:328,1,119.000002269745,0|8,0:0|0:0,0:0:0:0:
136,208,140670,1,0,0:0:0:0:
88,360,140820,2,0,L|112:288,1,59.5000011348725
64,272,140970,2,0,L|88:200,1,59.5000011348725
48,176,141120,2,0,L|88:48,1,119.000002269745,8|0,0:0|0:0,0:0:0:0:
464,208,141420,6,0,L|416:384,1,178.500003404617,0|0,0:0|0:0,0:0:0:0:
400,328,141720,2,0,P|344:304|280:320,1,119.000002269745,8|0,0:0|0:0,0:0:0:0:
192,312,142020,2,0,P|280:240|352:232,1,178.500003404617
464,208,142320,2,0,L|416:96,1,119.000002269745,8|0,0:0|0:0,0:0:0:0:
417,98,142770,5,0,0:0:0:0:
376,224,142920,1,8,0:0:0:0:
256,176,143070,1,0,0:0:0:0:
296,56,143220,1,0,0:0:0:0:
272,40,143295,1,0,0:0:0:0:
240,32,143370,1,0,0:0:0:0:
208,32,143445,1,0,0:0:0:0:
176,40,143520,2,0,L|64:112,1,119.000002269745,8|0,0:0|0:0,0:0:0:0:
56,256,143820,6,0,P|160:208|232:224,1,178.500003404617
264,328,144120,1,8,0:0:0:0:
264,328,144270,2,0,P|328:312|368:256,1,119.000002269745
448,160,144645,1,0,0:0:0:0:
448,160,144720,2,0,L|480:288,1,119.000002269745,8|0,0:0|0:0,0:0:0:0:
344,88,145170,6,0,P|280:104|216:96,1,119.000002269745,0|8,0:0|0:0,0:0:0:0:
227,99,145470,1,0,0:0:0:0:
352,192,145620,2,0,P|424:160|456:64,1,178.500003404617
448,160,145920,2,0,L|472:288,1,119.000002269745,8|0,0:0|0:0,0:0:0:0:
360,328,146220,5,0,0:0:0:0:
328,336,146295,1,0,0:0:0:0:
296,328,146370,1,0,0:0:0:0:
264,336,146445,1,0,0:0:0:0:
232,328,146520,2,0,P|168:312|128:256,1,119.000002269745,8|0,0:0|0:0,0:0:0:0:
48,120,146820,1,0,0:0:0:0:
56,152,146895,1,0,0:0:0:0:
264,112,147045,1,0,0:0:0:0:
272,80,147120,1,8,0:0:0:0:
464,120,147270,1,0,0:0:0:0:
464,120,147570,6,0,P|448:216|464:288,2,119.000002269745,0|8|0,0:0|0:0|0:0,0:0:0:0:
440,336,148020,1,2,0:0:0:0:
256,80,148245,1,2,0:0:0:0:
72,336,148470,1,2,0:0:0:0:
72,336,148620,5,2,0:0:0:0:
104,344,148695,1,0,0:0:0:0:
136,352,148770,1,0,0:0:0:0:
168,360,148845,1,0,0:0:0:0:
200,352,148920,1,10,0:0:0:0:
208,320,148995,1,0,0:0:0:0:
216,288,149070,1,0,0:0:0:0:
224,256,149145,1,0,0:0:0:0:
264,232,149220,1,2,0:0:0:0:
296,240,149295,1,0,0:0:0:0:
328,248,149370,1,0,0:0:0:0:
360,256,149445,1,2,0:0:0:0:
416,240,149520,2,0,L|400:168,3,59.5000011348725,8|0|2|0,0:0|0:0|0:0|0:0,0:0:0:0:
424,160,149820,5,0,0:0:0:0:
424,128,149895,1,0,0:0:0:0:
408,104,149970,1,2,0:0:0:0:
384,80,150045,1,0,0:0:0:0:
352,72,150120,1,10,0:0:0:0:
320,80,150195,1,0,0:0:0:0:
296,96,150270,1,0,0:0:0:0:
272,120,150345,1,0,0:0:0:0:
256,112,150420,1,2,0:0:0:0:
240,104,150495,1,0,0:0:0:0:
224,96,150570,1,8,0:0:0:0:
208,88,150645,1,2,0:0:0:0:
192,80,150720,1,8,0:0:0:0:
176,72,150795,1,0,0:0:0:0:
160,64,150870,1,2,0:0:0:0:
144,56,150945,1,0,0:0:0:0:
128,56,151020,6,0,L|64:96,1,59.5000011348725,2|0,0:0|0:0,0:0:0:0:
56,184,151170,2,0,L|112:144,1,59.5000011348725
144,80,151320,2,0,L|80:120,1,59.5000011348725,10|0,0:0|0:0,0:0:0:0:
72,208,151470,2,0,L|128:168,1,59.5000011348725
168,112,151620,2,0,L|104:152,1,59.5000011348725,2|0,0:0|0:0,0:0:0:0:
96,240,151770,2,0,L|152:200,1,59.5000011348725,0|2,0:0|0:0,0:0:0:0:
192,144,151920,2,0,L|128:184,1,59.5000011348725,8|0,0:0|0:0,0:0:0:0:
120,272,152070,2,0,L|176:232,1,59.5000011348725,2|0,0:0|0:0,0:0:0:0:
176,256,152220,5,0,0:0:0:0:
184,272,152295,1,0,0:0:0:0:
192,288,152370,1,2,0:0:0:0:
208,296,152445,1,0,0:0:0:0:
224,304,152520,1,10,0:0:0:0:
240,312,152595,1,0,0:0:0:0:
272,312,152670,1,0,0:0:0:0:
304,304,152745,1,0,0:0:0:0:
336,288,152820,1,2,0:0:0:0:
360,264,152895,1,0,0:0:0:0:
376,232,152970,1,8,0:0:0:0:
384,200,153045,1,2,0:0:0:0:
384,168,153120,1,8,0:0:0:0:
376,136,153195,1,0,0:0:0:0:
352,112,153270,1,2,0:0:0:0:
320,88,153345,1,0,0:0:0:0:
288,80,153420,6,0,P|176:112|112:96,1,178.500003404617
56,168,153720,2,0,L|48:288,1,119.000002269745,8|0,0:0|0:0,0:0:0:0:
56,168,154020,2,0,P|168:200|240:192,1,178.500003404617
328,144,154320,2,0,P|384:120|456:120,1,119.000002269745,8|0,0:0|0:0,0:0:0:0:
448,256,154620,5,0,0:0:0:0:
320,336,154770,2,0,P|296:272|304:200,1,119.000002269745,0|8,0:0|0:0,0:0:0:0:
448,256,155070,1,0,0:0:0:0:
240,376,155220,1,0,0:0:0:0:
216,328,155295,1,0,0:0:0:0:
208,272,155370,1,8,0:0:0:0:
216,216,155445,1,0,0:0:0:0:
248,176,155520,1,8,0:0:0:0:
448,256,155670,1,0,0:0:0:0:
256,192,155820,12,0,158070,0:0:0:0:
72,48,158220,5,0,0:0:0:0:
80,48,158295,1,0,0:0:0:0:
88,48,158370,1,0,0:0:0:0:
96,48,158445,1,0,0:0:0:0:
104,48,158520,1,0,0:0:0:0:
112,48,158595,1,0,0:0:0:0:
120,48,158670,1,0,0:0:0:0:
128,48,158745,1,0,0:0:0:0:
136,48,158820,1,0,0:0:0:0:
144,48,158895,1,0,0:0:0:0:
152,48,158970,1,0,0:0:0:0:
160,48,159045,1,0,0:0:0:0:
168,48,159120,1,0,0:0:0:0:
176,48,159195,1,0,0:0:0:0:
184,48,159270,1,0,0:0:0:0:
192,48,159345,1,0,0:0:0:0:
216,48,159420,5,0,0:0:0:0:
240,48,159495,1,0,0:0:0:0:
264,56,159570,1,0,0:0:0:0:
288,72,159645,1,0,0:0:0:0:
304,88,159720,1,0,0:0:0:0:
312,112,159795,1,0,0:0:0:0:
312,136,159870,1,0,0:0:0:0:
304,160,159945,1,0,0:0:0:0:
288,176,160020,1,0,0:0:0:0:
272,192,160095,1,0,0:0:0:0:
248,200,160170,1,0,0:0:0:0:
224,208,160245,1,0,0:0:0:0:
200,208,160320,1,0,0:0:0:0:
176,208,160395,1,0,0:0:0:0:
152,208,160470,1,0,0:0:0:0:
128,208,160545,1,0,0:0:0:0:
104,208,160620,6,0,L|136:272,3,59.5000011348725
152,272,160920,2,0,L|208:296,3,59.5000011348725
232,296,161220,2,0,L|304:296,3,59.5000011348725
312,288,161520,2,0,L|384:256,3,59.5000011348725
384,280,161820,5,0,0:0:0:0:
392,272,161895,1,0,0:0:0:0:
400,264,161970,1,0,0:0:0:0:
408,256,162045,1,0,0:0:0:0:
416,248,162120,1,0,0:0:0:0:
424,240,162195,1,0,0:0:0:0:
432,232,162270,1,0,0:0:0:0:
440,224,162345,1,0,0:0:0:0:
448,216,162420,1,0,0:0:0:0:
456,208,162495,1,0,0:0:0:0:
464,200,162570,1,0,0:0:0:0:
472,192,162645,1,0,0:0:0:0:
480,184,162720,2,0,L|504:56,1,119.000002269745
408,40,163020,6,0,P|352:64|272:48,1,119.000002269745
304,176,163320,2,0,L|176:136,1,119.000002269745,8|0,0:0|0:0,0:0:0:0:
64,96,163620,1,0,0:0:0:0:
88,224,163770,1,0,0:0:0:0:
192,140,163920,1,8,0:0:0:0:
88,224,164070,1,0,0:0:0:0:
88,224,164220,6,0,P|80:288|40:352,1,119.000002269745
216,160,164520,2,0,L|208:312,1,119.000002269745,8|0,0:0|0:0,0:0:0:0:
209,278,164745,1,0,0:0:0:0:
232,320,164820,2,0,P|296:296|376:312,1,119.000002269745
448,320,165120,2,0,L|408:168,1,119.000002269745,8|0,0:0|0:0,0:0:0:0:
480,64,165420,6,0,L|456:192,1,119.000002269745
320,160,165720,2,0,L|368:328,1,119.000002269745,8|0,0:0|0:0,0:0:0:0:
192,160,166020,2,0,L|144:328,1,119.000002269745
32,64,166320,2,0,L|56:192,1,119.000002269745,8|0,0:0|0:0,0:0:0:0:
128,336,166620,5,0,0:0:0:0:
128,336,166695,1,0,0:0:0:0:
128,336,166770,1,0,0:0:0:0:
232,224,166920,1,8,0:0:0:0:
128,336,167070,2,0,P|80:280|72:224,1,119.000002269745,0|8,0:0|0:0,0:0:0:0:
112,168,167295,2,0,P|176:176|256:144,1,119.000002269745,0|0,0:0|0:0,0:0:0:0:
280,104,167520,2,0,P|360:72|424:96,1,119.000002269745,8|8,0:0|0:0,0:0:0:0:
456,120,167820,6,0,P|480:200|480:280,1,119.000002269745
400,328,168120,2,0,L|336:200,1,119.000002269745,8|0,0:0|0:0,0:0:0:0:
48,128,168420,1,0,0:0:0:0:
21,243,168570,1,0,0:0:0:0:
112,328,168720,1,8,0:0:0:0:
165,221,168870,1,0,0:0:0:0:
165,221,169020,6,0,P|272:248|312:232,1,119.000002269745
376,328,169320,1,8,0:0:0:0:
424,216,169470,1,0,0:0:0:0:
448,224,169545,1,0,0:0:0:0:
448,224,169620,2,0,L|488:80,1,119.000002269745
376,328,169920,2,0,P|312:296|280:232,1,119.000002269745,8|0,0:0|0:0,0:0:0:0:
88,96,170220,6,0,B|176:120|232:96|272:64,1,178.500003404617
328,152,170520,2,0,P|376:104|400:40,1,119.000002269745,8|0,0:0|0:0,0:0:0:0:
328,152,170820,2,0,P|208:192|144:232,1,178.500003404617
88,312,171120,2,0,P|160:344|224:320,1,119.000002269745,8|0,0:0|0:0,0:0:0:0:
312,352,171420,5,0,0:0:0:0:
320,344,171495,1,0,0:0:0:0:
328,336,171570,1,0,0:0:0:0:
336,328,171645,1,0,0:0:0:0:
344,320,171720,1,0,0:0:0:0:
352,312,171795,1,0,0:0:0:0:
360,304,171870,1,0,0:0:0:0:
368,296,171945,1,0,0:0:0:0:
376,288,172020,1,0,0:0:0:0:
384,280,172095,1,0,0:0:0:0:
392,272,172170,1,0,0:0:0:0:
400,264,172245,1,0,0:0:0:0:
408,256,172320,1,0,0:0:0:0:
416,248,172395,1,0,0:0:0:0:
424,240,172470,1,0,0:0:0:0:
432,232,172545,1,0,0:0:0:0:
440,224,172620,6,0,P|432:152|384:88,1,119.000002269745
352,64,172920,2,0,P|288:72|200:48,1,119.000002269745,8|0,0:0|0:0,0:0:0:0:
72,184,173220,1,0,0:0:0:0:
96,40,173370,1,0,0:0:0:0:
208,200,173520,1,8,0:0:0:0:
234,62,173670,1,0,0:0:0:0:
152,120,173820,6,0,P|208:160|264:152,1,119.000002269745,0|0,0:0|0:0,0:0:0:0:
216,256,174120,2,0,P|296:248|360:200,1,119.000002269745,8|0,0:0|0:0,0:0:0:0:
344,208,174345,1,0,0:0:0:0:
344,208,174420,1,0,0:0:0:0:
456,264,174570,2,0,L|440:128,2,119.000002269745,0|8|0,0:0|0:0|0:0,0:0:0:0:
384,328,175020,6,0,P|304:320|232:336,1,119.000002269745
216,256,175320,2,0,L|104:320,1,119.000002269745,8|0,0:0|0:0,0:0:0:0:
296,208,175620,1,0,0:0:0:0:
312,192,175695,1,0,0:0:0:0:
248,112,175845,1,0,0:0:0:0:
232,128,175920,2,0,L|128:224,1,119.000002269745,8|0,0:0|0:0,0:0:0:0:
48,216,176220,6,0,P|88:280|160:296,1,119.000002269745
216,352,176520,2,0,L|360:296,1,119.000002269745,8|0,0:0|0:0,0:0:0:0:
424,344,176820,1,8,0:0:0:0:
424,344,176895,2,0,P|456:280|456:216,1,119.000002269745
408,168,177120,2,0,P|352:184|280:168,1,119.000002269745,8|0,0:0|0:0,0:0:0:0:
400,56,177420,6,0,P|464:72|504:128,1,119.000002269745
408,168,177720,1,8,0:0:0:0:
400,56,177870,1,0,0:0:0:0:
408,168,178020,2,0,P|344:152|304:96,1,119.000002269745
224,48,178320,2,0,P|144:32|96:40,1,119.000002269745,8|0,0:0|0:0,0:0:0:0:
96,216,178620,6,0,P|176:232|224:224,1,119.000002269745,0|0,0:0|0:0,0:0:0:0:
160,128,178920,1,8,0:0:0:0:
168,328,179070,1,0,0:0:0:0:
168,328,179145,1,0,0:0:0:0:
168,328,179220,2,0,P|244:299|280:266,1,119.000002269745,0|0,0:0|0:0,0:0:0:0:
376,328,179520,2,0,L|424:216,1,119.000002269745,8|0,0:0|0:0,0:0:0:0:
392,80,179820,6,0,P|288:120|184:96,1,178.500003404617
120,72,180120,2,0,P|48:64|-24:104,1,119.000002269745,8|0,0:0|0:0,0:0:0:0:
72,176,180420,1,0,0:0:0:0:
24,288,180570,1,0,0:0:0:0:
128,336,180720,2,0,P|192:320|256:320,1,119.000002269745,8|0,0:0|0:0,0:0:0:0:
416,344,181020,6,0,P|488:256|504:184,1,178.500003404617,2|0,0:0|0:0,0:0:0:0:
440,120,181320,2,0,P|328:152|248:120,1,178.500003404617,2|0,0:0|0:0,0:0:0:0:
200,88,181620,2,0,P|96:152|56:216,1,178.500003404617,2|0,0:0|0:0,0:0:0:0:
72,280,181920,2,0,L|200:256,1,119.000002269745,2|0,0:0|0:0,0:0:0:0:
312,320,182220,6,0,L|400:240,2,105.000004005432,0|0|8,0:0|0:0|0:0,0:0:0:0:
200,64,182820,2,0,L|112:144,2,105.000004005432,0|0|8,0:0|0:0|0:0,0:0:0:0:
352,48,183420,5,0,0:0:0:0:
480,120,183570,1,0,0:0:0:0:
424,256,183720,1,8,0:0:0:0:
280,256,183870,1,0,0:0:0:0:
232,120,184020,2,0,P|184:104|112:96,1,105.000004005432,8|8,0:0|0:0,0:0:0:0:
96,104,184245,1,8,0:0:0:0:
64,120,184320,1,8,0:0:0:0:
48,272,184470,1,8,0:0:0:0:
48,272,184620,6,0,L|152:240,1,105.000004005432
240,336,184920,1,8,0:0:0:0:
464,112,185220,2,0,L|360:144,1,105.000004005432
272,48,185520,1,8,0:0:0:0:
128,96,185820,6,0,L|32:144,1,105.000004005432
240,176,186120,2,0,L|336:128,1,105.000004005432,8|0,0:0|0:0,0:0:0:0:
184,296,186420,1,8,0:0:0:0:
312,344,186570,1,8,0:0:0:0:
344,336,186645,1,8,0:0:0:0:
376,320,186720,2,0,L|456:240,1,105.000004005432,8|8,0:0|0:0,0:0:0:0:
416,64,187020,6,0,P|360:80|280:40,1,105.000004005432
232,112,187320,1,8,0:0:0:0:
144,72,187470,1,0,0:0:0:0:
64,120,187620,1,0,0:0:0:0:
144,176,187770,1,0,0:0:0:0:
64,232,187920,1,8,0:0:0:0:
144,280,188070,1,0,0:0:0:0:
64,336,188220,6,0,L|160:272,1,105.000004005432
232,336,188520,2,0,P|256:272|240:208,1,105.000004005432,8|0,0:0|0:0,0:0:0:0:
336,104,188820,1,8,0:0:0:0:
456,208,188970,1,8,0:0:0:0:
464,192,189045,1,8,0:0:0:0:
472,176,189120,1,8,0:0:0:0:
336,104,189270,1,8,0:0:0:0:
240,56,189420,6,0,P|184:56|128:80,1,105.000004005432
96,208,189720,2,0,P|152:208|208:184,1,105.000004005432,8|0,0:0|0:0,0:0:0:0:
304,40,190020,2,0,P|400:120|408:192,1,157.500006008148,2|0,0:0|0:0,0:0:0:0:
384,216,190320,2,0,P|304:232|232:304,1,157.500006008148,2|0,0:0|0:0,0:0:0:0:
192,328,190620,5,2,0:0:0:0:
152,312,190695,1,0,0:0:0:0:
120,280,190770,1,0,0:0:0:0:
112,240,190845,1,0,0:0:0:0:
120,200,190920,1,0,0:0:0:0:
144,168,190995,1,0,0:0:0:0:
184,152,191070,1,0,0:0:0:0:
224,160,191145,1,0,0:0:0:0:
256,184,191220,1,8,0:0:0:0:
296,200,191295,1,0,0:0:0:0:
336,200,191370,1,0,0:0:0:0:
368,176,191445,1,0,0:0:0:0:
392,144,191520,1,8,0:0:0:0:
400,104,191595,1,0,0:0:0:0:
392,64,191670,1,0,0:0:0:0:
360,40,191745,1,0,0:0:0:0:
320,32,191820,5,0,0:0:0:0:
432,24,191970,1,0,0:0:0:0:
320,32,192120,2,0,L|192:40,1,105.000004005432,8|0,0:0|0:0,0:0:0:0:
280,144,192420,1,0,0:0:0:0:
168,152,192570,1,0,0:0:0:0:
280,144,192720,2,0,L|408:136,1,105.000004005432,8|0,0:0|0:0,0:0:0:0:
168,152,193020,6,0,P|128:192|112:264,1,105.000004005432
184,328,193320,1,8,0:0:0:0:
272,256,193470,1,0,0:0:0:0:
360,328,193620,2,0,P|432:296|456:272,1,105.000004005432,8|8,0:0|0:0,0:0:0:0:
450,278,193845,1,0,0:0:0:0:
432,224,193920,2,0,P|408:176|408:112,1,105.000004005432,8|8,0:0|0:0,0:0:0:0:
312,80,194220,6,0,P|248:56|184:64,1,105.000004005432
240,152,194520,1,8,0:0:0:0:
200,16,194670,2,0,P|137:44|98:95,1,105.000004005432
240,152,194970,1,0,0:0:0:0:
64,64,195120,2,0,P|39:128|47:192,1,105.000004005432,8|0,0:0|0:0,0:0:0:0:
120,320,195420,6,0,L|144:208,2,105.000004005432,0|0|8,0:0|0:0|0:0,0:0:0:0:
224,352,195870,2,0,L|336:352,1,105.000004005432,0|8,0:0|0:0,0:0:0:0:
368,336,196170,2,8,L|432:336,2,52.5000020027161
288,232,196470,1,8,0:0:0:0:
224,160,196620,6,0,P|280:144|336:152,1,105.000004005432
288,232,196920,1,8,0:0:0:0:
120,152,197070,2,0,P|148:101|193:67,1,105.000004005432
288,232,197370,1,0,0:0:0:0:
472,128,197520,2,0,P|488:184|480:240,1,105.000004005432,8|0,0:0|0:0,0:0:0:0:
408,336,197820,5,0,0:0:0:0:
304,272,197970,1,0,0:0:0:0:
200,344,198120,1,8,0:0:0:0:
96,272,198270,1,0,0:0:0:0:
32,168,198420,1,8,0:0:0:0:
104,64,198570,1,8,0:0:0:0:
136,72,198645,1,8,0:0:0:0:
168,72,198720,2,0,P|224:56|304:56,1,105.000004005432,8|8,0:0|0:0,0:0:0:0:
448,112,199020,5,0,0:0:0:0:
368,248,199170,1,0,0:0:0:0:
264,128,199320,1,8,0:0:0:0:
368,248,199470,1,0,0:0:0:0:
448,112,199620,2,0,P|480:216|464:264,1,157.500006008148,2|0,0:0|0:0,0:0:0:0:
408,304,199920,2,0,P|320:288|240:312,1,157.500006008148,2|0,0:0|0:0,0:0:0:0:
192,328,200220,5,2,0:0:0:0:
168,336,200295,1,0,0:0:0:0:
144,344,200370,1,0,0:0:0:0:
112,344,200445,1,0,0:0:0:0:
80,336,200520,1,2,0:0:0:0:
56,312,200595,1,0,0:0:0:0:
48,280,200670,1,0,0:0:0:0:
56,248,200745,1,0,0:0:0:0:
72,224,200820,1,2,0:0:0:0:
104,216,200895,1,0,0:0:0:0:
136,224,200970,1,0,0:0:0:0:
168,224,201045,1,0,0:0:0:0:
192,208,201120,1,8,0:0:0:0:
208,184,201195,1,0,0:0:0:0:
208,152,201270,1,8,0:0:0:0:
192,128,201345,1,0,0:0:0:0:
168,112,201420,6,2,P|216:48|400:80,1,280,2|0,0:0|0:0,0:0:0:0:
376,184,202320,2,0,L|344:272,1,70,0|0,0:0|0:0,0:0:0:0:
480,296,202620,6,2,B|456:296|456:296|448:320|448:320|424:304|424:304|416:328|352:352|280:344|240:288,1,280,2|0,0:0|0:0,0:0:0:0:
176,232,203370,1,0,0:0:0:0:
104,288,203520,2,0,L|48:208,1,70,8|0,0:0|0:0,0:0:0:0:
112,96,203820,6,2,B|200:144|296:88|384:144,1,280,2|0,0:0|0:0,0:0:0:0:
464,200,204720,1,8,0:0:0:0:
384,288,205020,6,2,B|360:272|360:272|336:288|336:288|312:272|312:272|288:288|288:288|264:272|264:272|240:288|240:288|216:272|216:272|192:288|192:288|168:272|168:272|144:288,1,280,2|0,0:0|0:0,0:0:0:0:
64,336,205920,1,0,0:0:0:0:
56,248,206070,1,0,0:0:0:0:
88,160,206220,6,2,P|192:184|232:32,1,280,10|0,0:0|0:0,0:0:0:0:
168,104,207120,1,0,0:0:0:0:
168,104,207270,1,0,0:0:0:0:
344,80,207420,6,2,P|336:192|192:280,1,280,10|0,0:0|0:0,0:0:0:0:
136,336,208170,2,0,L|72:304,2,70,0|8|0,0:0|0:0|0:0,0:0:0:0:
224,360,208620,6,2,B|256:344|256:344|288:360|288:360|320:344|320:344|352:360|408:336|416:272|408:224,1,280,2|0,0:0|0:0,0:0:0:0:
480,200,209520,1,8,0:0:0:0:
256,192,209820,12,2,212670,0:0:0:0:
256,192,212970,6,2,L|184:192,2,70
288,272,213420,6,0,P|376:240|400:176,1,119.000002269745
312,192,213720,1,8,0:0:0:0:
248,344,213870,2,0,L|104:320,1,119.000002269745
56,184,214170,2,0,L|128:200,1,59.5000011348725
32,168,214320,2,0,P|32:96|48:48,1,119.000002269745,8|0,0:0|0:0,0:0:0:0:
128,40,214620,5,0,0:0:0:0:
152,64,214695,1,0,0:0:0:0:
184,80,214770,1,0,0:0:0:0:
216,88,214845,1,0,0:0:0:0:
248,88,214920,1,8,0:0:0:0:
280,88,214995,1,0,0:0:0:0:
312,88,215070,1,0,0:0:0:0:
344,72,215145,1,0,0:0:0:0:
368,40,215220,2,0,L|472:120,1,119.000002269745,0|8,0:0|0:0,0:0:0:0:
344,160,215520,2,0,P|280:176|224:168,1,119.000002269745,8|0,0:0|0:0,0:0:0:0:
80,272,215820,6,0,L|48:152,2,119.000002269745,0|0|8,0:0|0:0|0:0,0:0:0:0:
144,344,216270,2,0,P|232:352|312:320,1,119.000002269745
416,256,216570,1,0,0:0:0:0:
424,272,216645,1,0,0:0:0:0:
432,288,216720,1,8,0:0:0:0:
296,208,216870,1,0,0:0:0:0:
384,128,217020,5,0,0:0:0:0:
368,112,217095,1,0,0:0:0:0:
352,96,217170,1,0,0:0:0:0:
336,80,217245,1,0,0:0:0:0:
280,80,217320,1,8,0:0:0:0:
264,88,217395,1,0,0:0:0:0:
248,96,217470,1,0,0:0:0:0:
232,104,217545,1,0,0:0:0:0:
176,96,217620,1,0,0:0:0:0:
160,80,217695,1,0,0:0:0:0:
144,64,217770,1,8,0:0:0:0:
128,48,217845,1,0,0:0:0:0:
72,40,217920,2,0,P|48:88|48:160,1,119.000002269745,8|0,0:0|0:0,0:0:0:0:
80,304,218220,6,0,P|104:256|104:184,1,119.000002269745,0|0,0:0|0:0,0:0:0:0:
152,120,218520,1,8,0:0:0:0:
232,152,218670,1,0,0:0:0:0:
312,120,218820,1,0,0:0:0:0:
448,168,218970,2,0,L|512:184,2,59.5000011348725,0|0|8,0:0|0:0|0:0,0:0:0:0:
400,304,219270,1,0,0:0:0:0:
264,256,219420,6,0,P|200:248|128:272,1,119.000002269745
96,320,219645,2,0,L|48:240,1,59.5000011348725,0|8,0:0|0:0,0:0:0:0:
112,184,219870,1,0,0:0:0:0:
120,152,219945,1,0,0:0:0:0:
144,128,220020,1,0,0:0:0:0:
176,112,220095,1,0,0:0:0:0:
208,112,220170,1,8,0:0:0:0:
240,120,220245,1,0,0:0:0:0:
272,144,220320,1,8,0:0:0:0:
296,176,220395,1,0,0:0:0:0:
328,192,220470,1,0,0:0:0:0:
360,192,220545,1,0,0:0:0:0:
392,176,220620,6,0,L|480:96,2,119.000002269745,0|0|8,0:0|0:0|0:0,0:0:0:0:
352,288,221070,2,0,P|288:280|224:296,1,119.000002269745
136,336,221370,1,0,0:0:0:0:
112,312,221445,1,0,0:0:0:0:
88,288,221520,1,8,0:0:0:0:
176,192,221670,1,0,0:0:0:0:
80,152,221820,5,0,0:0:0:0:
96,120,221895,1,0,0:0:0:0:
128,96,221970,1,0,0:0:0:0:
160,88,222045,1,0,0:0:0:0:
176,96,222120,1,8,0:0:0:0:
192,104,222195,1,0,0:0:0:0:
208,112,222270,1,0,0:0:0:0:
224,120,222345,1,0,0:0:0:0:
240,128,222420,1,0,0:0:0:0:
256,136,222495,1,0,0:0:0:0:
312,96,222570,2,0,P|360:168|344:208,2,119.000002269745,8|8|0,0:0|0:0|0:0,0:0:0:0:
416,264,223020,5,0,0:0:0:0:
488,216,223170,1,0,0:0:0:0:
416,264,223320,2,0,L|304:336,1,119.000002269745,8|0,0:0|0:0,0:0:0:0:
168,240,223620,1,0,0:0:0:0:
168,208,223695,1,0,0:0:0:0:
184,176,223770,1,0,0:0:0:0:
216,160,223845,1,0,0:0:0:0:
248,160,223920,2,0,L|368:192,1,119.000002269745,8|0,0:0|0:0,0:0:0:0:
128,320,224220,5,0,0:0:0:0:
112,304,224295,1,0,0:0:0:0:
96,288,224370,1,0,0:0:0:0:
80,272,224445,1,0,0:0:0:0:
56,248,224520,1,8,0:0:0:0:
40,224,224595,1,0,0:0:0:0:
40,200,224670,1,0,0:0:0:0:
48,176,224745,1,0,0:0:0:0:
64,160,224820,1,0,0:0:0:0:
80,144,224895,1,0,0:0:0:0:
104,136,224970,1,8,0:0:0:0:
128,136,225045,1,0,0:0:0:0:
152,128,225120,1,8,0:0:0:0:
168,112,225195,1,0,0:0:0:0:
176,88,225270,1,0,0:0:0:0:
168,64,225345,1,0,0:0:0:0:
208,32,225420,6,0,P|296:56|352:40,1,119.000002269745
344,80,225645,2,0,L|416:56,1,59.5000011348725,0|8,0:0|0:0,0:0:0:0:
464,256,226020,1,0,0:0:0:0:
464,256,226170,2,0,L|320:216,1,119.000002269745,0|8,0:0|0:0,0:0:0:0:
256,312,226470,1,0,0:0:0:0:
144,240,226770,6,0,P|112:296|128:376,2,119.000002269745,0|8|0,0:0|0:0|0:0,0:0:0:0:
48,184,227220,1,0,0:0:0:0:
64,152,227295,1,0,0:0:0:0:
96,128,227370,1,8,0:0:0:0:
128,120,227445,1,0,0:0:0:0:
160,128,227520,1,8,0:0:0:0:
192,152,227595,1,0,0:0:0:0:
224,168,227670,1,0,0:0:0:0:
256,168,227745,1,0,0:0:0:0:
288,152,227820,6,0,L|336:32,2,119.000002269745,0|0|8,0:0|0:0|0:0,0:0:0:0:
432,208,228420,2,0,P|360:208|304:240,1,119.000002269745
336,304,228720,2,0,P|264:328|200:312,1,119.000002269745,8|0,0:0|0:0,0:0:0:0:
48,272,229020,5,0,0:0:0:0:
48,264,229095,1,0,0:0:0:0:
48,256,229170,1,0,0:0:0:0:
48,248,229245,1,0,0:0:0:0:
48,240,229320,1,8,0:0:0:0:
48,232,229395,1,0,0:0:0:0:
48,224,229470,1,0,0:0:0:0:
48,216,229545,1,0,0:0:0:0:
48,208,229620,1,0,0:0:0:0:
48,200,229695,5,0,0:0:0:0:
48,192,229770,1,8,0:0:0:0:
48,184,229845,1,0,0:0:0:0:
48,176,229920,1,8,0:0:0:0:
48,168,229995,1,0,0:0:0:0:
48,160,230070,1,0,0:0:0:0:
48,152,230145,1,0,0:0:0:0:
48,144,230220,6,0,P|64:112|104:80,2,70,0|8|0,0:0|0:0|0:0,0:0:0:0:
176,64,230820,2,0,P|208:80|240:120,2,70,0|8|0,0:0|0:0|0:0,0:0:0:0:
256,192,231420,2,0,P|240:224|200:256,2,70,0|8|0,0:0|0:0|0:0,0:0:0:0:
304,128,231870,1,0,0:0:0:0:
368,96,232020,1,0,0:0:0:0:
432,128,232170,1,8,0:0:0:0:
480,192,232320,1,0,0:0:0:0:
432,256,232470,1,0,0:0:0:0:
368,304,232620,1,0,0:0:0:0:
256,272,232920,1,8,0:0:0:0:
112,304,233220,5,0,0:0:0:0:
64,240,233370,1,0,0:0:0:0:
112,176,233520,1,0,0:0:0:0:
160,112,233670,1,8,0:0:0:0:
208,176,233820,1,0,0:0:0:0:
256,240,233970,2,0,L|256:304,2,35,0|2|0,0:0|0:0|0:0,0:0:0:0:
304,176,234270,1,8,0:0:0:0:
336,112,234420,1,0,0:0:0:0:
32,192,235020,5,0,0:0:0:0:
88,136,235170,2,0,L|144:80,2,70,0|8|0,0:0|0:0|0:0,0:0:0:0:
232,192,235620,1,0,0:0:0:0:
176,136,235770,2,0,L|112:80,2,70,0|8|0,0:0|0:0|0:0,0:0:0:0:
136,288,236220,1,0,0:0:0:0:
136,208,236370,2,0,L|136:128,2,70,0|8|0,0:0|0:0|0:0,0:0:0:0:
192,344,236820,1,0,0:0:0:0:
272,344,236970,1,8,0:0:0:0:
328,288,237120,1,0,0:0:0:0:
320,136,237420,6,0,P|304:104|272:88,1,70
192,88,237720,2,8,P|160:104|144:136,1,70
144,216,238020,2,0,P|160:248|192:264,1,70
272,264,238320,2,8,P|304:248|320:216,1,70
336,184,238620,1,0,0:0:0:0:
376,184,238770,1,0,0:0:0:0:
288,56,238920,6,0,P|256:40|224:56,2,70
216,192,239520,1,0,0:0:0:0:
136,200,239670,1,0,0:0:0:0:
56,208,239820,1,8,0:0:0:0:
136,200,239970,1,0,0:0:0:0:
200,160,240120,1,0,0:0:0:0:
136,200,240270,1,0,0:0:0:0:
72,240,240420,1,8,0:0:0:0:
136,200,240570,1,0,0:0:0:0:
168,128,240720,1,0,0:0:0:0:
136,200,240870,1,0,0:0:0:0:
104,272,241020,1,8,0:0:0:0:
184,264,241170,2,0,L|240:336,3,70,0|0|0|8,0:0|0:0|0:0|0:0,0:0:0:0:
352,128,242220,6,0,P|336:96|304:64,1,70
352,128,242520,2,8,P|320:144|288:176,1,70
352,128,242820,2,0,P|368:160|400:192,1,70
352,128,243120,2,8,P|384:112|416:80,2,70
208,96,243720,1,0,0:0:0:0:
96,208,244020,2,0,P|80:240|96:272,3,70,8|0|0|8,0:0|0:0|0:0|0:0,0:0:0:0:
256,336,244620,5,0,0:0:0:0:
336,328,244770,2,0,P|376:312|408:288,1,70,0|8,0:0|0:0,0:0:0:0:
448,240,245070,2,0,P|464:200|448:168,1,70,0|8,0:0|0:0,0:0:0:0:
408,112,245370,2,0,P|376:88|336:72,1,70,0|8,0:0|0:0,0:0:0:0:
272,56,245670,2,0,P|232:48|192:64,1,70,0|8,0:0|0:0,0:0:0:0:
136,88,245970,1,0,0:0:0:0:
112,120,246045,1,0,0:0:0:0:
96,152,246120,1,8,0:0:0:0:
96,192,246195,2,0,L|96:240,3,35,8|0|0|0,0:0|0:0|0:0|0:0,0:0:0:0:
136,288,246570,5,0,0:0:0:0:
208,304,246720,1,8,0:0:0:0:
224,232,246870,1,8,0:0:0:0:
152,216,247020,1,8,0:0:0:0:
136,288,247170,1,0,0:0:0:0:
208,304,247320,1,8,0:0:0:0:
239,319,247395,1,0,0:0:0:0:
273,325,247470,1,8,0:0:0:0:
308,322,247545,1,0,0:0:0:0:
340,309,247620,1,0,0:0:0:0:
368,288,247695,1,0,0:0:0:0:
389,260,247770,1,8,0:0:0:0:
401,227,247845,1,0,0:0:0:0:
405,192,247920,1,0,0:0:0:0:
398,158,247995,1,0,0:0:0:0:
382,127,248070,1,8,0:0:0:0:
359,101,248145,1,0,0:0:0:0:
328,80,248220,5,0,0:0:0:0:
256,64,248370,2,0,P|224:48|192:80,1,70,0|8,0:0|0:0,0:0:0:0:
256,112,248670,2,0,P|224:128|192:96,1,70,0|8,0:0|0:0,0:0:0:0:
136,64,248970,2,0,P|104:48|72:80,1,70,0|8,0:0|0:0,0:0:0:0:
136,112,249270,2,0,P|104:128|72:96,1,70,0|8,0:0|0:0,0:0:0:0:
32,192,249570,1,0,0:0:0:0:
29,226,249645,1,0,0:0:0:0:
40,259,249720,1,8,0:0:0:0:
62,286,249795,1,8,0:0:0:0:
92,303,249870,1,0,0:0:0:0:
127,306,249945,1,0,0:0:0:0:
160,297,250020,5,0,0:0:0:0:
176,224,250170,2,0,P|192:184|240:168,1,70
272,216,250470,2,0,P|256:256|208:272,2,70
280,136,250920,5,8,0:0:0:0:
289,102,250995,1,8,0:0:0:0:
311,75,251070,1,8,0:0:0:0:
341,59,251145,1,0,0:0:0:0:
376,57,251220,1,0,0:0:0:0:
409,69,251295,1,8,0:0:0:0:
434,92,251370,1,8,0:0:0:0:
448,124,251445,1,0,0:0:0:0:
447,159,251520,1,0,0:0:0:0:
433,191,251595,1,8,0:0:0:0:
407,214,251670,1,8,0:0:0:0:
360,312,251820,5,0,0:0:0:0:
360,312,251970,2,0,L|440:312,2,70,0|0|8,0:0|0:0|0:0,0:0:0:0:
296,272,252420,1,0,0:0:0:0:
288,192,252570,2,0,L|352:160,1,70
352,80,252870,2,0,L|288:48,1,70,0|8,0:0|0:0,0:0:0:0:
208,48,253170,2,0,L|144:80,1,70
144,160,253470,2,0,L|208:192,1,70,0|8,0:0|0:0,0:0:0:0:
256,248,253770,5,0,0:0:0:0:
256,328,253920,1,0,0:0:0:0:
256,248,254070,1,0,0:0:0:0:
192,288,254220,2,0,L|120:288,3,70,0|8|0|8,0:0|0:0|0:0|0:0,0:0:0:0:
72,232,254820,1,0,0:0:0:0:
32,168,254970,1,8,0:0:0:0:
72,104,255120,1,8,0:0:0:0:
112,168,255270,1,8,0:0:0:0:
152,104,255420,5,0,0:0:0:0:
224,136,255570,2,0,L|224:64,2,70,0|0|8,0:0|0:0|0:0,0:0:0:0:
296,104,256020,1,0,0:0:0:0:
296,184,256170,2,0,L|360:216,1,70
360,296,256470,2,0,L|296:328,1,70,0|8,0:0|0:0,0:0:0:0:
216,328,256770,2,0,L|152:296,2,70,0|0|8,0:0|0:0|0:0,0:0:0:0:
232,256,257220,5,0,0:0:0:0:
200,240,257295,1,0,0:0:0:0:
168,224,257370,1,8,0:0:0:0:
96,224,257520,1,8,0:0:0:0:
56,160,257670,1,0,0:0:0:0:
72,128,257745,1,0,0:0:0:0:
96,96,257820,1,8,0:0:0:0:
176,80,257970,1,0,0:0:0:0:
256,96,258120,1,8,0:0:0:0:
336,80,258270,1,0,0:0:0:0:
416,88,258420,2,8,L|416:32,2,35
416,168,258720,2,8,L|416:216,2,35,8|8|8,0:0|0:0|0:0,0:0:0:0:
416,248,259020,6,0,L|472:304,4,70,0|8|8|8|0,0:0|0:0|0:0|0:0|0:0,0:0:0:0:
264,248,259920,2,0,L|208:304,4,70,0|8|8|8|0,0:0|0:0|0:0|0:0|0:0,0:0:0:0:
264,96,260820,2,0,L|184:96,4,70,0|8|8|8|0,0:0|0:0|0:0|0:0|0:0,0:0:0:0:
256,192,261720,12,0,264120,0:0:0:0:
112,200,264420,6,0,P|120:248|144:280,1,70
160,296,264720,2,0,P|192:320|232:336,1,70
296,320,265020,2,0,P|328:296|344:256,1,70
344,192,265320,2,0,P|344:152|328:120,1,70
304,56,265620,2,0,P|288:24|240:24,1,70
176,16,265920,2,0,P|144:24|120:56,1,70
256,192,266220,1,0,0:0:0:0:
128,112,266520,6,0,L|64:64,2,70,0|8|0,0:0|0:0|0:0,0:0:0:0:
272,64,267120,1,0,0:0:0:0:
416,128,267420,2,0,P|464:176|448:256,1,140,8|0,0:0|0:0,0:0:0:0:
320,320,268020,1,8,0:0:0:0:
240,192,268320,2,0,L|240:112,2,70,0|8|0,0:0|0:0|0:0,0:0:0:0:
144,320,268920,1,8,0:0:0:0:
80,176,269220,2,0,P|144:144|208:192,1,140,0|8,0:0|0:0,0:0:0:0:
144,320,269820,1,0,0:0:0:0:
256,216,270120,1,8,0:0:0:0:
256,216,270420,1,8,0:0:0:0:
256,64,270720,6,0,L|328:96,2,70,0|8|0,0:0|0:0|0:0,0:0:0:0:
272,136,271170,2,0,L|200:104,2,70,0|8|0,0:0|0:0|0:0,0:0:0:0:
288,208,271620,2,0,L|344:272,2,70,0|8|0,0:0|0:0|0:0,0:0:0:0:
256,280,272070,2,0,L|200:216,2,70,0|8|0,0:0|0:0|0:0,0:0:0:0:
176,288,272520,1,0,0:0:0:0:
112,256,272670,1,0,0:0:0:0:
64,192,272820,1,0,0:0:0:0:
112,128,272970,1,0,0:0:0:0:
176,96,273120,1,0,0:0:0:0:
328,112,273420,6,0,B|288:136|248:112,4,70,0|8|8|8|0,0:0|0:0|0:0|0:0|0:0,0:0:0:0:
408,248,274320,2,0,B|384:208|408:168,4,70,0|8|8|8|0,0:0|0:0|0:0|0:0|0:0,0:0:0:0:
264,304,275220,2,0,B|304:280|344:304,4,70,0|8|8|8|0,0:0|0:0|0:0|0:0|0:0,0:0:0:0:
256,192,276120,12,0,276720,0:0:0:0:
216,224,277020,5,0,0:0:0:0:
256,160,277170,1,8,0:0:0:0:
296,224,277320,1,0,0:0:0:0:
216,224,277470,1,8,0:0:0:0:
256,160,277620,1,0,0:0:0:0:
296,224,277770,1,8,0:0:0:0:
216,224,277920,1,0,0:0:0:0:
168,288,278070,5,0,0:0:0:0:
196,307,278145,1,0,0:0:0:0:
230,318,278220,1,8,0:0:0:0:
264,319,278295,1,0,0:0:0:0:
298,310,278370,1,0,0:0:0:0:
328,292,278445,1,0,0:0:0:0:
352,266,278520,1,8,0:0:0:0:
367,235,278595,1,8,0:0:0:0:
373,201,278670,1,8,0:0:0:0:
369,166,278745,1,8,0:0:0:0:
356,134,278820,1,0,0:0:0:0:
334,107,278895,1,0,0:0:0:0:
305,87,278970,1,0,0:0:0:0:
272,76,279045,1,0,0:0:0:0:
237,74,279120,1,8,0:0:0:0:
204,83,279195,1,8,0:0:0:0:
173,101,279270,5,8,0:0:0:0:
150,126,279345,1,8,0:0:0:0:
134,157,279420,1,0,0:0:0:0:
128,192,279495,1,0,0:0:0:0:
131,226,279570,1,0,0:0:0:0:
144,259,279645,1,0,0:0:0:0:
168,288,279720,1,8,0:0:0:0:
196,307,279795,1,8,0:0:0:0:
230,318,279870,1,0,0:0:0:0:
264,319,279945,1,0,0:0:0:0:
298,310,280020,1,8,0:0:0:0:
328,292,280095,1,8,0:0:0:0:
352,266,280170,1,0,0:0:0:0:
367,235,280245,1,8,0:0:0:0:
256,192,280620,5,0,0:0:0:0:
384,112,280920,2,0,L|448:64,2,70,0|8|0,0:0|0:0|0:0,0:0:0:0:
368,272,281520,1,0,0:0:0:0:
224,320,281820,2,0,P|160:336|96:288,1,140,8|0,0:0|0:0,0:0:0:0:
32,160,282420,1,8,0:0:0:0:
160,80,282720,2,0,P|208:96|224:128,2,70,0|8|0,0:0|0:0|0:0,0:0:0:0:
320,96,283320,2,0,P|384:64|448:96,1,140,0|8,0:0|0:0,0:0:0:0:
352,208,283920,2,0,L|400:208,2,35
272,208,284220,1,0,0:0:0:0:
384,320,284520,1,0,0:0:0:0:
384,320,284820,1,0,0:0:0:0:
224,320,285120,6,0,L|144:320,2,70,0|8|0,0:0|0:0|0:0,0:0:0:0:
224,240,285570,1,0,0:0:0:0:
168,184,285720,1,0,0:0:0:0:
240,208,285870,1,0,0:0:0:0:
184,152,286020,1,0,0:0:0:0:
256,176,286170,1,0,0:0:0:0:
200,120,286320,2,0,L|240:48,3,70,0|8|8|8,0:0|0:0|0:0|0:0,0:0:0:0:
312,72,286920,5,0,0:0:0:0:
384,104,287070,1,8,0:0:0:0:
440,160,287220,1,0,0:0:0:0:
440,240,287370,1,0,0:0:0:0:
384,296,287520,1,0,0:0:0:0:
312,320,287670,1,0,0:0:0:0:
360,296,289020,6,0,B|312:328|256:296,2,105
416,240,289620,1,0,0:0:0:0:
272,192,289920,1,0,0:0:0:0:
416,160,290220,1,0,0:0:0:0:
272,128,290520,1,0,0:0:0:0:
128,64,290820,2,0,P|96:96|96:144,1,70
80,192,291120,1,8,0:0:0:0:
96,272,291270,1,8,0:0:0:0:
160,320,291420,1,0,0:0:0:0:
240,336,291570,1,0,0:0:0:0:
320,320,291720,1,8,0:0:0:0:
384,272,291870,1,0,0:0:0:0:
400,192,292020,1,0,0:0:0:0:
176,192,292470,6,0,P|160:160|176:128,1,70
224,80,292770,1,8,0:0:0:0:
304,64,292920,1,8,0:0:0:0:
368,112,293070,1,0,0:0:0:0:
400,192,293220,1,0,0:0:0:0:
384,272,293370,1,8,0:0:0:0:
320,320,293520,1,0,0:0:0:0:
240,336,293670,1,0,0:0:0:0:
112,256,293970,6,0,P|96:224|112:176,3,70,8|8|0|0,0:0|0:0|0:0|0:0,0:0:0:0:
304,160,294570,2,2,P|240:208|160:192,1,140
320,80,295020,1,0,0:0:0:0:
400,208,295320,1,0,0:0:0:0:
256,144,295620,1,0,0:0:0:0:
400,112,295920,1,0,0:0:0:0:
336,160,296070,1,0,0:0:0:0:
304,224,296220,1,8,0:0:0:0:
256,288,296370,1,8,0:0:0:0:
192,320,296520,1,0,0:0:0:0:
128,288,296670,1,0,0:0:0:0:
80,240,296820,2,2,P|48:176|80:112,1,140
128,64,297270,5,0,0:0:0:0:
288,80,297570,2,0,P|336:112|352:144,3,70,0|8|8|0,0:0|0:0|0:0|0:0,0:0:0:0:
440,192,298245,1,0,0:0:0:0:
328,224,298470,1,0,0:0:0:0:
400,256,298620,1,8,0:0:0:0:
32,144,299220,2,2,P|64:104|176:72,1,140
336,72,299820,5,0,0:0:0:0:
464,160,300120,1,0,0:0:0:0:
336,240,300420,1,0,0:0:0:0:
336,160,300570,2,0,L|256:160,3,70,0|8|8|0,0:0|0:0|0:0|0:0,0:0:0:0:
192,160,301170,2,0,L|112:160,3,70,0|8|0|0,0:0|0:0|0:0|0:0,0:0:0:0:
304,304,302070,5,0,0:0:0:0:
144,304,302370,2,0,P|96:288|80:256,3,70,0|0|8|8,0:0|0:0|0:0|0:0,0:0:0:0:
64,208,302970,1,0,0:0:0:0:
80,128,303120,1,0,0:0:0:0:
160,112,303270,1,8,0:0:0:0:
320,112,303570,2,0,L|400:112,3,70,8|8|0|0,0:0|0:0|0:0|0:0,0:0:0:0:
80,160,304620,5,0,0:0:0:0:
48,304,304920,1,0,0:0:0:0:
192,272,305220,1,0,0:0:0:0:
336,224,305520,2,0,B|368:208|368:208|400:224,3,70,0|0|8|8,0:0|0:0|0:0|0:0,0:0:0:0:
400,304,306120,2,0,B|368:320|368:320|336:304,3,70,0|0|8|8,0:0|0:0|0:0|0:0,0:0:0:0:
192,272,306870,1,8,0:0:0:0:
80,160,307170,2,0,B|64:128|64:128|80:96,3,70,0|0|8|8,0:0|0:0|0:0|0:0,0:0:0:0:
192,128,307845,1,0,0:0:0:0:
304,128,308070,1,0,0:0:0:0:
384,128,308220,1,8,0:0:0:0:
112,232,317820,6,0,L|112:160,1,70,0|8,0:0|0:0,0:0:0:0:
160,104,318120,2,0,L|216:48,1,70,0|0,0:0|0:0,0:0:0:0:
288,56,318420,2,0,L|344:112,1,70,0|8,0:0|0:0,0:0:0:0:
392,160,318720,2,0,L|392:232,1,70
344,288,319020,2,0,L|288:344,1,70,0|8,0:0|0:0,0:0:0:0:
216,336,319320,2,0,L|160:280,1,70
112,232,319620,2,0,L|112:160,1,70,0|8,0:0|0:0,0:0:0:0:
160,104,319920,2,0,L|216:48,1,70
288,56,320220,5,0,0:0:0:0:
360,88,320370,1,8,0:0:0:0:
288,120,320520,1,0,0:0:0:0:
216,152,320670,1,8,0:0:0:0:
288,184,320820,1,0,0:0:0:0:
360,216,320970,1,8,0:0:0:0:
288,248,321120,1,0,0:0:0:0:
216,280,321270,1,8,0:0:0:0:
288,312,321420,1,0,0:0:0:0:
360,280,321570,1,8,0:0:0:0:
288,248,321720,1,0,0:0:0:0:
216,216,321870,1,8,0:0:0:0:
288,184,322020,1,0,0:0:0:0:
360,152,322170,1,8,0:0:0:0:
288,120,322320,1,0,0:0:0:0:
216,88,322470,1,8,0:0:0:0:
136,96,322620,5,0,0:0:0:0:
118,125,322695,1,0,0:0:0:0:
106,159,322770,1,8,0:0:0:0:
102,193,322845,1,8,0:0:0:0:
106,228,322920,1,0,0:0:0:0:
116,261,322995,1,0,0:0:0:0:
134,292,323070,1,8,0:0:0:0:
157,317,323145,1,8,0:0:0:0:
185,338,323220,1,0,0:0:0:0:
217,352,323295,1,0,0:0:0:0:
252,359,323370,1,8,0:0:0:0:
287,358,323445,1,8,0:0:0:0:
321,351,323520,1,0,0:0:0:0:
352,336,323595,1,8,0:0:0:0:
380,315,323670,1,0,0:0:0:0:
403,288,323745,1,8,0:0:0:0:
419,257,323820,5,0,0:0:0:0:
429,224,323895,1,0,0:0:0:0:
432,189,323970,1,8,0:0:0:0:
427,154,324045,1,0,0:0:0:0:
408,120,324120,1,0,0:0:0:0:
376,96,324195,1,0,0:0:0:0:
336,96,324270,1,8,0:0:0:0:
256,96,324420,1,0,0:0:0:0:
256,192,324720,1,0,0:0:0:0:
256,192,325020,5,4,0:0:0:0:
112,288,325470,2,0,L|80:312,2,35,0|0|8,0:0|0:0|0:0,0:0:0:0:
80,200,325770,1,0,0:0:0:0:
48,128,325920,1,0,0:0:0:0:
96,64,326070,1,0,0:0:0:0:
192,64,326220,2,0,B|256:88|256:88|328:64,2,140,0|0|8,0:0|0:0|0:0,0:0:0:0:
136,128,327120,6,0,B|112:152|112:152|112:192,1,70
192,248,327420,2,0,B|256:224|256:224|328:248,1,140
424,160,327870,2,0,L|472:152,2,35,0|0|8,0:0|0:0|0:0,0:0:0:0:
352,88,328170,1,0,0:0:0:0:
272,56,328320,1,0,0:0:0:0:
192,80,328470,1,0,0:0:0:0:
120,136,328620,2,0,B|80:200|80:200|96:280,2,140,0|0|8,0:0|0:0|0:0,0:0:0:0:
256,200,329520,6,0,L|408:200,2,140,0|4|0,0:0|0:0|0:0,0:0:0:0:
280,280,330270,1,0,0:0:0:0:
280,280,330345,1,0,0:0:0:0:
280,280,330420,2,0,L|208:304,1,70,8|0,0:0|0:0,0:0:0:0:
120,256,330720,2,0,L|192:232,1,70
352,280,331020,2,0,B|392:224|392:224|344:160,2,140,0|0|8,0:0|0:0|0:0,0:0:0:0:
160,104,331920,6,0,B|120:160|120:160|168:224,2,140,0|4|0,0:0|0:0|0:0,0:0:0:0:
256,64,332670,1,0,0:0:0:0:
256,64,332745,1,0,0:0:0:0:
256,64,332820,2,0,L|328:64,1,70,8|0,0:0|0:0,0:0:0:0:
376,136,333120,2,0,L|304:136,1,70
256,192,333420,12,0,334320,0:0:0:0:
160,280,334620,6,0,B|136:232|160:192|160:192|160:144,1,140,4|0,0:0|0:0,0:0:0:0:
224,232,335220,2,0,B|288:264|288:264|352:232,2,140,0|0|8,0:0|0:0|0:0,0:0:0:0:
232,160,335970,1,0,0:0:0:0:
296,128,336120,2,0,L|352:72,1,70,8|0,0:0|0:0,0:0:0:0:
264,32,336420,2,0,L|208:88,1,70,8|0,0:0|0:0,0:0:0:0:
96,128,336720,6,0,B|64:192|64:192|104:264,2,140,0|4|0,0:0|0:0|0:0,0:0:0:0:
192,72,337470,2,0,L|168:32,2,35
288,48,337770,1,0,0:0:0:0:
384,72,337920,1,0,0:0:0:0:
448,144,338070,1,0,0:0:0:0:
416,248,338220,2,0,P|360:280|296:248,2,140,8|8|8,0:0|0:0|0:0,0:0:0:0:
448,144,339120,5,0,0:0:0:0:
384,72,339270,1,0,0:0:0:0:
288,48,339420,2,0,B|216:48|216:48|168:96,1,140,4|0,0:0|0:0,0:0:0:0:
88,192,339870,2,0,L|48:192,2,35
144,264,340170,1,0,0:0:0:0:
224,304,340320,2,0,B|288:328|288:328|360:304,1,140,0|8,0:0|0:0,0:0:0:0:
288,240,340770,2,0,L|288:200,2,35,0|0|8,0:0|0:0|0:0,0:0:0:0:
288,136,341070,2,0,L|288:64,1,70,0|8,0:0|0:0,0:0:0:0:
192,80,341520,5,0,0:0:0:0:
120,104,341670,1,0,0:0:0:0:
64,160,341820,2,0,B|64:224|64:224|120:280,1,140,4|0,0:0|0:0,0:0:0:0:
168,216,342270,1,0,0:0:0:0:
272,272,342420,2,0,B|272:208|272:208|216:152,2,140,0|0|12,0:0|0:0|0:0,0:0:0:0:
368,328,343320,1,8,0:0:0:0:
448,240,343620,5,12,0:0:0:0:
448,200,343695,1,0,0:0:0:0:
448,160,343770,1,0,0:0:0:0:
432,120,343845,1,0,0:0:0:0:
400,96,343920,1,4,0:0:0:0:
360,88,343995,1,0,0:0:0:0:
320,88,344070,1,0,0:0:0:0:
280,88,344145,1,0,0:0:0:0:
240,88,344220,6,0,L|168:88,1,70,12|0,0:0|0:0,0:0:0:0:
272,296,344820,2,0,L|344:296,1,70,8|0,0:0|0:0,0:0:0:0:
448,224,345420,1,8,0:0:0:0:
448,224,345570,1,0,0:0:0:0:
320,160,345720,1,8,0:0:0:0:
320,160,345870,1,0,0:0:0:0:
192,224,346020,1,8,0:0:0:0:
192,224,346170,1,0,0:0:0:0:
64,160,346320,1,8,0:0:0:0:
64,160,346470,1,0,0:0:0:0:
160,104,346620,6,0,L|192:40,1,70,8|0,0:0|0:0,0:0:0:0:
352,280,347220,2,0,L|320:344,1,70,8|0,0:0|0:0,0:0:0:0:
112,192,347820,1,8,0:0:0:0:
256,48,348120,1,8,0:0:0:0:
400,192,348420,1,8,0:0:0:0:
256,336,348720,1,8,0:0:0:0:
96,280,349020,6,0,L|168:304,1,70,8|0,0:0|0:0,0:0:0:0:
416,104,349620,2,0,L|344:80,1,70,8|0,0:0|0:0,0:0:0:0:
168,168,350220,2,0,L|176:240,1,70,8|0,0:0|0:0,0:0:0:0:
344,216,350520,2,0,L|336:144,1,70,8|0,0:0|0:0,0:0:0:0:
192,200,350820,2,0,L|224:272,1,70,8|0,0:0|0:0,0:0:0:0:
320,184,351120,2,0,L|288:112,1,70,8|0,0:0|0:0,0:0:0:0:
160,72,351420,6,0,L|88:96,1,70,8|0,0:0|0:0,0:0:0:0:
352,312,352020,2,0,L|424:288,1,70,8|0,0:0|0:0,0:0:0:0:
256,192,352620,12,0,354720,0:0:0:0:
256,192,355020,12,0,355920,0:0:0:0:
136,144,356220,5,4,0:0:0:0:
136,144,356520,1,0,0:0:0:0:
272,88,356820,2,0,P|304:72|344:72,1,70
320,136,357120,2,0,P|288:152|248:152,1,70
104,256,357420,2,0,B|184:328|184:328|288:328,1,210
408,320,358020,2,0,B|328:248|328:248|224:248,1,210
184,176,358620,6,0,B|152:112|152:112|184:48,1,140
272,112,359070,2,0,P|336:104|400:160,1,140
320,176,359520,1,0,0:0:0:0:
368,240,359670,2,0,P|304:248|240:192,1,140
120,176,360120,1,0,0:0:0:0:
72,240,360270,1,0,0:0:0:0:
104,320,360420,2,0,L|176:320,2,70
320,272,361020,5,4,0:0:0:0:
392,232,361320,1,0,0:0:0:0:
392,152,361620,2,0,L|392:80,1,70
320,40,361920,2,0,L|320:112,1,70
320,192,362220,2,0,L|104:192,1,210
56,256,362820,2,0,P|120:312|176:312,1,140
256,312,363270,1,0,0:0:0:0:
344,312,363420,6,0,P|412:304|459:254,1,140
328,112,364020,1,0,0:0:0:0:
184,112,364320,1,0,0:0:0:0:
256,232,364620,2,0,L|256:376,2,140
256,160,365520,2,0,L|256:16,1,140,0|2,0:0|0:0,0:0:0:0:
160,88,375420,6,0,L|128:128,7,35
136,152,376020,2,0,L|120:192,7,35
128,216,376620,2,0,L|128:256,7,35
144,280,377220,2,0,L|160:320,7,35
200,320,377820,6,0,B|256:304|256:304|264:240|344:272|320:192|320:192|392:200|408:96|408:96|368:120|320:56|304:112|304:112|232:112,1,525
224,96,379020,6,0,B|184:96|176:56|176:56|128:48|144:120|96:88|96:88|104:128|80:160,1,245
96,192,379620,6,0,B|152:192|144:224|144:224|176:232|200:208|184:184|184:184|208:152|240:192|280:192,1,245
288,224,380220,6,0,B|272:272|320:288|320:288|344:336|384:296|360:280|400:272|400:272|400:208,1,245
408,184,380820,6,0,L|416:144,7,35
392,120,381420,2,0,L|392:80,7,35
368,56,382020,2,0,L|336:24,7,35
304,40,382620,2,0,L|264:40,7,35
240,56,383220,2,0,L|192:80,7,35
208,112,383820,6,0,P|232:200|328:152,1,210
264,144,384420,2,0,P|216:192|208:264,1,140
80,120,385020,5,4,0:0:0:0:
104,72,385170,1,0,0:0:0:0:
152,56,385320,1,0,0:0:0:0:
432,264,385620,1,0,0:0:0:0:
408,312,385770,1,0,0:0:0:0:
360,328,385920,1,0,0:0:0:0:
288,56,386220,1,0,0:0:0:0:
336,56,386370,1,0,0:0:0:0:
384,56,386520,1,0,0:0:0:0:
224,328,386820,1,0,0:0:0:0:
176,328,386970,1,0,0:0:0:0:
128,328,387120,1,0,0:0:0:0:
208,192,387420,5,0,0:0:0:0:
288,192,387720,2,0,L|352:152,1,70
384,232,388020,2,0,L|320:272,1,70
248,272,388320,2,0,L|176:272,1,70
128,192,388620,2,0,B|128:120|128:120|184:64,2,140
208,192,389370,1,0,0:0:0:0:
288,192,389520,2,0,L|368:192,1,70
424,256,389820,5,4,0:0:0:0:
400,288,389970,1,0,0:0:0:0:
368,304,390120,1,0,0:0:0:0:
144,304,390420,1,0,0:0:0:0:
112,288,390570,1,0,0:0:0:0:
88,256,390720,1,0,0:0:0:0:
88,128,391020,1,0,0:0:0:0:
112,96,391170,1,0,0:0:0:0:
144,80,391320,1,0,0:0:0:0:
368,80,391620,1,0,0:0:0:0:
400,96,391770,1,0,0:0:0:0:
424,128,391920,1,0,0:0:0:0:
336,192,392220,5,0,0:0:0:0:
264,192,392370,2,0,L|184:192,1,70
144,248,392820,2,0,P|176:272|208:272,1,70
204,111,393120,2,0,P|170:113|144:136,1,70
80,192,393420,1,0,0:0:0:0:
264,192,394020,1,0,0:0:0:0:
328,192,394170,1,0,0:0:0:0:
328,192,394245,1,0,0:0:0:0:
328,192,394320,1,0,0:0:0:0:
392,192,394470,1,0,0:0:0:0:
448,72,394620,6,0,L|376:72,1,70,4|0,0:0|0:0,0:0:0:0:
312,72,394920,2,0,L|240:72,1,70
176,72,395220,2,0,L|104:72,2,70
64,152,395820,2,0,L|136:152,1,70
200,152,396120,2,0,L|272:152,1,70
336,152,396420,2,0,L|408:152,2,70
448,232,397020,6,0,L|376:232,1,70
312,232,397320,2,0,L|240:232,1,70
176,232,397620,2,0,L|104:232,1,70
64,312,397920,1,0,0:0:0:0:
64,312,398070,2,0,L|280:312,1,210
344,312,398670,2,0,L|416:312,3,70
64,312,399420,6,0,L|136:312,1,70,4|0,0:0|0:0,0:0:0:0:
200,312,399720,2,0,L|272:312,1,70
336,312,400020,2,0,L|408:312,2,70
448,232,400620,2,0,L|376:232,1,70
312,232,400920,2,0,L|240:232,1,70
176,232,401220,2,0,L|104:232,2,70
64,152,401820,6,0,L|136:152,1,70
200,152,402120,2,0,L|272:152,1,70
336,152,402420,2,0,L|408:152,1,70
448,72,402720,1,0,0:0:0:0:
448,72,402870,2,0,L|232:72,1,210
168,72,403470,2,0,L|96:72,3,70
48,224,404220,6,0,P|88:240|104:208,1,70,4|0,0:0|0:0,0:0:0:0:
104,224,404520,2,0,P|144:240|160:208,1,70
160,224,404820,2,0,P|200:240|216:208,1,70
216,224,405120,1,0,0:0:0:0:
216,224,405195,1,0,0:0:0:0:
216,224,405270,1,0,0:0:0:0:
464,224,405420,2,0,P|424:240|408:208,1,70
408,224,405720,2,0,P|368:240|352:208,1,70
352,224,406020,2,0,P|312:240|296:208,1,70
296,224,406320,1,0,0:0:0:0:
297,224,406395,1,0,0:0:0:0:
296,224,406470,1,0,0:0:0:0:
184,160,406620,6,0,L|128:104,1,70
80,112,406920,2,0,P|64:72|96:56,1,70
136,56,407220,2,0,L|208:56,1,70
272,56,407520,1,0,0:0:0:0:
272,56,407670,2,0,L|488:56,1,210
480,120,408270,2,0,L|408:120,1,70
344,120,408570,2,0,L|272:120,1,70
464,160,409020,6,0,P|424:144|408:176,1,70,4|0,0:0|0:0,0:0:0:0:
408,160,409320,2,0,P|368:144|352:176,1,70
352,160,409620,2,0,P|312:144|296:176,1,70
297,159,409920,1,0,0:0:0:0:
296,160,409995,1,0,0:0:0:0:
297,159,410070,1,0,0:0:0:0:
48,160,410220,2,0,P|88:144|104:176,1,70
104,160,410520,2,0,P|144:144|160:176,1,70
160,160,410820,2,0,P|200:144|216:176,1,70
216,160,411120,1,0,0:0:0:0:
214,159,411195,1,0,0:0:0:0:
216,160,411270,1,0,0:0:0:0:
328,224,411420,6,0,L|384:280,1,70
432,272,411720,2,0,P|448:312|416:328,1,70
376,328,412020,2,0,L|304:328,1,70
240,328,412320,1,0,0:0:0:0:
240,328,412470,2,0,L|24:328,1,210
32,264,413070,2,0,L|104:264,1,70
168,264,413370,2,0,L|240:264,1,70
256,192,413820,12,0,415920,0:0:0:0:
416,272,416220,5,4,0:0:0:0:
256,272,416520,1,0,0:0:0:0:
400,240,416820,1,0,0:0:0:0:
272,304,417120,1,0,0:0:0:0:
336,152,417420,2,0,P|328:104|312:80,1,70
192,152,417720,2,0,P|200:200|216:224,1,70
264,152,418020,1,0,0:0:0:0:
264,152,418095,1,0,0:0:0:0:
264,152,418170,1,0,0:0:0:0:
120,152,418320,1,0,0:0:0:0:
232,352,418620,5,4,0:0:0:0:
88,248,418920,1,0,0:0:0:0:
256,320,419220,1,0,0:0:0:0:
64,280,419520,1,0,0:0:0:0:
160,280,419670,2,0,P|192:256|224:256,1,70
288,256,419970,2,0,L|360:256,1,70
464,184,420270,2,0,L|392:184,1,70
368,184,420495,1,0,0:0:0:0:
336,184,420570,1,0,0:0:0:0:
304,184,420645,1,0,0:0:0:0:
272,184,420720,1,0,0:0:0:0:
240,184,420795,1,0,0:0:0:0:
208,184,420870,1,0,0:0:0:0:
128,184,421020,6,0,B|72:136|72:136|72:56,1,140,4|0,0:0|0:0,0:0:0:0:
24,184,421620,2,0,B|80:232|80:232|80:312,1,140
176,336,422220,2,0,P|216:344|248:336,1,70
312,336,422520,2,0,P|352:344|384:336,1,70
464,296,422820,1,0,0:0:0:0:
464,296,422895,1,0,0:0:0:0:
464,296,422970,1,0,0:0:0:0:
464,224,423120,1,0,0:0:0:0:
336,192,423420,6,0,B|264:192|264:192|200:128,1,140,4|0,0:0|0:0,0:0:0:0:
176,72,424020,2,0,B|248:72|248:72|312:136,1,140
144,144,424470,1,0,0:0:0:0:
144,144,424620,2,0,B|88:200|120:216|120:216|80:232|112:256|112:256|48:312|136:328|136:328|144:296|160:336|160:336|168:304|184:352|184:352|232:336|272:352,1,420
424,264,425820,5,4,0:0:0:0:
376,80,426120,1,0,0:0:0:0:
376,264,426420,1,0,0:0:0:0:
424,80,426720,1,0,0:0:0:0:
336,224,427020,2,0,P|288:232|256:216,1,70
336,112,427320,2,0,P|288:104|256:120,1,70
304,168,427620,1,0,0:0:0:0:
304,168,427695,1,0,0:0:0:0:
304,168,427770,2,0,L|376:168,1,70
88,264,428220,5,4,0:0:0:0:
136,80,428520,1,0,0:0:0:0:
136,264,428820,1,0,0:0:0:0:
88,80,429120,1,0,0:0:0:0:
88,144,429270,2,0,P|72:176|88:208,1,70
136,208,429570,2,0,P|152:176|136:144,1,70
216,176,429870,2,0,L|288:176,1,70
312,176,430095,1,0,0:0:0:0:
344,176,430170,1,0,0:0:0:0:
376,176,430245,1,0,0:0:0:0:
408,176,430320,1,0,0:0:0:0:
408,208,430395,1,0,0:0:0:0:
408,240,430470,1,0,0:0:0:0:
408,272,430545,1,0,0:0:0:0:
352,320,430620,6,0,P|272:344|216:312,1,140,4|0,0:0|0:0,0:0:0:0:
160,272,431220,2,0,P|240:248|296:280,1,140
136,352,431820,2,0,L|80:296,1,70
88,232,432120,2,0,L|88:160,1,70
88,88,432420,1,0,0:0:0:0:
88,88,432495,1,0,0:0:0:0:
88,88,432570,2,0,P|120:48|144:48,1,70
304,64,433020,6,0,B|240:112|240:112|240:192,1,140,4|0,0:0|0:0,0:0:0:0:
320,216,433620,2,0,B|320:156|320:156|384:108,1,140
448,176,434070,6,0,P|480:224|480:256,1,70
384,304,434370,2,0,L|464:304,2,70
320,304,434820,1,0,0:0:0:0:
288,304,434895,1,0,0:0:0:0:
256,296,434970,1,0,0:0:0:0:
224,288,435045,1,0,0:0:0:0:
200,264,435120,1,0,0:0:0:0:
176,240,435195,1,0,0:0:0:0:
160,208,435270,1,0,0:0:0:0:
152,176,435345,1,0,0:0:0:0:
152,144,435420,1,4,0:0:0:0:
256,80,444720,5,0,0:0:0:0:
256,160,444870,1,0,0:0:0:0:
256,240,445020,2,8,L|400:240,1,140
336,96,445620,5,8,0:0:0:0:
256,96,445770,1,8,0:0:0:0:
176,96,445920,1,8,0:0:0:0:
104,128,446220,2,0,P|56:176|72:256,2,140
144,192,446970,1,0,0:0:0:0:
224,192,447120,1,0,0:0:0:0:
304,192,447270,1,0,0:0:0:0:
384,192,447420,1,8,0:0:0:0:
256,56,447720,5,8,0:0:0:0:
88,192,448020,5,8,0:0:0:0:
256,312,448320,5,8,0:0:0:0:
384,192,448620,5,0,0:0:0:0:
256,192,448770,12,0,449520,0:0:0:0:
256,40,449820,6,0,L|256:120,3,70
176,112,450420,1,0,0:0:0:0:
256,112,450570,1,0,0:0:0:0:
336,112,450720,1,0,0:0:0:0:
256,112,451020,2,8,L|160:224,1,140
256,112,451620,2,8,L|352:224,1,140
256,344,452220,5,8,0:0:0:0:
256,264,452370,1,0,0:0:0:0:
256,184,452520,1,8,0:0:0:0:
256,104,452670,1,0,0:0:0:0:
184,120,452820,2,8,P|160:160|184:192,1,70
184,256,453120,2,0,P|160:296|184:328,1,70
320,320,453420,2,8,P|344:280|320:248,1,70
328,176,453720,2,0,P|352:136|328:104,1,70
256,48,454020,5,0,0:0:0:0:
256,192,454320,1,0,0:0:0:0:
152,112,454620,6,0,L|152:256,1,140
232,280,455220,2,0,P|256:304|280:280,2,70
256,192,455820,2,0,L|256:112,1,70
256,56,456120,1,8,0:0:0:0:
200,112,456270,1,8,0:0:0:0:
144,56,456420,1,8,0:0:0:0:
144,208,456570,5,0,0:0:0:0:
144,240,456720,1,0,0:0:0:0:
144,272,456870,1,0,0:0:0:0:
208,320,457020,2,8,L|280:272,1,70
264,208,457320,2,0,L|192:256,1,70
208,168,457620,2,0,L|272:128,1,70,0|8,0:0|0:0,0:0:0:0:
264,56,457920,2,0,L|136:136,1,140
96,192,458370,1,0,0:0:0:0:
96,272,458520,1,8,0:0:0:0:
152,328,458670,1,0,0:0:0:0:
232,328,458820,1,0,0:0:0:0:
312,328,458970,1,0,0:0:0:0:
392,328,459120,1,8,0:0:0:0:
392,176,459420,6,0,L|312:128,3,70
256,136,460020,1,0,0:0:0:0:
256,216,460170,1,0,0:0:0:0:
256,136,460320,1,0,0:0:0:0:
256,216,460470,1,0,0:0:0:0:
184,184,460620,2,0,L|184:32,1,140
328,184,461220,2,0,L|328:40,1,140
176,48,461820,6,0,P|152:80|176:104,1,70
232,136,462120,2,8,P|256:168|232:200,1,70
176,224,462420,2,8,P|152:256|176:280,1,70
232,320,462720,2,8,P|264:352|296:320,1,70
352,312,463020,2,0,P|376:280|352:248,1,70
344,184,463320,2,0,P|320:216|344:248,1,70
256,192,463620,5,4,0:0:0:0:
256,192,463920,1,4,0:0:0:0:
256,48,464220,2,0,L|256:192,1,140
256,336,464820,1,4,0:0:0:0:
256,256,464970,1,0,0:0:0:0:
256,176,465120,1,0,0:0:0:0:
136,96,465420,5,8,0:0:0:0:
168,112,465495,1,8,0:0:0:0:
200,128,465570,1,8,0:0:0:0:
136,176,465720,1,8,0:0:0:0:
168,192,465795,1,8,0:0:0:0:
200,208,465870,1,8,0:0:0:0:
136,248,466020,1,8,0:0:0:0:
136,328,466170,5,4,0:0:0:0:
216,328,466320,1,4,0:0:0:0:
296,328,466470,1,4,0:0:0:0:
296,248,466620,2,0,L|352:184,1,70
296,136,466920,2,0,L|240:192,1,70
192,128,467220,2,0,L|264:56,1,70
192,24,467520,2,0,L|136:80,1,70
88,128,467820,6,8,L|88:272,3,140
224,192,469020,5,0,0:0:0:0:
304,192,469170,1,0,0:0:0:0:
224,192,469320,1,0,0:0:0:0:
304,192,469470,1,0,0:0:0:0:
304,272,469620,2,8,L|384:272,1,70
304,272,469920,2,8,L|224:272,1,70
192,208,470220,2,0,L|192:112,1,70
192,208,470520,2,0,L|192:288,1,70
256,192,470820,1,8,0:0:0:0:
256,192,470970,1,0,0:0:0:0:
256,192,471120,1,8,0:0:0:0:
256,192,471270,1,0,0:0:0:0:
256,192,471420,12,0,473220,0:0:0:0:
216,112,473820,6,8,L|168:112,3,35
144,112,474120,2,8,L|104:112,3,35
72,112,474420,2,0,L|32:112,3,35
32,152,474720,2,0,L|80:152,3,35
104,152,475020,6,8,L|144:152,3,35
176,152,475320,2,8,L|216:152,3,35
248,152,475620,2,8,L|296:152,3,35
320,152,475920,2,8,L|384:152,3,35
352,192,476220,6,0,L|296:192,3,35
280,192,476520,2,8,L|216:192,3,35
208,192,476820,2,0,L|160:192,3,35
136,192,477120,2,0,L|88:192,3,35
88,232,477420,6,0,L|144:232,3,35
160,232,477720,2,0,L|208:232,3,35
232,232,478020,2,0,L|272:232,3,35
304,232,478320,2,8,L|352:232,3,35
352,272,478620,5,0,0:0:0:0:
312,272,478695,1,0,0:0:0:0:
272,272,478770,1,0,0:0:0:0:
232,272,478845,1,0,0:0:0:0:
192,272,478920,1,0,0:0:0:0:
152,272,478995,1,0,0:0:0:0:
112,272,479070,1,0,0:0:0:0:
72,272,479145,1,0,0:0:0:0:
56,312,479220,6,0,L|112:312,3,35
128,312,479520,2,0,L|184:312,3,35
200,312,479820,2,0,L|248:312,3,35
272,312,480120,2,0,L|328:312,3,35
328,280,480420,5,0,0:0:0:0:
288,280,480495,1,0,0:0:0:0:
248,280,480570,1,0,0:0:0:0:
208,280,480645,1,0,0:0:0:0:
168,280,480720,1,0,0:0:0:0:
128,280,480795,1,0,0:0:0:0:
88,280,480870,1,0,0:0:0:0:
48,280,480945,1,0,0:0:0:0:
48,240,481020,6,0,L|112:240,3,35
120,240,481320,1,2,0:0:0:0:
160,240,481395,1,2,0:0:0:0:
200,240,481470,1,0,0:0:0:0:
240,240,481545,1,2,0:0:0:0:
256,208,481620,6,0,L|208:208,3,35
184,208,481920,1,2,0:0:0:0:
144,208,481995,1,2,0:0:0:0:
104,208,482070,1,0,0:0:0:0:
64,208,482145,1,2,0:0:0:0:
48,176,482220,6,0,L|96:176,3,35
120,176,482520,2,0,L|168:176,3,35
192,176,482820,1,2,0:0:0:0:
232,176,482895,1,2,0:0:0:0:
272,176,482970,1,2,0:0:0:0:
312,176,483045,1,2,0:0:0:0:
352,176,483120,1,6,0:0:0:0:
392,176,483195,1,0,0:0:0:0:
432,176,483270,1,6,0:0:0:0:
472,176,483345,1,4,0:0:0:0:
464,136,483420,6,0,L|416:136,3,35
392,136,483720,2,0,L|344:136,3,35
320,136,484020,2,0,L|280:136,3,35
248,136,484320,2,2,L|200:136,3,35
176,136,484620,2,0,L|120:136,3,35
104,136,484920,2,0,L|48:136,3,35
88,104,485220,5,0,0:0:0:0:
128,104,485295,1,0,0:0:0:0:
168,104,485370,1,0,0:0:0:0:
208,104,485445,1,0,0:0:0:0:
248,104,485520,1,0,0:0:0:0:
288,104,485595,1,0,0:0:0:0:
328,104,485670,1,0,0:0:0:0:
368,104,485745,1,0,0:0:0:0:
392,72,485820,5,0,0:0:0:0:
352,72,485895,1,0,0:0:0:0:
312,72,485970,1,0,0:0:0:0:
272,72,486045,1,0,0:0:0:0:
232,72,486120,1,0,0:0:0:0:
192,72,486195,1,0,0:0:0:0:
152,72,486270,1,0,0:0:0:0:
112,72,486345,1,0,0:0:0:0:
88,104,486420,1,0,0:0:0:0:
128,104,486495,1,0,0:0:0:0:
168,104,486570,1,0,0:0:0:0:
208,104,486645,1,0,0:0:0:0:
248,104,486720,1,0,0:0:0:0:
288,104,486795,1,0,0:0:0:0:
328,104,486870,1,0,0:0:0:0:
368,104,486945,1,0,0:0:0:0:
376,144,487020,6,0,L|336:144,3,35
304,144,487320,2,0,L|256:144,3,35
232,144,487620,2,0,L|192:144,3,35
160,144,487920,2,2,L|112:144,3,35
104,176,488220,5,0,0:0:0:0:
144,176,488295,1,0,0:0:0:0:
184,176,488370,1,0,0:0:0:0:
224,176,488445,1,0,0:0:0:0:
264,176,488520,1,0,0:0:0:0:
304,176,488595,1,0,0:0:0:0:
344,176,488670,1,0,0:0:0:0:
384,176,488745,1,0,0:0:0:0:
376,216,488820,1,0,0:0:0:0:
336,216,488895,1,0,0:0:0:0:
296,216,488970,1,0,0:0:0:0:
256,216,489045,1,0,0:0:0:0:
216,216,489120,1,0,0:0:0:0:
176,216,489195,1,0,0:0:0:0:
136,216,489270,1,0,0:0:0:0:
96,216,489345,1,0,0:0:0:0:
80,248,489420,6,0,L|136:248,3,35
152,248,489720,2,0,L|208:248,3,35
224,248,490020,2,0,L|280:248,3,35
296,248,490320,2,4,L|352:248,3,35
368,248,490620,5,0,0:0:0:0:
368,208,490695,1,0,0:0:0:0:
368,168,490770,1,4,0:0:0:0:
368,128,490845,1,4,0:0:0:0:
328,128,490920,1,0,0:0:0:0:
328,168,490995,1,0,0:0:0:0:
328,208,491070,1,4,0:0:0:0:
328,248,491145,1,4,0:0:0:0:
288,248,491220,1,0,0:0:0:0:
288,208,491295,1,0,0:0:0:0:
288,168,491370,1,4,0:0:0:0:
288,128,491445,1,4,0:0:0:0:
248,128,491520,1,0,0:0:0:0:
248,168,491595,1,0,0:0:0:0:
248,208,491670,1,4,0:0:0:0:
248,248,491745,1,4,0:0:0:0:
208,248,491820,5,2,0:0:0:0:
208,208,491895,1,2,0:0:0:0:
208,168,491970,1,2,0:0:0:0:
208,128,492045,1,2,0:0:0:0:
168,128,492120,1,0,0:0:0:0:
168,168,492195,1,0,0:0:0:0:
168,208,492270,1,0,0:0:0:0:
168,248,492345,1,0,0:0:0:0:
128,248,492420,1,0,0:0:0:0:
128,208,492495,1,0,0:0:0:0:
128,168,492570,1,0,0:0:0:0:
128,128,492645,1,0,0:0:0:0:
88,128,492720,1,4,0:0:0:0:
88,168,492795,1,4,0:0:0:0:
88,208,492870,1,4,0:0:0:0:
88,248,492945,1,4,0:0:0:0:
256,192,500220,12,0,502020,0:0:0:0:
256,192,502320,5,0,0:0:0:0:
128,104,502620,5,0,0:0:0:0:
128,256,502920,1,0,0:0:0:0:
128,336,503070,1,0,0:0:0:0:
208,336,503220,2,0,P|256:280|208:232,1,140
336,336,503820,1,0,0:0:0:0:
336,184,504120,1,0,0:0:0:0:
336,104,504270,1,0,0:0:0:0:
416,104,504420,2,0,P|464:160|416:224,1,140
288,248,505020,6,0,L|216:248,1,70
144,248,505320,2,0,L|144:160,1,70
144,104,505620,2,0,L|240:104,1,70
288,104,505920,2,0,L|360:104,1,70
432,104,506220,2,0,L|432:264,1,140
160,104,506970,5,0,0:0:0:0:
160,144,507120,1,0,0:0:0:0:
160,184,507270,1,0,0:0:0:0:
160,264,507420,2,0,P|192:288|224:288,1,70
240,216,507720,2,0,P|280:216|304:240,1,70
304,312,508020,2,0,P|344:312|368:288,2,70
304,232,508470,1,0,0:0:0:0:
304,152,508620,1,0,0:0:0:0:
304,72,508770,1,0,0:0:0:0:
224,72,508920,2,0,L|168:120,2,70
56,192,509820,6,0,L|128:192,1,70
200,192,510120,1,0,0:0:0:0:
280,192,510270,1,0,0:0:0:0:
360,192,510420,2,0,L|360:112,1,70
280,120,510720,1,0,0:0:0:0:
200,120,510870,1,0,0:0:0:0:
120,120,511020,2,0,P|88:152|104:176,1,70
120,240,511320,2,0,P|120:280|96:312,1,70
184,304,511620,2,0,L|328:304,1,140
312,152,512220,5,0,0:0:0:0:
312,72,512370,1,0,0:0:0:0:
232,72,512520,1,0,0:0:0:0:
80,72,512820,2,0,L|80:168,1,70
80,216,513120,1,0,0:0:0:0:
80,296,513270,2,0,L|168:296,5,70
224,296,514170,5,0,0:0:0:0:
304,296,514320,1,0,0:0:0:0:
384,296,514470,1,0,0:0:0:0:
384,216,514620,2,0,L|384:136,1,70
304,144,514920,2,0,L|224:144,1,70
160,144,515220,2,0,L|160:72,1,70
80,72,515520,2,0,L|80:152,1,70
80,216,515820,1,0,0:0:0:0:
80,296,515970,1,0,0:0:0:0:
160,296,516120,1,0,0:0:0:0:
240,296,516270,1,0,0:0:0:0:
280,296,516345,1,0,0:0:0:0:
320,296,516420,1,0,0:0:0:0:
336,56,516870,5,0,0:0:0:0:
256,56,517020,2,0,P|208:112|256:168,1,140
392,192,517620,1,0,0:0:0:0:
392,272,517770,1,0,0:0:0:0:
312,272,517920,1,0,0:0:0:0:
232,272,518070,1,0,0:0:0:0:
152,272,518220,2,0,L|152:192,2,70
72,272,518670,1,0,0:0:0:0:
72,192,518820,1,0,0:0:0:0:
208,128,519120,5,0,0:0:0:0:
296,128,519270,1,0,0:0:0:0:
256,192,519420,1,0,0:0:0:0:
256,272,519570,1,0,0:0:0:0:
336,272,519720,1,0,0:0:0:0:
416,272,519870,1,0,0:0:0:0:
416,192,520020,1,0,0:0:0:0:
416,112,520170,1,0,0:0:0:0:
336,112,520320,1,0,0:0:0:0:
256,112,520470,1,0,0:0:0:0:
176,112,520620,2,0,L|176:192,1,70
176,256,520920,1,0,0:0:0:0:
256,256,521070,1,0,0:0:0:0:
256,192,521220,12,0,524220,0:0:0:0:
