osu file format v7

[General]
AudioFilename: Toono Gensou Monogatari.mp3
AudioLeadIn: 1000
PreviewTime: 55103
Countdown: 0
SampleSet: Soft
StackLeniency: 0.4
Mode: 0
LetterboxInBreaks: 1

[Editor]
DistanceSpacing: 1
BeatDivisor: 4
GridSize: 8

[Metadata]
Title:Toono Gensou Monogatari
Artist:ZUN
Creator:Tonoko
Version:Insane
Source:Perfect Cherry Blossom
Tags:EVA-X chen The Fantastic Legend of Tohno

[Difficulty]
HPDrainRate:7
CircleSize:5
OverallDifficulty:7
SliderMultiplier:0.8
SliderTickRate:0.5

[Events]
//Background and Video events
0,0,"BG3.jpg"
//Break Periods
2,110628,113146
//Storyboard Layer 0 (Background)
//Storyboard Layer 1 (Fail)
//Storyboard Layer 2 (Pass)
//Storyboard Layer 3 (Foreground)
//Storyboard Sound Samples
//Background Colour Transformations
3,100,163,162,255

[TimingPoints]
1705,425.531914893617,4,2,1,60,1,0
2024,-100,4,1,1,40,0,0
2449,-100,4,2,1,60,0,0
2875,-100,4,1,1,40,0,0
3300,-100,4,2,1,60,0,0
5428,-100,4,1,1,40,0,0
5855,-100,4,2,1,60,0,0
6279,-100,4,1,1,40,0,0
6705,-100,4,2,1,60,0,0
10002,-100,4,1,1,40,0,0
10960,-100,4,2,1,60,0,0
11811,-100,4,1,1,40,0,0
12236,-100,4,2,1,60,0,0
12662,-100,4,1,1,40,0,0
13087,-100,4,2,1,60,0,0
14364,-100,4,1,1,40,0,0
14683,-100,4,2,1,60,0,0
16066,-100,4,1,1,40,0,0
16385,-100,4,2,1,60,0,0
17768,-100,4,1,1,40,0,0
17768,-100,4,1,1,40,0,0
18087,-100,4,2,1,70,0,0
18513,-100,4,1,1,50,0,0
18885,-100,4,2,1,70,0,0
19484,-100,4,1,1,70,0,0
19736,-100,4,2,1,85,0,0
21066,-100,4,2,1,100,0,0
21705,-50,4,2,1,60,0,0
27981,-50,4,1,1,30,0,0
28194,-50,4,1,1,40,0,0
28407,-50,4,1,1,50,0,0
28619,-50,4,1,1,60,0,0
29683,-50,4,1,1,70,0,0
30534,-50,4,2,1,50,0,0
30960,-50,4,2,1,66,0,0
31385,-50,4,2,1,75,0,0
31811,-50,4,2,1,84,0,0
32236,-50,4,2,1,100,0,0
32662,-50,4,1,1,60,0,0
32875,-50,4,1,1,55,0,0
33087,-50,4,1,1,48,0,0
33300,-50,4,1,1,43,0,0
33513,-50,4,1,1,37,0,0
33726,-50,4,1,1,30,0,0
33939,-50,4,2,1,70,0,0
36173,-50,4,2,1,50,0,0
37662,-50,4,2,1,64,0,0
38194,-50,4,2,1,80,0,0
38619,-50,4,2,1,90,0,0
39045,-50,4,2,1,100,0,0
39470,-50,4,1,1,70,0,0
39683,-50,4,1,1,63,0,0
39896,-50,4,1,1,55,0,0
40109,-50,4,1,1,50,0,0
40322,-50,4,1,1,46,0,0
40534,-50,4,1,1,41,0,0
40960,-50,4,1,1,33,0,0
41385,-50,4,1,1,33,0,0
41545,-50,4,1,1,40,0,0
41651,-50,4,1,1,46,0,0
41758,-50,4,1,1,53,0,0
41864,-50,4,1,1,60,0,0
41970,-50,4,1,1,65,0,0
42077,-50,4,1,1,72,0,0
42343,-50,4,2,1,70,0,0
46279,-50,4,1,1,50,0,0
46705,-50,4,2,1,70,0,0
47130,-50,4,1,1,50,0,0
47556,-50,4,2,1,70,0,0
53087,-50,4,1,1,49,0,0
53300,-50,4,2,1,69,0,0
53513,-50,4,1,1,51,0,0
53726,-50,4,2,1,69,0,0
53939,-50,4,1,1,51,0,0
54151,-100,4,2,1,69,0,0
55215,-50,4,2,1,50,0,0
55641,-50,4,2,1,69,0,0
56066,-50,4,2,1,84,0,0
56705,-50,4,2,1,69,0,0
58194,-50,4,1,1,50,0,0
59470,-50,4,2,1,71,0,0
60109,-50,4,1,1,49,0,0
61173,-50,4,2,1,80,0,0
62024,-50,4,1,1,51,0,0
62449,-50,4,2,1,70,0,0
62662,-50,4,1,1,50,0,0
62875,-50,4,2,1,69,0,0
63726,-50,4,1,1,50,0,0
64364,-50,4,2,1,69,0,0
65215,-50,4,1,1,50,0,0
66279,-50,4,2,1,70,0,0
67130,-50,4,2,1,80,0,0
67556,-50,4,2,1,90,0,0
67981,-50,4,2,1,100,0,0
68832,-50,4,1,1,57,0,0
69098,-50,4,1,1,77,0,0
69205,-50,4,1,1,96,0,0
69577,-50,4,2,1,70,0,0
71173,-50,4,1,1,50,0,0
72024,-50,4,2,1,69,0,0
72449,-50,4,1,1,50,0,0
73087,-50,4,2,1,70,0,0
73726,-50,4,1,1,49,0,0
74790,-50,4,2,1,70,0,0
75641,-50,4,1,1,51,0,0
76066,-50,4,2,1,79,0,0
76279,-50,4,1,1,49,0,0
76492,-50,4,2,1,70,0,0
77343,-50,4,1,1,50,0,0
77981,-50,4,2,1,70,0,0
78832,-50,4,1,1,50,0,0
79896,-50,4,2,1,70,0,0
80534,-50,4,1,1,40,0,0
80747,-50,4,1,1,47,0,0
80960,-50,4,1,1,57,0,0
81173,-50,4,1,1,66,0,0
81385,-50,4,1,1,76,0,0
82077,-50,4,1,1,82,0,0
82502,-50,4,1,1,92,0,0
82928,-50,4,2,1,100,0,0
84151,-50,4,2,1,80,0,0
84790,-50,4,1,1,60,0,0
86066,-50,4,2,1,79,0,0
86705,-50,4,2,1,80,0,0
87343,-50,4,1,1,60,0,0
88407,-50,4,2,1,79,0,0
89683,-50,4,2,1,90,0,0
89896,-50,4,1,1,59,0,0
90109,-50,4,2,1,80,0,0
90747,-50,4,1,1,59,0,0
91806,-50,4,2,1,80,0,0
92449,-50,4,1,1,59,0,0
92875,-50,4,1,1,73,0,0
93300,-50,4,1,1,85,0,0
94045,-50,4,2,1,81,0,0
94364,-50,4,2,1,79,0,0
96970,-50,4,2,1,100,0,0
98407,-50,4,1,1,59,0,0
99470,-50,4,2,1,70,0,0
100322,-50,4,2,1,79,0,0
100960,-50,4,1,1,60,0,0
102024,-50,4,2,1,79,0,0
103300,-50,4,2,1,90,0,0
103513,-50,4,1,1,60,0,0
103726,-50,4,2,1,80,0,0
104364,-50,4,1,1,59,0,0
105428,-50,4,2,1,79,0,0
106066,-50,4,1,1,59,0,0
107130,-50,4,2,1,80,0,0
107768,-50,4,2,1,67,0,0
108194,-50,4,2,1,75,0,0
108619,-50,4,2,1,83,0,0
108832,-50,4,2,1,70,0,0
109258,-50,4,2,1,79,0,0
109683,-50,4,2,1,89,0,0
110109,-50,4,2,1,100,0,0
110322,-50,4,2,1,0,0,0
113619,-50,4,2,1,60,0,0
114364,-50,4,1,1,40,0,0
114790,-50,4,2,1,60,0,0
115215,-50,4,1,1,40,0,0
115641,-50,4,2,1,60,0,0
116066,-50,4,1,1,40,0,0
116492,-50,4,2,1,60,0,0
116917,-50,4,1,1,39,0,0
117343,-50,4,2,1,79,0,0
118194,-50,4,1,1,60,0,0
118619,-50,4,2,1,90,0,0
119896,-50,4,1,1,70,0,0
120215,-50,4,1,1,84,0,0
120428,-50,4,1,1,97,0,0
120747,-50,4,2,1,100,0,0
122768,-50,4,2,1,70,0,0
123194,-50,4,2,1,61,0,0
123566,-50,4,2,1,71,0,0
123779,-50,4,2,1,81,0,0
123992,-50,4,2,1,92,0,0
124205,-50,4,2,1,100,0,0
125056,-50,4,2,1,88,0,0
125268,-50,4,2,1,78,0,0
125481,-50,4,2,1,68,0,0
125694,-50,4,2,1,56,0,0
126439,-50,4,2,1,65,0,0
126651,-50,4,2,1,72,0,0
126864,-50,4,2,1,82,0,0
127077,-50,4,2,1,92,0,0
127290,-50,4,2,1,100,0,0
127981,-50,4,1,1,60,0,0
128194,-50,4,1,1,80,0,0
128407,-50,4,1,1,100,0,0
128832,-50,4,1,1,50,0,0
129258,-50,4,2,1,60,0,0
130109,-50,4,2,1,36,0,0
130375,-50,4,2,1,53,0,0
130587,-50,4,2,1,68,0,0
130800,-50,4,2,1,84,0,0
131013,-100,4,2,1,70,0,0
131492,-100,4,1,1,50,0,0
132556,-100,4,2,1,70,0,0
133194,-100,4,1,1,50,0,0
133619,-50,4,2,1,60,0,0
134258,-50,4,1,1,49,0,0
134683,-50,4,2,1,69,0,0
135215,-50,4,1,1,70,0,0
135481,-50,4,2,1,91,0,0
136066,-50,4,2,1,100,0,0
137236,-50,4,2,1,0,0,0

[Colours]
Combo1 : 0,105,221
Combo2 : 188,188,188
Combo3 : 221,6,22
Combo4 : 52,128,143

[HitObjects]
73,63,1705,1,0
41,140,1918,1,0
99,195,2131,1,0
168,154,2344,1,0
152,80,2557,1,0
224,40,2769,1,2
284,100,2982,1,0
248,168,3195,1,0
184,224,3408,6,0,B|224:280|296:264,1,120,4|0
368,264,4259,1,2
488,168,4684,1,2
344,168,5110,5,0
376,104,5323,1,0
304,104,5535,1,0
344,40,5748,1,0
264,40,5961,1,0
224,104,6174,1,2
264,168,6386,1,0
344,168,6599,1,0
392,240,6812,6,0,B|376:312|304:328,1,120,4|0
232,328,7663,1,2
80,280,8088,1,2
40,136,8514,6,0,B|56:72|136:64,1,120
200,64,9365,1,0
272,80,9578,1,0
336,120,9791,2,0,B|376:152|368:200,1,80
344,264,10429,1,0
280,312,10642,1,0
208,328,10854,1,0
136,312,11067,5,0
112,296,11174,1,0
96,280,11280,1,0
80,256,11386,1,0
75,230,11493,1,2
78,200,11599,1,0
89,174,11706,1,2
144,120,11918,5,0
218,90,12131,1,0
247,163,12344,1,2
218,90,12557,1,0
292,59,12769,1,0
218,90,12982,1,0
187,15,13195,1,0
218,90,13408,1,0
247,163,13620,2,0,B|264:208|352:216,1,120,4|0
424,232,14471,1,4
320,296,14897,5,2
296,304,15003,1,0
272,304,15110,1,2
248,296,15216,1,0
232,280,15323,2,0,B|200:248|152:240|112:264,1,120,4|0
40,208,16174,1,4
104,104,16599,5,2
120,88,16706,1,0
144,80,16812,1,2
176,80,16918,1,0
200,88,17025,2,0,B|232:120|288:120|320:88,1,120,4|0
400,136,17876,1,4
464,256,18301,5,0
352,184,18727,1,0
256,224,19046,1,2
160,184,19365,1,2
184,120,19578,1,0
256,64,19862,1,2
328,120,20145,1,2
256,168,20429,5,4
384,352,20854,1,4
128,352,21280,1,4
88,112,22131,5,2
104,88,22237,1,0
136,72,22344,1,0
216,64,22557,1,2
248,72,22663,1,0
272,88,22769,2,0,B|344:152|320:240,1,160,0|0
264,288,23408,2,0,B|304:320,2,40,0|0|2
184,288,23833,6,0,B|184:200,1,80,0|0
184,72,24259,2,0,B|184:160,1,80
264,176,24684,2,0,B|176:176,1,80,0|0
104,176,25110,5,0
80,176,25216,1,0
56,176,25323,1,2
88,104,25535,1,0
88,80,25642,1,0
88,56,25748,1,2
168,80,25961,1,0
192,80,26067,1,0
216,80,26174,1,2
200,176,26386,6,0,B|296:176,1,80
304,176,26706,1,2
328,176,26812,2,0,B|408:176,1,80,0|0
304,120,27237,6,0,B|400:120,1,80
408,120,27557,1,2
432,120,27663,2,0,B|512:120,1,80,0|0
472,256,28088,5,0
384,168,28301,1,0
384,336,28514,1,0
296,256,28727,1,0
296,256,28940,6,0,B|272:320|160:320|128:248,1,200,4|0
131,257,29578,1,0
208,224,29791,2,0,B|171:151|80:154|48:232,1,200,4|0
51,225,30429,1,0
176,112,30642,6,0,B|112:48,1,80,2|0
336,112,31067,2,0,B|400:48,1,80,2|0
336,272,31493,2,0,B|400:336,1,80,2|0
176,272,31918,2,0,B|112:336,1,80,2|0
256,192,32344,5,2
448,64,32769,1,0
384,112,32982,1,0
448,152,33195,1,0
448,232,33408,1,0
384,192,33620,1,4
384,272,33833,1,4
256,192,34046,12,2,35748
408,192,36386,5,0
408,192,36599,1,2
296,192,36812,2,0,B|208:192,1,80,0|0
104,192,37237,1,0
104,192,37450,1,2
400,64,37876,6,0,B|448:88|440:136,1,80,2|0
384,288,38301,2,0,B|368:328|320:336,1,80,2|0
128,288,38727,2,0,B|80:280|72:224,1,80,2|0
144,64,39152,2,0,B|168:24|224:32,1,80,2|0
312,96,39578,5,0
368,192,39791,1,0
368,192,40003,1,0
256,192,40216,1,0
192,96,40429,1,0
192,96,40642,2,0,B|96:96,1,80,0|0
256,192,41067,2,0,B|168:192,1,80
320,288,41493,5,0
304,304,41598,1,0
280,312,41705,1,0
256,312,41812,1,0
231,307,41918,1,0
210,293,42025,1,0
190,276,42130,2,0,B|112:216|39:286,2,160,4|4|2
256,192,43195,5,2
256,192,43408,1,2
256,192,43620,2,0,B|256:96,1,80
256,24,44046,1,0
384,96,44259,2,0,B|288:96,1,80,2|0
128,144,44684,2,0,B|224:144,1,80,2|0
384,192,45110,2,0,B|296:192,1,80,2|0
128,240,45535,2,0,B|216:240,1,80,2|0
256,32,45961,2,0,B|256:128,1,80,2|0
256,216,46386,5,0
352,264,46599,1,0
256,312,46812,1,0
256,216,47025,1,0
160,264,47237,1,0
256,312,47450,1,0
256,192,47663,12,2,49365
104,192,50003,5,0
104,192,50216,1,2
216,192,50429,2,0,B|304:192,1,80
408,192,50854,1,0
408,192,51067,1,2
232,112,51493,5,0
256,112,51599,1,0
280,112,51706,1,2
392,112,51918,5,0
368,112,52025,1,0
344,112,52131,1,2
312,32,52344,5,0
312,56,52450,1,0
312,80,52557,1,2
312,192,52769,5,4
312,168,52876,1,0
312,144,52982,1,2
232,64,53195,5,0
112,112,53408,1,2
208,120,53620,1,0
128,168,53833,1,2
184,176,54046,1,0
152,224,54259,2,0,B|160:264|200:288|248:296|296:264,1,160,0|0
368,192,55323,5,2
368,192,55429,1,0
368,192,55535,1,2
368,192,55748,2,0,B|368:144|328:104,1,80
248,48,56174,2,0,B|204:12|136:8|88:48,1,160,4|0
40,144,56812,5,0
88,256,57025,1,0
88,256,57237,1,2
88,256,57344,1,0
88,256,57450,1,2
208,304,57663,1,0
208,304,57876,1,0
208,304,58088,1,0
320,304,58301,2,0,B|376:304|400:256,2,80
320,192,58940,2,0,B|320:136|272:112,2,80
208,192,59578,5,0
208,192,59791,1,2
208,192,59897,1,0
208,192,60003,1,2
112,248,60216,2,0,B|72:216|96:160,1,80
168,88,60642,1,0
280,104,60854,2,0,B|328:128|328:176,1,80
304,272,61280,5,0
200,328,61493,1,0
80,304,61706,1,0
32,192,61918,1,0
72,80,62131,2,0,B|88:40|136:32,1,80
248,32,62557,2,0,B|296:32|320:72,1,80,4|0
368,176,62982,5,0
368,176,63195,1,2
368,176,63301,1,0
368,176,63408,1,2
456,256,63620,1,0
344,296,63833,2,0,B|328:344|272:344,2,80
256,208,64471,5,2
144,248,64684,1,0
144,248,64897,1,2
144,248,65003,1,0
144,248,65110,1,2
88,352,65323,2,0,B|40:341|30:287,1,80
31,173,65748,2,0,B|48:128|104:128,1,80
216,104,66174,1,0
336,80,66386,2,0,B|328:32|264:24,2,80
368,200,67025,5,0
464,272,67237,1,0
368,344,67450,1,0
272,272,67663,1,2
176,200,67876,1,2
80,272,68088,2,0,B|80:320|128:336,1,80,4|0
240,352,68514,2,0,B|240:304|192:288,1,80,4|0
104,216,68940,5,0
128,192,69046,1,0
104,168,69152,1,4
128,144,69259,1,0
104,128,69365,2,0,B|48:80|96:16|176:64|120:112,2,160,4|4|0
104,240,70429,5,0
208,296,70642,1,0
208,296,70854,1,2
208,296,70961,1,0
208,296,71067,1,2
328,272,71280,2,0,B|372:234|360:184,1,80
272,128,71706,2,0,B|256:168|288:208,1,80
368,120,72131,2,0,B|416:120,2,40,2|0|2
432,224,72557,1,0
376,328,72769,1,0
264,296,72982,1,0
320,192,73195,5,0
320,192,73408,1,2
320,192,73514,1,0
320,192,73620,1,2
216,128,73833,2,0,B|184:96|136:112,1,80
192,224,74259,1,0
168,320,74471,2,0,B|200:344|248:336,1,80
360,288,74897,5,2
328,176,75110,2,0,B|329:120|392:120,1,80
256,128,75535,1,2
248,248,75748,2,0,B|200:264|184:216,1,80
168,96,76174,2,0,B|168:152|112:144,1,80,4|0
80,264,76599,5,0
80,264,76812,1,2
80,264,76918,1,0
80,264,77025,1,2
32,152,77237,1,0
96,48,77450,2,0,B|128:16|176:40,2,80
208,80,78088,6,0,B|245:104|288:80,1,80,2|0
284,83,78514,1,2
284,83,78620,1,0
284,83,78727,1,2
400,48,78940,2,0,B|456:48|464:96,1,80
344,128,79365,2,0,B|304:160|336:208,1,80
448,184,79791,1,0
411,280,80003,2,0,B|448:304|488:296,2,80,2|0|2
296,296,80642,5,0
176,288,80854,1,0
80,208,81067,1,0
112,96,81280,1,0
224,48,81493,1,0
296,150,81705,6,0,L|344:190|296:238,1,120
304,229,82131,2,0,L|208:148,1,120
211,150,82557,2,0,L|163:190|211:238,1,120
205,231,82982,2,0,L|300:150,1,120,4|0
256,192,83408,12,2,84046
368,144,84259,5,0
368,144,84471,1,2
368,144,84578,1,0
368,144,84684,2,0,B|400:184|360:224,1,80,2|0
272,296,85110,1,0
160,256,85323,1,0
128,144,85535,1,0
216,56,85748,2,0,B|184:24,2,40
336,40,86174,1,0
440,96,86386,1,0
464,216,86599,1,0
344,192,86812,5,0
344,192,87025,1,2
344,192,87131,1,0
344,192,87237,1,2
248,264,87450,2,0,B|208:240|224:192,1,80
320,128,87876,1,0
416,192,88088,1,0
352,296,88301,1,0
272,208,88514,6,0,B|272:160|232:136,1,80
144,216,88940,1,2
192,328,89152,2,0,B|152:352|112:328,1,80
144,216,89578,1,2
24,192,89791,2,0,B|24:144|72:120,1,80,4|0
184,80,90216,6,2,B|224:64|272:96,1,80
261,89,90535,1,0
260,89,90642,2,0,B|298:126|344:104,1,80,2|0
332,109,91067,2,0,B|350:65|396:56,2,80,0|0|0
332,109,91705,2,0,B|362:146|340:185,1,80,0|0
341,183,92131,1,2
341,183,92237,1,0
341,183,92344,1,2
288,288,92557,5,0
180,252,92769,1,0
221,151,92982,1,0
74,214,93195,1,0
158,21,93408,1,0
256,192,93620,12,2,94259
160,136,94471,5,0
256,56,94684,1,0
344,136,94897,1,0
256,56,95110,1,0
256,176,95323,2,0,B|256:304,1,120
317,237,95748,2,0,B|189:237,1,120
137,237,96174,2,2,B|89:237,7,40
137,238,97025,6,0,B|40:208|40:128|128:104|192:144,1,240,4|0
304,168,97876,1,0
304,168,98088,1,2
304,168,98195,1,0
304,168,98301,1,2
416,208,98514,2,0,B|460:170|448:120,1,80
368,56,98939,2,0,B|328:32|288:48,2,80
392,176,99578,1,0
280,128,99790,1,0
168,168,100003,1,4
136,280,100216,1,4
256,296,100429,5,0
256,296,100642,1,2
256,296,100748,1,0
256,296,100854,1,2
344,256,101067,2,0,B|381:273|420:249,1,80
256,192,101493,1,0
152,256,101705,2,0,B|112:272|72:256,1,80
256,192,102131,5,0
336,104,102344,2,0,B|376:128|424:104,1,80
256,192,102769,1,0
176,104,102982,2,0,B|136:128|96:104,1,80
160,216,103407,2,0,B|160:264|104:272,1,80,4|0
256,296,103833,5,0
256,296,104046,1,2
256,296,104152,1,0
256,296,104259,1,2
352,216,104471,1,0
320,104,104684,2,0,B|352:72|408:104,2,80
320,104,105323,6,0,B|278:131|246:99,1,80,0|0
248,101,105748,1,2
248,101,105854,1,0
248,101,105961,1,2
136,64,106173,2,0,B|88:48|48:88,1,80
176,144,106599,2,0,B|200:176|192:224,1,80
80,184,107025,1,0
72,304,107237,2,0,B|24:296|0:264,2,80,4|0|2
168,208,107876,5,0
336,216,108088,1,0
216,112,108301,1,0
248,272,108514,1,2
312,120,108727,1,2
424,168,108940,6,0,B|456:200|424:248,1,80,4|0
296,352,109365,2,0,B|264:376|216:344,1,80,4|0
88,232,109791,2,0,B|56:184|88:152,1,80,4|0
224,32,110216,2,0,B|264:8|312:40,1,80,4|0
376,128,114046,5,0
432,224,114259,1,2
352,312,114471,2,0,B|320:344|272:336,1,80
192,256,114897,1,0
304,216,115110,1,2
224,128,115322,2,0,B|184:104|136:128,1,80
64,208,115748,5,0
184,216,115961,1,2
96,296,116173,2,0,B|120:336|176:320,1,80
280,296,116599,1,0
400,320,116812,1,0
432,208,117025,2,0,B|400:176|352:208,1,80,0|0
288,120,117450,5,0
184,176,117663,1,2
288,120,117876,1,0
392,64,118088,1,2
288,120,118301,2,8,B|360:168,1,80,0|0
448,240,118727,5,0
344,280,118939,1,2
240,248,119152,1,0
344,280,119365,1,2
448,320,119578,1,0
344,280,119790,1,2
240,320,120003,2,8,B|112:320,2,120,0|0|0
128,200,120854,5,0
240,232,121067,1,2
344,168,121280,1,2
224,136,121493,1,2
256,192,121705,12,0,122982
136,152,123407,5,0
144,128,123514,1,0
160,104,123620,1,2
184,88,123727,1,0
208,80,123833,5,0
232,80,123939,1,0
256,80,124046,1,2
280,88,124152,1,0
304,104,124259,5,0
240,176,124471,5,2
240,176,124578,1,0
240,176,124684,1,0
168,240,124897,5,2
184,256,125003,1,0
208,272,125110,1,0
232,280,125216,1,0
256,280,125323,5,2
280,272,125429,1,0
300,258,125535,1,0
319,241,125642,1,0
331,222,125748,1,2
341,205,125854,5,0
152,56,126280,5,0
176,48,126386,1,2
200,48,126493,1,0
224,56,126599,1,0
240,72,126705,5,0
256,88,126812,1,2
280,96,126918,1,0
304,96,127025,1,0
328,88,127131,5,0
352,88,127237,1,2
376,96,127344,1,0
392,112,127450,1,0
456,216,127663,5,2
456,216,127769,1,0
456,216,127876,1,0
456,216,128088,5,0
456,216,128301,1,0
456,216,128514,1,0
248,136,128939,5,0
176,176,129152,1,0
168,96,129365,5,2
184,272,129684,1,2
336,176,130003,1,2
392,72,130216,5,2
416,64,130322,1,0
440,64,130429,1,0
464,72,130535,1,0
480,88,130642,5,2
496,112,130748,1,0
496,136,130854,1,0
480,160,130960,1,0
464,176,131067,2,0,B|376:208|376:256,1,120,4|0
352,336,132344,1,0
224,304,132769,2,0,B|176:288|104:352,1,120,4|0
256,40,134046,5,2
88,208,134471,1,0
256,280,134790,1,2
424,208,135110,1,0
384,96,135323,1,0
256,192,135606,1,2
128,96,135890,1,0
256,80,136173,6,2,B|219:141|256:194,1,120,4|0
352,249,136599,6,2,B|317:186|253:192,1,120,4|0
159,248,137025,6,2,B|230:249|257:191,1,120,4|0
