osu file format v10

[General]
AudioFilename: The Youkai Mountain ~ Mysterious Mountain.mp3
AudioLeadIn: 1015
PreviewTime: 50907
Countdown: 0
SampleSet: Normal
StackLeniency: 0.7
Mode: 0
LetterboxInBreaks: 1

[Editor]
DistanceSpacing: 1
BeatDivisor: 4
GridSize: 8

[Metadata]
Title:The Youkai Mountain ~ Mysterious Mountain
TitleUnicode:
Artist:ZUN
ArtistUnicode:
Creator:Lybydose
Version:Normal
Source:Touhou
Tags:faith aya shameimaru th10 Fuujinroku yyy yeahyeahyeahhh Kite DarkDunskin
BeatmapID:76970
BeatmapSetID:22278

[Difficulty]
HPDrainRate:4
CircleSize:3
OverallDifficulty:5
ApproachRate:5
SliderMultiplier:1.4
SliderTickRate:1

[Events]
//Background and Video events
0,0,"aya.png"
//Break Periods
2,17972,25144
2,79400,82286
2,92257,99429
//Storyboard Layer 0 (Background)
Sprite,Background,Centre,"SB\cdbg04a.png",320,240 S,0,50997,,1.672 M,0,50997,74925,320,240
Sprite,Background,Centre,"SB\cardbg2.png",320,240 F,0,50818,,0.6199999 S,0,50818,,1.72 M,0,50818,74925,441,440,199,40
Sprite,Background,Centre,"SB\cdbg04a.png",320,240 S,0,125282,,1.672 M,0,125282,149210,320,240
Sprite,Background,Centre,"SB\cardbg2.png",320,240 F,0,125103,,0.6199999 S,0,125103,,1.72 M,0,125103,149210,441,440,199,40
Sprite,Background,Centre,"aya.png",320,240 S,0,-1000,,0.625 M,0,-1000,153495,320,240 F,0,50997,51532,1,0 F,0,51532,74925,0 F,0,74925,75014,0,1 F,0,75014,125282,1 F,0,125282,125817,1,0 F,0,125817,,0 F,0,125817,149210,0 F,0,149210,149299,0,1
//Storyboard Layer 1 (Fail)
//Storyboard Layer 2 (Pass)
//Storyboard Layer 3 (Foreground)
Sprite,Foreground,Centre,"SB\warning.png",320,240 R,0,50997,,-0.28 F,0,50997,51369,0,0.6 M,0,50997,53233,390,288,238,332 F,0,51369,52861,0.6 F,0,52861,53233,0.6,0
Sprite,Foreground,Centre,"SB\warning.png",320,240 R,0,50997,,-0.28 F,0,50997,51369,0,0.6 M,0,50997,53233,238,122,390,78 F,0,51369,52861,0.6 F,0,52861,53233,0.6,0
Sprite,Foreground,Centre,"SB\warning.png",320,240 R,0,50997,,-0.28 F,0,50997,51369,0,0.6 M,0,50997,53233,390,228,238,272 F,0,51369,52861,0.6 F,0,52861,53233,0.6,0
Sprite,Foreground,Centre,"SB\warning.png",320,240 R,0,50997,,-0.28 F,0,50997,51369,0,0.6 M,0,50997,53233,238,302,390,258 F,0,51369,52861,0.6 F,0,52861,53233,0.6,0
Sprite,Foreground,Centre,"SB\warning.png",320,240 R,0,50997,,-0.28 F,0,50997,51369,0,0.6 M,0,50997,53233,238,242,390,198 F,0,51369,52861,0.6 F,0,52861,53233,0.6,0
Sprite,Foreground,Centre,"SB\warning.png",320,240 R,0,50997,,-0.28 F,0,50997,51369,0,0.6 M,0,50997,53233,390,108,238,152 F,0,51369,52861,0.6 F,0,52861,53233,0.6,0
Sprite,Foreground,Centre,"SB\warning.png",320,240 R,0,50997,,-0.28 F,0,50997,51369,0,0.6 M,0,50997,53233,390,168,238,212 F,0,51369,52861,0.6 F,0,52861,53233,0.6,0
Sprite,Foreground,Centre,"SB\warning.png",320,240 R,0,50997,,-0.28 F,0,50997,51369,0,0.6 M,0,50997,53233,238,182,390,138 F,0,51369,52861,0.6 F,0,52861,53233,0.6,0
Sprite,Foreground,Centre,"SB\face04ct.png",320,240 M,1,50997,51369,760,347,431,409 F,0,50997,52301,1,0.7 M,2,51369,52487,431,409,428,300 F,0,52301,53497,0.7,0 M,1,52487,53605,428,300,426,218
Sprite,Foreground,Centre,"SB\cardname_bg.png",320,240 F,0,50997,,0 F,0,50997,51369,0,1 M,1,50997,51742,-81,501,472,417 S,1,50997,51742,3.126399,1.166 M,0,51276,51742,472,417 M,2,51742,52301,472,415,472,230 M,1,52301,52860,472,230,472,79 M,0,52860,74925,472,79 M,0,74925,75125,472,79,750,79
Sprite,Foreground,Centre,"SB\leaves.png",320,240 M,0,50997,51276,-45,500,400,415 F,0,50997,51276,0,1 S,0,50997,51276,2.76,0.6543998 M,0,51276,51742,400,415 M,2,51742,52301,400,415,400,227 M,1,52301,52860,400,227,400,76 M,0,52860,74925,400,76
Sprite,Foreground,Centre,"SB\warning.png",320,240 R,0,125282,,-0.28 F,0,125282,125654,0,0.6 M,0,125282,127518,390,288,238,332 F,0,125654,127146,0.6 F,0,127146,127518,0.6,0
Sprite,Foreground,Centre,"SB\warning.png",320,240 R,0,125282,,-0.28 F,0,125282,125654,0,0.6 M,0,125282,127518,238,122,390,78 F,0,125654,127146,0.6 F,0,127146,127518,0.6,0
Sprite,Foreground,Centre,"SB\warning.png",320,240 R,0,125282,,-0.28 F,0,125282,125654,0,0.6 M,0,125282,127518,390,228,238,272 F,0,125654,127146,0.6 F,0,127146,127518,0.6,0
Sprite,Foreground,Centre,"SB\warning.png",320,240 R,0,125282,,-0.28 F,0,125282,125654,0,0.6 M,0,125282,127518,238,302,390,258 F,0,125654,127146,0.6 F,0,127146,127518,0.6,0
Sprite,Foreground,Centre,"SB\warning.png",320,240 R,0,125282,,-0.28 F,0,125282,125654,0,0.6 M,0,125282,127518,238,242,390,198 F,0,125654,127146,0.6 F,0,127146,127518,0.6,0
Sprite,Foreground,Centre,"SB\warning.png",320,240 R,0,125282,,-0.28 F,0,125282,125654,0,0.6 M,0,125282,127518,390,108,238,152 F,0,125654,127146,0.6 F,0,127146,127518,0.6,0
Sprite,Foreground,Centre,"SB\warning.png",320,240 R,0,125282,,-0.28 F,0,125282,125654,0,0.6 M,0,125282,127518,390,168,238,212 F,0,125654,127146,0.6 F,0,127146,127518,0.6,0
Sprite,Foreground,Centre,"SB\warning.png",320,240 R,0,125282,,-0.28 F,0,125282,125654,0,0.6 M,0,125282,127518,238,182,390,138 F,0,125654,127146,0.6 F,0,127146,127518,0.6,0
Sprite,Foreground,Centre,"SB\face04ct.png",320,240 M,1,125282,125654,760,347,431,409 F,0,125282,126586,1,0.7 M,2,125654,126772,431,409,428,300 F,0,126586,127782,0.7,0 M,1,126772,127890,428,300,426,218
Sprite,Foreground,Centre,"SB\cardname_bg.png",320,240 F,0,125282,,0 F,0,125282,125654,0,1 M,1,125282,126027,-81,501,472,417 S,1,125282,126027,3.126399,1.166 M,0,125561,126027,472,417 M,2,126027,126586,472,415,472,230 M,1,126586,127145,472,230,472,79 M,0,127145,149210,472,79 M,0,149210,149410,472,79,750,79
Sprite,Foreground,Centre,"SB\illusionary.png",320,240 M,0,125282,125561,55,500,500,415 F,0,125282,125561,0,1 S,0,125282,125561,2.76,0.6543998 M,0,125561,126027,500,415 M,2,126027,126586,500,415,500,227 M,1,126586,127145,500,227,500,76 M,0,127145,149210,500,76
//Storyboard Sound Samples
//Background Colour Transformations
3,100,163,162,255

[TimingPoints]
630,357.142857142857,3,1,0,59,1,0
9022,-100,3,1,0,59,0,0
34915,-100,3,2,0,51,0,0
38130,-100,3,2,0,60,0,0
39201,-100,3,2,0,51,0,0
41701,-100,3,2,0,29,0,0
43308,-100,3,2,0,51,0,0
46344,-100,3,2,0,60,0,0
47237,-100,3,2,0,51,0,0
52058,357.142857142857,4,1,0,59,1,1
74915,357.142857142857,3,1,0,71,1,1
74915,-100,3,1,0,71,0,0
108486,-100,3,2,0,51,0,0
113486,-100,3,2,0,60,0,0
114558,-100,3,2,0,51,0,0
115986,-100,3,2,0,29,0,0
117593,-100,3,2,0,51,0,0
120986,-100,3,2,0,60,0,0
121522,-100,3,2,0,51,0,0
126343,357.142857142857,4,1,0,71,1,1
149200,357.142857142857,3,1,0,71,1,0
149200,-100,3,1,0,71,0,0

[Colours]
Combo1 : 253,9,2
Combo2 : 235,203,20
Combo3 : 255,128,0

[HitObjects]
208,64,629,2,0,B|80:35|28:185,1,210,4|0,0:0|0:0,0:0:0
113,284,1522,1,0,0:0:0
113,284,1701,2,0,B|236:305|279:188,1,210
256,56,2594,1,0,0:0:0
256,56,2772,6,0,B|400:24|432:168,1,210
432,280,3665,1,0,0:0:0
368,312,3844,1,0,0:0:0
256,232,4201,1,0,0:0:0
144,312,4558,1,0,0:0:0
152,176,4915,5,4,0:0:0
256,88,5272,1,0,0:0:0
360,176,5630,1,0,0:0:0
368,312,5987,2,0,B|472:328|472:216,2,140,0|0|0,0:0|0:0|0:0,0:0:0
360,176,7058,5,0,0:0:0
256,272,7415,1,0,0:0:0
152,176,7772,1,0,0:0:0
144,312,8130,2,0,B|40:328|40:216,2,140,0|0|0,0:0|0:0|0:0,0:0:0
264,232,9201,6,0,B|408:264,2,140,0|2|2,0:0|0:0|0:0,0:0:0
240,96,10272,2,0,B|96:128,2,140,0|2|2,0:0|0:0|0:0,0:0:0
376,64,11344,6,0,B|480:48|480:160,2,140,0|2|2,0:0|0:0|0:0,0:0:0
320,200,12415,1,0,0:0:0
456,232,12772,1,0,0:0:0
320,200,13129,1,0,0:0:0
184,192,13487,6,0,B|231:265|175:340|84:361|36:288,1,280,2|2,0:0|0:0,0:0:0
71,151,14558,2,0,B|24:78|80:3|171:-17|219:55,1,280,2|2,0:0|0:0,0:0:0
320,144,15629,5,4,0:0:0
326,284,15987,1,0,0:0:0
326,284,16165,1,0,0:0:0
460,244,16522,1,0,0:0:0
472,152,16701,2,0,B|480:104|432:48|368:72,3,140,0|4|0|4,0:0|0:0|0:0|0:0,0:0:0
248,272,26344,5,0,0:0:0
112,304,26701,1,0,0:0:0
40,192,27058,1,0,0:0:0
168,128,27415,2,0,B|168:80|136:56|104:48|48:64,2,140
40,192,28487,6,0,B|40:240|72:264|104:272|160:256,1,140,0|0,0:0|0:0,0:0:0
256,184,29201,1,0,0:0:0
374,122,29558,2,0,B|408:112|440:120|472:144|472:192,2,140
368,264,30629,6,0,B|480:352,2,140
256,176,31701,2,0,B|256:24,2,140
144,264,32772,6,4,B|32:352,3,140
408,88,34915,5,2,0:0:0
392,224,35272,2,0,B|256:304|112:216,1,280,2|2,0:0|0:0,0:0:0
104,88,36344,2,0,B|24:120,4,70,2|0|2|0|2,0:0|0:0|0:0|0:0|0:0,0:0:0
232,40,37415,6,0,B|304:24|392:56|425:134|384:232,1,280,2|2,0:0|0:0,0:0:0
416,344,38487,2,0,B|344:360|256:328|223:250|264:152,1,280,2|2,0:0|0:0,0:0:0
272,40,39558,5,2,0:0:0
40,192,40272,1,2,0:0:0
152,112,40630,2,0,B|96:56,4,70,2|0|2|0|2,0:0|0:0|0:0|0:0|0:0,0:0:0
424,192,42058,5,2,0:0:0
328,88,42415,1,2,0:0:0
184,88,42772,1,2,0:0:0
88,192,43130,1,2,0:0:0
184,296,43487,5,2,0:0:0
328,296,43844,1,2,0:0:0
48,312,44558,1,2,0:0:0
152,224,44915,2,0,B|216:176,4,70,2|0|2|0|2,0:0|0:0|0:0|0:0|0:0,0:0:0
256,320,45987,1,2,0:0:0
256,64,46701,5,2,0:0:0
376,168,47058,1,2,0:0:0
464,72,47415,2,0,B|536:120|504:216,1,140,0|4,0:0|0:0,0:0:0
416,296,48130,5,2,0:0:0
152,208,48844,1,4,0:0:0
280,256,49201,2,0,B|312:184,4,70,2|0|2|0|2,0:0|0:0|0:0|0:0|0:0,0:0:0
168,336,50272,5,0,0:0:0
32,304,50630,1,0,0:0:0
16,168,50987,1,4,0:0:0
120,80,51344,1,4,0:0:0
248,136,51701,1,4,0:0:0
272,272,52058,6,2,B|360:288|424:256|432:152|368:96,1,280,6|2,0:0|0:0,0:0:0
328,56,52950,1,2,0:0:0
184,56,53308,1,2,0:0:0
137,101,53486,2,2,B|80:152|88:256|152:288|240:272,1,280,6|2,0:0|0:0,0:0:0
256,136,54558,1,2,0:0:0
384,192,54915,6,0,B|440:280,2,105,2|2|2,0:0|0:0|0:0,0:0:0
400,128,55629,2,0,B|488:64,2,105,2|2|2,0:0|0:0|0:0,0:0:0
332,125,56343,2,2,B|312:64|256:32|184:72|176:152,1,210
145,186,57058,2,2,B|177:250|249:290|329:258|369:186,1,280
96,264,58486,5,2,0:0:0
24,192,58754,1,2,0:0:0
96,120,59022,1,0,0:0:0
112,192,59200,2,0,B|224:192,1,105,2|2,0:0|0:0,0:0:0
320,192,59736,1,0,0:0:0
392,192,59915,2,0,B|504:192,2,105,2|2|0,0:0|0:0|0:0,0:0:0
320,192,60629,5,2,0:0:0
392,72,60986,1,2,0:0:0
256,32,61343,1,2,0:0:0
120,72,61700,1,2,0:0:0
200,192,62058,2,0,B|120:240,6,70,2|0|2|0|2|0|2,0:0|0:0|0:0|0:0|0:0|0:0|0:0,0:0:0
72,136,63486,6,2,B|24:208|24:296|96:344|184:328,1,280,6|2,0:0|0:0,0:0:0
192,264,64379,1,2,0:0:0
320,264,64736,1,2,0:0:0
346,330,64915,2,2,B|416:344|488:296|488:208|440:136,1,280
312,192,65986,1,2,0:0:0
293,53,66343,6,0,B|413:53,2,105,2|2|2,0:0|0:0|0:0,0:0:0
221,53,67058,2,0,B|93:53,2,105,2|2|0,0:0|0:0|0:0,0:0:0
256,112,67772,2,2,B|256:328,1,210
328,320,68486,1,2,0:0:0
184,320,68843,1,0,0:0:0
48,296,69200,6,2,B|64:152|144:200|216:232|240:96,1,280,2|2,0:0|0:0,0:0:0
128,96,70183,1,2,0:0:0
224,56,70450,1,2,0:0:0
288,80,70629,2,0,B|344:112|416:72,1,105,2|2,0:0|0:0,0:0:0
488,40,71165,1,2,0:0:0
488,40,71343,2,0,B|520:88|496:152,1,105,2|2,0:0|0:0,0:0:0
432,224,71879,1,2,0:0:0
432,224,72058,5,2,0:0:0
328,320,72415,1,2,0:0:0
184,320,72772,1,2,0:0:0
80,224,73129,1,2,0:0:0
192,136,73486,2,0,B|256:88,6,70,2|0|2|0|2|0|2,0:0|0:0|0:0|0:0|0:0|0:0|0:0,0:0:0
256,192,74915,12,4,79200,0:0:0
112,232,83486,5,0,0:0:0
112,232,83843,2,0,B|216:344,2,140,2|2|0,0:0|0:0|0:0,0:0:0
256,192,84915,1,2,0:0:0
256,192,85272,1,2,0:0:0
400,152,85628,5,0,0:0:0
400,152,85986,2,0,B|296:40,2,140,2|2|2,0:0|0:0|0:0,0:0:0
416,288,87057,2,0,B|456:288|496:272|512:232|512:192,1,140,2|2,0:0|0:0,0:0:0
400,152,87771,5,0,0:0:0
256,112,88129,2,0,B|256:264,1,140,2|2,0:0|0:0,0:0:0
112,232,88843,1,0,0:0:0
148,108,89200,2,0,B|97:94|44:106|8:160,1,140,2|2,0:0|0:0,0:0:0
112,232,89914,6,0,B|256:232,3,140,4|0|0|0,0:0|0:0|0:0|0:0,0:0:0
336,136,91343,1,4,0:0:0
256,24,91700,1,4,0:0:0
176,136,92057,1,4,0:0:0
256,272,100629,5,4,0:0:0
384,328,100986,1,0,0:0:0
376,192,101343,1,0,0:0:0
496,120,101700,2,0,B|496:72|464:48|432:40|376:56,2,140
376,192,102772,5,0,0:0:0
256,112,103129,1,0,0:0:0
136,192,103486,1,0,0:0:0
16,264,103843,2,0,B|16:312|48:336|80:344|136:328,2,140
136,192,104914,6,0,B|248:88,2,140
192,320,105986,2,0,L|224:320|256:344|256:344|296:320|328:320,1,140
456,304,106700,1,0,0:0:0
376,192,107057,6,0,B|264:88,3,140,4|4|0|0,0:0|0:0|0:0|0:0,0:0:0
120,120,109200,5,2,0:0:0
256,128,109557,2,0,B|240:304|48:256,1,280,2|2,0:0|0:0,0:0:0
120,120,110629,2,0,B|40:152,4,70,2|0|2|0|2,0:0|0:0|0:0|0:0|0:0,0:0:0
256,80,111700,5,2,0:0:0
256,304,112414,1,2,0:0:0
392,264,112772,2,0,B|408:192|376:104|298:71|200:112,1,280,2|2,0:0|0:0,0:0:0
128,200,113843,6,0,B|112:272|144:360|222:393|320:352,1,280,2|2,0:0|0:0,0:0:0
416,304,114914,2,0,B|480:352,4,70,2|0|2|0|2,0:0|0:0|0:0|0:0|0:0,0:0:0
160,192,116343,5,2,0:0:0
256,88,116700,1,2,0:0:0
352,192,117057,1,2,0:0:0
256,296,117414,1,2,0:0:0
120,304,117772,5,2,0:0:0
120,304,118129,2,0,B|8:192|136:48,1,280,2|2,0:0|0:0,0:0:0
256,112,119200,2,0,B|256:192,4,70,2|0|2|0|2,0:0|0:0|0:0|0:0|0:0,0:0:0
384,56,120272,6,0,B|505:192|393:304,1,280,2|2,0:0|0:0,0:0:0
256,264,121343,1,2,0:0:0
320,144,121700,2,0,L|280:136|256:120|232:136|192:144,1,140,2|4,0:0|0:0,0:0:0
64,192,122414,5,2,0:0:0
256,344,123129,1,4,0:0:0
256,208,123486,2,0,B|256:128,4,70,2|0|2|0|2,0:0|0:0|0:0|0:0|0:0,0:0:0
376,272,124557,5,0,0:0:0
256,344,124914,1,0,0:0:0
136,272,125272,1,4,0:0:0
136,136,125629,1,4,0:0:0
256,64,125986,1,4,0:0:0
376,136,126343,6,2,B|504:256|368:376,1,280,6|2,0:0|0:0,0:0:0
328,320,127235,1,2,0:0:0
184,320,127592,1,2,0:0:0
142,374,127771,2,2,B|8:256|136:136,1,280,6|2,0:0|0:0,0:0:0
256,64,128842,1,2,0:0:0
376,136,129200,6,0,B|468:66,2,105,2|2|2,0:0|0:0|0:0,0:0:0
376,208,129914,2,0,B|468:277,2,105,2|2|2,0:0|0:0|0:0,0:0:0
336,264,130628,2,2,B|312:328|256:352|184:320|176:240,1,210
136,208,131342,1,2,0:0:0
24,120,131700,2,0,B|56:40|168:64,1,140,0|2,0:0|0:0,0:0:0
294,256,132771,6,0,B|382:336,2,105,2|2|2,0:0|0:0|0:0,0:0:0
222,256,133485,2,0,B|134:336,2,105,2|2|2,0:0|0:0|0:0,0:0:0
256,192,134200,2,0,B|256:80,2,105,2|2|2,0:0|0:0|0:0,0:0:0
256,192,134914,5,2,0:0:0
384,240,135271,1,2,0:0:0
256,304,135628,1,2,0:0:0
128,240,135985,1,2,0:0:0
208,128,136342,2,0,B|268:91,6,70,2|0|2|0|2|0|2,0:0|0:0|0:0|0:0|0:0|0:0|0:0,0:0:0
72,136,137771,6,2,B|24:208|24:296|96:344|184:328,1,280,6|2,0:0|0:0,0:0:0
192,264,138664,1,2,0:0:0
320,264,139021,1,2,0:0:0
346,330,139200,2,2,B|416:344|488:296|488:208|440:136,1,280
328,56,140271,1,2,0:0:0
292,191,140628,6,0,B|404:191,2,105,2|2|2,0:0|0:0|0:0,0:0:0
220,191,141342,2,0,B|92:191,2,105,2|2|2,0:0|0:0|0:0,0:0:0
256,120,142057,1,2,0:0:0
256,344,142592,1,2,0:0:0
256,344,142771,1,2,0:0:0
384,328,143128,1,0,0:0:0
472,232,143485,6,2,B|456:88|376:136|304:168|280:32,1,280,2|2,0:0|0:0,0:0:0
184,48,144467,2,0,B|120:40|80:104,1,105,2|2,0:0|0:0,0:0:0
88,168,144914,2,0,B|116:215|184:224,2,105,2|2|2,0:0|0:0|0:0,0:0:0
160,132,145628,2,0,B|288:132,2,105,2|2|2,0:0|0:0|0:0,0:0:0
159,132,146342,5,2,0:0:0
128,264,146700,1,2,0:0:0
256,320,147057,1,2,0:0:0
384,264,147414,1,2,0:0:0
352,126,147771,2,0,B|408:168,6,70,2|0|2|0|2|0|2,0:0|0:0|0:0|0:0|0:0|0:0|0:0,0:0:0
256,192,149200,12,4,153485,0:0:0
