osu file format v10

[General]
AudioFilename: The Youkai Mountain ~ Mysterious Mountain.mp3
AudioLeadIn: 982
PreviewTime: 50907
Countdown: 0
SampleSet: Normal
StackLeniency: 0.7
Mode: 0
LetterboxInBreaks: 1

[Editor]
Bookmarks: 9211,83496
DistanceSpacing: 0.7
BeatDivisor: 8
GridSize: 8

[Metadata]
Title:The Youkai Mountain ~ Mysterious Mountain
TitleUnicode:
Artist:ZUN
ArtistUnicode:
Creator:Lybydose
Version:Lunatic
Source:Touhou
Tags:faith aya shameimaru th10 Fuujinroku yyy yeahyeahyeahhh Kite DarkDunskin
BeatmapID:76917
BeatmapSetID:22278

[Difficulty]
HPDrainRate:7
CircleSize:4
OverallDifficulty:8
ApproachRate:8
SliderMultiplier:1.7
SliderTickRate:1

[Events]
//Background and Video events
0,0,"aya.png"
//Break Periods
2,79400,82736
//Storyboard Layer 0 (Background)
Sprite,Background,Centre,"SB\cdbg04a.png",320,240 S,0,50997,,1.672 M,0,50997,74925,320,240
Sprite,Background,Centre,"SB\cardbg2.png",320,240 F,0,50818,,0.6199999 S,0,50818,,1.72 M,0,50818,74925,441,440,199,40
Sprite,Background,Centre,"SB\cdbg04a.png",320,240 S,0,125282,,1.672 M,0,125282,149210,320,240
Sprite,Background,Centre,"SB\cardbg2.png",320,240 F,0,125103,,0.6199999 S,0,125103,,1.72 M,0,125103,149210,441,440,199,40
Sprite,Background,Centre,"aya.png",320,240 S,0,-1000,,0.625 M,0,-1000,153495,320,240 F,0,50997,51532,1,0 F,0,51532,74925,0 F,0,74925,75014,0,1 F,0,75014,125282,1 F,0,125282,125817,1,0 F,0,125817,,0 F,0,125817,149210,0 F,0,149210,149299,0,1
//Storyboard Layer 1 (Fail)
//Storyboard Layer 2 (Pass)
//Storyboard Layer 3 (Foreground)
Sprite,Foreground,Centre,"SB\warning.png",320,240 R,0,50997,,-0.28 F,0,50997,51369,0,0.6 M,0,50997,53233,390,288,238,332 F,0,51369,52861,0.6 F,0,52861,53233,0.6,0
Sprite,Foreground,Centre,"SB\warning.png",320,240 R,0,50997,,-0.28 F,0,50997,51369,0,0.6 M,0,50997,53233,238,122,390,78 F,0,51369,52861,0.6 F,0,52861,53233,0.6,0
Sprite,Foreground,Centre,"SB\warning.png",320,240 R,0,50997,,-0.28 F,0,50997,51369,0,0.6 M,0,50997,53233,390,228,238,272 F,0,51369,52861,0.6 F,0,52861,53233,0.6,0
Sprite,Foreground,Centre,"SB\warning.png",320,240 R,0,50997,,-0.28 F,0,50997,51369,0,0.6 M,0,50997,53233,238,302,390,258 F,0,51369,52861,0.6 F,0,52861,53233,0.6,0
Sprite,Foreground,Centre,"SB\warning.png",320,240 R,0,50997,,-0.28 F,0,50997,51369,0,0.6 M,0,50997,53233,238,242,390,198 F,0,51369,52861,0.6 F,0,52861,53233,0.6,0
Sprite,Foreground,Centre,"SB\warning.png",320,240 R,0,50997,,-0.28 F,0,50997,51369,0,0.6 M,0,50997,53233,390,108,238,152 F,0,51369,52861,0.6 F,0,52861,53233,0.6,0
Sprite,Foreground,Centre,"SB\warning.png",320,240 R,0,50997,,-0.28 F,0,50997,51369,0,0.6 M,0,50997,53233,390,168,238,212 F,0,51369,52861,0.6 F,0,52861,53233,0.6,0
Sprite,Foreground,Centre,"SB\warning.png",320,240 R,0,50997,,-0.28 F,0,50997,51369,0,0.6 M,0,50997,53233,238,182,390,138 F,0,51369,52861,0.6 F,0,52861,53233,0.6,0
Sprite,Foreground,Centre,"SB\face04ct.png",320,240 M,1,50997,51369,760,347,431,409 F,0,50997,52301,1,0.7 M,2,51369,52487,431,409,428,300 F,0,52301,53497,0.7,0 M,1,52487,53605,428,300,426,218
Sprite,Foreground,Centre,"SB\cardname_bg.png",320,240 F,0,50997,,0 F,0,50997,51369,0,1 M,1,50997,51742,-81,501,472,417 S,1,50997,51742,3.126399,1.166 M,0,51276,51742,472,417 M,2,51742,52301,472,415,472,230 M,1,52301,52860,472,230,472,79 M,0,52860,74925,472,79 M,0,74925,75125,472,79,750,79
Sprite,Foreground,Centre,"SB\storm.png",320,240 M,0,50997,51276,55,500,500,415 F,0,50997,51276,0,1 S,0,50997,51276,2.76,0.6543998 M,0,51276,51742,500,415 M,2,51742,52301,500,415,500,227 M,1,52301,52860,500,227,500,76 M,0,52860,74925,500,76
Sprite,Foreground,Centre,"SB\warning.png",320,240 R,0,125282,,-0.28 F,0,125282,125654,0,0.6 M,0,125282,127518,390,288,238,332 F,0,125654,127146,0.6 F,0,127146,127518,0.6,0
Sprite,Foreground,Centre,"SB\warning.png",320,240 R,0,125282,,-0.28 F,0,125282,125654,0,0.6 M,0,125282,127518,238,122,390,78 F,0,125654,127146,0.6 F,0,127146,127518,0.6,0
Sprite,Foreground,Centre,"SB\warning.png",320,240 R,0,125282,,-0.28 F,0,125282,125654,0,0.6 M,0,125282,127518,390,228,238,272 F,0,125654,127146,0.6 F,0,127146,127518,0.6,0
Sprite,Foreground,Centre,"SB\warning.png",320,240 R,0,125282,,-0.28 F,0,125282,125654,0,0.6 M,0,125282,127518,238,302,390,258 F,0,125654,127146,0.6 F,0,127146,127518,0.6,0
Sprite,Foreground,Centre,"SB\warning.png",320,240 R,0,125282,,-0.28 F,0,125282,125654,0,0.6 M,0,125282,127518,238,242,390,198 F,0,125654,127146,0.6 F,0,127146,127518,0.6,0
Sprite,Foreground,Centre,"SB\warning.png",320,240 R,0,125282,,-0.28 F,0,125282,125654,0,0.6 M,0,125282,127518,390,108,238,152 F,0,125654,127146,0.6 F,0,127146,127518,0.6,0
Sprite,Foreground,Centre,"SB\warning.png",320,240 R,0,125282,,-0.28 F,0,125282,125654,0,0.6 M,0,125282,127518,390,168,238,212 F,0,125654,127146,0.6 F,0,127146,127518,0.6,0
Sprite,Foreground,Centre,"SB\warning.png",320,240 R,0,125282,,-0.28 F,0,125282,125654,0,0.6 M,0,125282,127518,238,182,390,138 F,0,125654,127146,0.6 F,0,127146,127518,0.6,0
Sprite,Foreground,Centre,"SB\face04ct.png",320,240 M,1,125282,125654,760,347,431,409 F,0,125282,126586,1,0.7 M,2,125654,126772,431,409,428,300 F,0,126586,127782,0.7,0 M,1,126772,127890,428,300,426,218
Sprite,Foreground,Centre,"SB\cardname_bg.png",320,240 F,0,125282,,0 F,0,125282,125654,0,1 M,1,125282,126027,-81,501,472,417 S,1,125282,126027,3.126399,1.166 M,0,125561,126027,472,417 M,2,126027,126586,472,415,472,230 M,1,126586,127145,472,230,472,79 M,0,127145,149210,472,79 M,0,149210,149410,472,79,750,79
Sprite,Foreground,Centre,"SB\peerless.png",320,240 M,0,125282,125561,55,500,500,415 F,0,125282,125561,0,1 S,0,125282,125561,2.76,0.6543998 M,0,125561,126027,500,415 M,2,126027,126586,500,415,500,227 M,1,126586,127145,500,227,500,76 M,0,127145,149210,500,76
//Storyboard Sound Samples
//Background Colour Transformations
3,100,163,162,255

[TimingPoints]
630,357.142857142857,3,1,0,45,1,0
17683,-100,3,1,0,59,0,0
34915,-100,3,2,0,51,0,0
41254,-100,3,2,0,40,0,0
43040,-100,3,1,0,31,0,0
43397,-100,3,2,0,51,0,0
47147,-100,3,1,0,31,0,0
47728,-100,3,2,0,50,0,0
49826,-100,3,1,0,31,0,0
50897,-100,3,1,0,70,0,0
51612,-100,3,2,0,60,0,0
52058,357.142857142857,4,1,0,59,1,1
52236,-76.9230769230769,4,1,0,59,0,1
61254,-76.9230769230769,4,1,0,51,0,1
61700,-76.9230769230769,4,1,0,61,0,1
62325,-76.9230769230769,4,1,0,70,0,1
62683,-76.9230769230769,4,1,0,80,0,1
63040,-76.9230769230769,4,1,0,91,0,1
63486,-76.9230769230769,4,1,0,100,0,1
63932,-76.9230769230769,4,1,0,71,0,1
72683,-76.9230769230769,4,1,0,60,0,1
73486,-76.9230769230769,4,1,0,75,0,1
74468,-76.9230769230769,4,1,0,90,0,1
74915,357.142857142857,3,1,0,45,1,0
91968,-100,3,1,0,59,0,0
109200,-100,3,2,0,51,0,0
115539,-100,3,2,0,40,0,0
117325,-100,3,1,0,31,0,0
117682,-100,3,2,0,51,0,0
121432,-100,3,1,0,31,0,0
122013,-100,3,2,0,50,0,0
124111,-100,3,1,0,31,0,0
125182,-100,3,1,0,70,0,0
125897,-100,3,2,0,60,0,0
126343,357.142857142857,4,1,0,59,1,1
126521,-76.9230769230769,4,1,0,59,0,1
135539,-76.9230769230769,4,1,0,51,0,1
135985,-76.9230769230769,4,1,0,61,0,1
136610,-76.9230769230769,4,1,0,70,0,1
136968,-76.9230769230769,4,1,0,80,0,1
137325,-76.9230769230769,4,1,0,91,0,1
137771,-76.9230769230769,4,1,0,100,0,1
138217,-76.9230769230769,4,1,0,71,0,1
146968,-76.9230769230769,4,1,0,60,0,1
147771,-76.9230769230769,4,1,0,75,0,1
148753,-76.9230769230769,4,1,0,90,0,1
149200,357.142857142857,3,1,0,59,1,0

[Colours]
Combo1 : 253,9,2
Combo2 : 235,203,20
Combo3 : 255,128,0

[HitObjects]
176,48,630,1,4,0:0:0
176,48,808,1,0,0:0:0
104,104,987,1,0,0:0:0
136,184,1165,1,0,0:0:0
216,184,1344,1,0,0:0:0
248,104,1522,1,0,0:0:0
376,248,1701,5,4,0:0:0
376,248,1879,1,0,0:0:0
448,192,2058,1,0,0:0:0
416,112,2237,1,0,0:0:0
336,112,2415,1,0,0:0:0
304,192,2594,1,0,0:0:0
176,328,2772,5,4,0:0:0
176,328,2951,1,0,0:0:0
104,272,3130,1,0,0:0:0
136,192,3308,1,0,0:0:0
216,192,3487,1,0,0:0:0
248,272,3665,1,0,0:0:0
392,168,3844,6,0,B|440:144|448:96,1,85
344,48,4201,1,0,0:0:0
344,48,4290,1,0,0:0:0
344,48,4380,1,0,0:0:0
232,56,4558,1,0,0:0:0
208,72,4647,1,0,0:0:0
192,96,4737,1,0,0:0:0
184,128,4826,1,0,0:0:0
192,160,4915,5,4,0:0:0
320,160,5272,1,0,0:0:0
256,256,5629,1,0,0:0:0
256,104,5987,5,0,0:0:0
176,240,6344,1,0,0:0:0
336,240,6701,1,0,0:0:0
160,144,7058,5,0,0:0:0
352,144,7415,1,0,0:0:0
256,304,7772,1,0,0:0:0
256,104,8129,6,0,B|256:48|336:32,1,85
416,48,8487,1,0,0:0:0
440,72,8576,1,0,0:0:0
456,96,8665,1,0,0:0:0
464,128,8754,1,0,0:0:0
464,160,8844,2,0,B|464:216|384:232,1,85
256,304,9201,5,4,0:0:0
360,120,9558,1,2,0:0:0
152,120,9915,1,2,0:0:0
376,240,10272,5,4,0:0:0
256,40,10629,1,2,0:0:0
136,240,10987,1,2,0:0:0
384,104,11344,5,4,0:0:0
128,104,11701,1,2,0:0:0
256,320,12058,1,2,0:0:0
216,72,12415,6,2,B|184:120|216:184,1,85,2|0,0:0|0:0,0:0:0
296,72,12772,2,2,B|328:120|296:184,1,85,2|0,0:0|0:0,0:0:0
256,232,13129,1,2,0:0:0
256,320,13308,1,2,0:0:0
408,312,13487,5,2,0:0:0
256,48,13844,1,2,0:0:0
104,312,14201,1,2,0:0:0
472,240,14558,5,2,0:0:0
168,32,14915,1,2,0:0:0
208,312,15272,1,0,0:0:0
336,272,15451,1,0,0:0:0
384,144,15629,6,0,B|423:120|423:73,1,85
383,144,15987,2,0,B|339:159|329:204,1,85,0|0,0:0|0:0,0:0:0
383,144,16344,2,0,B|406:183|453:183,1,85,0|0,0:0|0:0,0:0:0
384,144,16701,6,0,B|320:64|216:96,1,170,0|8,0:0|0:0,0:0:0
176,160,17237,1,0,0:0:0
167,192,17326,1,0,0:0:0
178,223,17415,1,8,0:0:0
280,200,17594,1,8,0:0:0
320,296,17772,6,0,B|376:344|456:320|488:280,1,170,4|8,0:0|0:0,0:0:0
400,232,18308,1,8,0:0:0
400,232,18487,1,0,0:0:0
448,152,18665,1,0,0:0:0
448,152,18844,2,0,B|464:96|400:16|312:56,2,170,0|8|8,0:0|0:0|0:0,0:0:0
136,160,19915,6,0,B|120:216|184:296|272:256,1,170,0|8,0:0|0:0,0:0:0
224,176,20451,1,8,0:0:0
272,104,20630,1,0,0:0:0
320,176,20808,1,0,0:0:0
408,160,20987,2,0,B|424:216|360:296|272:256,2,170,0|8|8,0:0|0:0|0:0,0:0:0
164,65,22058,6,0,B|72:112|103:206,1,170,0|8,0:0|0:0,0:0:0
144,304,22594,1,8,0:0:0
192,224,22772,1,0,0:0:0
232,144,22951,1,0,0:0:0
324,147,23130,2,0,B|356:241|264:288,2,170,0|8|8,0:0|0:0|0:0,0:0:0
280,56,24022,1,8,0:0:0
224,192,24201,5,4,0:0:0
424,120,24380,1,4,0:0:0
400,320,24558,1,4,0:0:0
168,312,24915,5,0,0:0:0
168,312,25094,1,0,0:0:0
168,312,25183,1,0,0:0:0
168,312,25272,1,0,0:0:0
328,280,25630,1,0,0:0:0
392,224,25808,2,0,B|320:184,5,42.5
392,224,26344,6,0,B|448:192|464:112|408:56,1,170,4|8,0:0|0:0,0:0:0
344,40,26880,1,8,0:0:0
256,56,27058,1,0,0:0:0
208,128,27237,1,0,0:0:0
272,184,27415,2,0,B|192:200|184:280|216:328,2,170,0|8|8,0:0|0:0|0:0,0:0:0
122,232,28487,6,0,B|175:202|239:210|278:273,1,170,0|8,0:0|0:0,0:0:0
344,312,29022,1,8,0:0:0
344,224,29201,1,0,0:0:0
416,264,29380,1,0,0:0:0
424,176,29558,2,0,B|472:128|472:56|416:16,1,170,0|8,0:0|0:0,0:0:0
272,88,30272,1,8,0:0:0
168,216,30630,6,0,B|200:160|264:136|336:192,1,170,0|8,0:0|0:0,0:0:0
256,240,31165,1,8,0:0:0
192,296,31344,1,0,0:0:0
112,280,31522,1,0,0:0:0
168,216,31701,2,0,B|112:184|88:120|144:48,1,170,0|8,0:0|0:0,0:0:0
296,112,32415,1,8,0:0:0
376,112,32594,1,8,0:0:0
456,112,32772,5,4,0:0:0
296,112,32951,1,4,0:0:0
136,112,33130,1,4,0:0:0
296,192,33487,5,0,0:0:0
176,200,33665,1,0,0:0:0
176,200,33755,1,0,0:0:0
176,200,33844,2,0,B|152:264|208:320|288:296,1,170
296,296,34290,1,0,0:0:0
325,289,34380,1,0,0:0:0
353,280,34469,1,0,0:0:0
378,265,34558,1,0,0:0:0
397,242,34647,1,0,0:0:0
410,215,34737,1,0,0:0:0
420,187,34826,1,0,0:0:0
427,158,34915,5,2,0:0:0
296,40,35272,2,0,B|232:16|152:40|136:128,2,170,4|0|2,0:0|0:0|0:0,0:0:0
296,128,36165,1,0,0:0:0
216,144,36344,1,4,0:0:0
272,208,36522,2,2,B|312:208,2,21.25
240,240,36701,2,0,B|264:296|224:344,1,85
152,304,37058,5,0,0:0:0
152,304,37415,1,4,0:0:0
112,216,37594,1,0,0:0:0
152,128,37772,1,0,0:0:0
360,80,38130,5,2,0:0:0
360,80,38487,1,4,0:0:0
400,168,38665,1,0,0:0:0
360,256,38844,1,0,0:0:0
256,104,39201,5,2,0:0:0
256,104,39558,1,4,0:0:0
240,200,39737,1,0,0:0:0
168,136,39915,2,0,B|112:136|56:208|96:280,1,170,0|2,0:0|0:0,0:0:0
144,328,40451,1,0,0:0:0
288,328,40630,5,4,0:0:0
328,248,40808,2,2,B|304:224,2,21.25
360,272,40987,2,0,B|408:248|400:192,1,85
384,112,41344,5,2,0:0:0
384,112,41433,1,0,0:0:0
384,112,41522,1,0,0:0:0
304,64,41701,1,6,0:0:0
216,88,41880,1,2,0:0:0
136,40,42058,2,0,B|48:80|64:184,2,170,2|0|6,0:0|0:0|0:0,0:0:0
216,88,42951,1,0,0:0:0
176,168,43130,1,0,0:0:0
190,198,43219,1,0,0:0:0
219,215,43308,1,0,0:0:0
312,184,43487,6,0,B|336:256|312:312|232:328,1,170,2|4,0:0|0:0,0:0:0
168,312,44022,1,0,0:0:0
104,256,44201,1,2,0:0:0
16,280,44379,1,0,0:0:0
40,192,44558,2,0,B|16:144|40:96,1,85,2|2,0:0|0:0,0:0:0
136,72,44915,5,4,0:0:0
224,40,45094,2,2,B|248:8,2,21.25
240,80,45272,2,0,B|264:128|312:144,1,85
368,88,45629,1,0,0:0:0
440,32,45808,1,0,0:0:0
456,120,45987,1,4,0:0:0
392,48,46165,5,2,0:0:0
400,136,46344,1,2,0:0:0
472,80,46522,1,0,0:0:0
480,248,46701,6,0,B|480:336,1,85,2|0,0:0|0:0,0:0:0
394,244,47058,1,4,0:0:0
312,296,47237,1,0,0:0:0
284,306,47326,1,0,0:0:0
254,305,47415,1,0,0:0:0
224,306,47504,1,0,0:0:0
195,299,47594,1,0,0:0:0
168,285,47683,1,0,0:0:0
151,260,47772,5,2,0:0:0
151,260,48129,1,2,0:0:0
448,88,48844,5,2,0:0:0
368,64,49022,1,0,0:0:0
280,64,49201,1,2,0:0:0
216,112,49379,2,2,B|224:152,2,21.25
192,88,49558,2,0,B|184:32|120:24,1,85
136,160,49915,1,0,0:0:0
136,160,50004,1,0,0:0:0
136,160,50094,1,0,0:0:0
136,304,50272,1,0,0:0:0
136,304,50362,1,0,0:0:0
136,304,50451,1,0,0:0:0
256,232,50629,1,4,0:0:0
256,232,50808,1,0,0:0:0
448,56,50987,5,4,0:0:0
64,328,51344,1,4,0:0:0
328,144,51701,1,0,0:0:0
297,158,51790,1,0,0:0:0
266,172,51879,1,0,0:0:0
235,187,51969,1,0,0:0:0
205,203,52058,5,6,0:0:0
205,302,52236,1,0,0:0:0
237,318,52325,1,0,0:0:0
269,334,52415,1,0,0:0:0
369,334,52593,1,2,0:0:0
401,318,52682,1,0,0:0:0
433,302,52772,1,2,0:0:0
456,200,52950,1,0,0:0:0
480,176,53040,2,2,B|515:119|478:68,1,110.499998024106
456,48,53307,1,2,0:0:0
360,40,53486,5,2,0:0:0
304,136,53665,1,0,0:0:0
289,106,53754,1,0,0:0:0
260,89,53843,1,0,0:0:0
227,81,53932,1,0,0:0:0
194,89,54022,1,0,0:0:0
169,108,54111,1,2,0:0:0
153,136,54200,6,2,B|127:200|192:245,1,110.499998024106
272,304,54557,2,2,B|270:345,2,27.6249995060265
296,272,54736,2,2,B|352:176,1,110.499998024106
400,248,55093,5,0,0:0:0
400,248,55182,1,2,0:0:0
256,192,55361,1,0,0:0:0
256,192,55450,1,2,0:0:0
176,72,55629,1,2,0:0:0
216,56,55718,1,0,0:0:0
256,48,55807,1,0,0:0:0
296,56,55897,1,2,0:0:0
336,72,55986,1,0,0:0:0
256,192,56165,1,2,0:0:0
112,256,56343,5,2,0:0:0
224,320,56522,1,0,0:0:0
256,320,56611,1,0,0:0:0
288,320,56700,1,0,0:0:0
256,192,56879,1,2,0:0:0
288,64,57057,1,2,0:0:0
256,64,57147,1,0,0:0:0
224,64,57236,1,0,0:0:0
168,192,57415,1,4,0:0:0
344,192,57593,1,4,0:0:0
376,296,57772,5,2,0:0:0
448,360,57950,1,0,0:0:0
480,336,58040,1,0,0:0:0
496,296,58129,1,0,0:0:0
456,208,58307,1,0,0:0:0
455,112,58486,6,2,B|488:70|488:70|456:22,1,110.499998024106,2|0,0:0|0:0,0:0:0
416,62,58754,2,2,B|376:102|376:102|320:46,1,110.499998024106,2|0,0:0|0:0,0:0:0
296,112,59022,2,2,B|264:70|264:70|296:22,2,110.499998024106,2|2|0,0:0|0:0|0:0,0:0:0
296,152,59468,1,2,0:0:0
272,192,59557,1,0,0:0:0
160,192,59736,1,2,0:0:0
147,292,59915,6,2,B|35:260,1,110.499998024106,2|0,0:0|0:0,0:0:0
40,261,60182,1,2,0:0:0
40,261,60272,1,0,0:0:0
160,192,60450,1,2,0:0:0
40,128,60629,2,2,B|146:97,1,110.499998024106,2|0,0:0|0:0,0:0:0
146,97,60897,1,2,0:0:0
146,97,60986,1,0,0:0:0
272,192,61165,1,2,0:0:0
312,40,61343,5,2,0:0:0
354,53,61432,1,0,0:0:0
391,76,61522,1,0,0:0:0
416,112,61611,1,0,0:0:0
428,154,61700,1,2,0:0:0
433,197,61790,1,0,0:0:0
423,240,61879,1,0,0:0:0
401,278,61968,1,0,0:0:0
368,312,62057,6,0,B|324:355|256:352,1,110.499998024106,2|0,0:0|0:0,0:0:0
80,320,62415,1,6,0:0:0
80,320,62593,1,0,0:0:0
320,184,62772,1,6,0:0:0
320,184,62950,1,0,0:0:0
96,40,63129,1,6,0:0:0
96,40,63307,1,0,0:0:0
304,328,63486,6,2,B|306:263|306:263|409:255|392:152,1,220.999996048212,4|0,0:0|0:0,0:0:0
295,41,64022,1,2,0:0:0
295,41,64111,1,0,0:0:0
295,41,64200,1,2,0:0:0
320,184,64379,1,2,0:0:0
320,184,64424,1,2,0:0:0
320,184,64468,2,2,B|256:184|224:208|224:304,1,165.749997036159,0|2,0:0|0:0,0:0:0
136,360,64915,1,2,0:0:0
48,288,65093,1,0,0:0:0
32,256,65182,1,0,0:0:0
32,216,65272,1,0,0:0:0
32,104,65450,5,2,0:0:0
32,64,65540,1,0,0:0:0
48,32,65629,1,2,0:0:0
152,56,65807,1,0,0:0:0
272,72,65986,2,2,B|248:24,2,27.6249995060265
288,112,66165,2,2,B|233:165|288:240,1,110.499998024106
384,208,66522,5,0,0:0:0
384,208,66611,1,2,0:0:0
208,288,66790,1,0,0:0:0
208,288,66879,1,2,0:0:0
136,96,67057,1,2,0:0:0
108,122,67147,1,0,0:0:0
85,153,67236,1,0,0:0:0
66,187,67325,1,0,0:0:0
56,223,67415,2,2,B|50:296|145:318,2,110.499998024106,2|0|2,0:0|0:0|0:0,0:0:0
208,168,67950,5,0,0:0:0
208,168,68040,1,0,0:0:0
208,168,68129,1,0,0:0:0
328,96,68307,1,2,0:0:0
328,240,68486,1,2,0:0:0
328,240,68575,1,0,0:0:0
328,240,68665,1,0,0:0:0
456,168,68843,1,4,0:0:0
456,168,69022,1,4,0:0:0
320,344,69200,6,2,B|200:296,1,110.499998024106,6|0,0:0|0:0,0:0:0
181,287,69468,1,0,0:0:0
144,273,69557,1,0,0:0:0
256,192,69736,1,0,0:0:0
280,72,69915,6,2,B|160:80,1,110.499998024106,2|0,0:0|0:0,0:0:0
144,48,70182,2,2,B|32:24,1,110.499998024106,2|0,0:0|0:0,0:0:0
16,72,70450,1,2,0:0:0
32,248,70629,6,2,B|136:352,1,110.499998024106,2|0,0:0|0:0,0:0:0
112,376,70897,2,2,B|224:312,1,110.499998024106,2|0,0:0|0:0,0:0:0
248,312,71165,2,2,B|376:376,2,110.499998024106,2|2|0,0:0|0:0|0:0,0:0:0
256,272,71611,2,2,B|376:224,1,110.499998024106,2|0,0:0|0:0,0:0:0
392,200,71879,2,2,B|360:72,1,110.499998024106
256,80,72236,1,0,0:0:0
216,96,72325,1,2,0:0:0
176,112,72415,1,0,0:0:0
80,40,72593,1,2,0:0:0
32,176,72772,5,2,0:0:0
56,208,72861,1,0,0:0:0
88,232,72950,1,0,0:0:0
128,240,73040,1,0,0:0:0
168,248,73129,1,2,0:0:0
208,248,73218,1,0,0:0:0
248,240,73307,1,0,0:0:0
288,232,73397,1,0,0:0:0
324,219,73486,6,2,B|374:166|448:192,1,110.499998024106,2|0,0:0|0:0,0:0:0
452,212,73754,1,0,0:0:0
460,249,73843,1,6,0:0:0
451,287,73932,1,0,0:0:0
424,314,74022,1,0,0:0:0
389,331,74111,1,0,0:0:0
350,337,74200,1,6,0:0:0
311,331,74290,1,0,0:0:0
274,317,74379,1,0,0:0:0
216,168,74557,5,6,0:0:0
249,147,74647,1,0,0:0:0
285,133,74736,1,0,0:0:0
323,127,74825,1,0,0:0:0
352,130,74915,1,6,0:0:0
256,192,75004,12,4,79200,0:0:0
40,48,83486,5,4,0:0:0
160,48,83843,1,2,0:0:0
280,48,84200,1,2,0:0:0
448,192,84557,5,4,0:0:0
296,192,84914,1,2,0:0:0
144,192,85272,1,2,0:0:0
40,336,85629,5,4,0:0:0
224,336,85986,1,2,0:0:0
408,336,86343,1,2,0:0:0
464,208,86700,6,0,B|464:96,1,85,2|0,0:0|0:0,0:0:0
384,248,87057,2,0,B|384:152,1,85,2|0,0:0|0:0,0:0:0
304,280,87414,1,2,0:0:0
304,192,87593,1,2,0:0:0
464,48,87772,5,2,0:0:0
256,120,88129,1,2,0:0:0
48,48,88486,1,2,0:0:0
48,336,88843,5,2,0:0:0
256,264,89200,1,2,0:0:0
464,336,89557,1,0,0:0:0
464,224,89736,1,0,0:0:0
384,120,89914,6,0,B|423:96|423:49,1,85
304,120,90272,2,0,B|265:96|265:49,1,85
344,192,90629,2,0,B|344:288,1,85,0|0,0:0|0:0,0:0:0
275,312,90986,6,0,B|299:366|387:366|413:311,1,170,0|8,0:0|0:0,0:0:0
456,216,91522,1,0,0:0:0
456,216,91611,1,0,0:0:0
456,216,91700,1,8,0:0:0
456,216,91879,1,8,0:0:0
413,126,92057,6,0,B|387:71|299:71|274:125,1,170,4|8,0:0|0:0,0:0:0
344,160,92593,1,8,0:0:0
256,216,92772,1,0,0:0:0
168,160,92950,1,0,0:0:0
131,92,93129,6,0,B|76:117|76:205|130:230,2,170,0|8|8,0:0|0:0|0:0,0:0:0
381,92,94200,6,0,B|435:117|435:205|381:230,1,170,0|8,0:0|0:0,0:0:0
304,296,94736,1,8,0:0:0
256,216,94914,1,0,0:0:0
208,296,95093,1,0,0:0:0
118,295,95272,2,0,B|24:256|59:156,1,170,0|8,0:0|0:0,0:0:0
256,104,95986,1,8,0:0:0
393,295,96343,6,0,B|488:256|452:156,1,170,0|8,0:0|0:0,0:0:0
376,88,96879,1,8,0:0:0
288,40,97057,1,0,0:0:0
200,88,97236,1,0,0:0:0
288,40,97414,2,0,B|288:224,2,170,0|8|8,0:0|0:0|0:0,0:0:0
376,88,98307,1,8,0:0:0
392,192,98486,5,4,0:0:0
184,192,98664,1,4,0:0:0
288,352,98843,1,4,0:0:0
288,176,99200,5,0,0:0:0
328,80,99379,1,0,0:0:0
288,64,99468,1,0,0:0:0
248,80,99557,1,0,0:0:0
288,264,99914,1,0,0:0:0
175,308,100093,1,0,0:0:0
145,304,100182,1,0,0:0:0
116,294,100272,1,0,0:0:0
91,277,100361,1,0,0:0:0
70,255,100450,1,0,0:0:0
58,227,100539,1,0,0:0:0
55,197,100629,6,0,B|65:132|127:89|193:105,1,170,4|8,0:0|0:0,0:0:0
160,200,101164,1,8,0:0:0
256,200,101343,1,0,0:0:0
352,200,101522,1,0,0:0:0
457,197,101700,6,0,B|447:132|385:89|319:105,2,170,0|8|8,0:0|0:0|0:0,0:0:0
256,352,102772,6,0,B|256:168,1,170,0|8,0:0|0:0,0:0:0
176,144,103307,1,8,0:0:0
256,96,103486,1,0,0:0:0
336,144,103664,1,0,0:0:0
336,232,103843,2,0,B|480:368,2,170,0|8|8,0:0|0:0|0:0,0:0:0
176,232,104914,6,0,B|32:368,1,170,0|8,0:0|0:0,0:0:0
32,248,105450,1,8,0:0:0
48,144,105629,1,0,0:0:0
120,216,105807,1,0,0:0:0
187,298,105986,2,0,B|202:243|306:243|322:299,2,170,0|8|8,0:0|0:0|0:0,0:0:0
256,352,106879,1,8,0:0:0
256,352,107057,5,4,0:0:0
256,192,107236,1,4,0:0:0
256,32,107414,1,4,0:0:0
432,104,107772,5,0,0:0:0
328,168,107950,1,0,0:0:0
328,168,108039,1,0,0:0:0
328,168,108129,2,0,B|352:232|296:288|216:264,1,170
208,264,108575,1,0,0:0:0
179,257,108664,1,0,0:0:0
151,248,108754,1,0,0:0:0
125,233,108843,1,0,0:0:0
101,214,108932,1,0,0:0:0
86,187,109022,1,0,0:0:0
78,158,109111,1,0,0:0:0
78,128,109200,5,2,0:0:0
272,184,109557,2,0,B|208:200|136:168|152:88,2,170,4|0|2,0:0|0:0|0:0,0:0:0
344,232,110450,1,0,0:0:0
376,312,110629,1,4,0:0:0
280,352,110807,2,2,B|320:352,2,21.25
240,344,110986,2,0,B|184:352|168:296,1,85
256,248,111343,5,0,0:0:0
256,248,111700,1,4,0:0:0
208,168,111879,1,0,0:0:0
304,168,112057,1,0,0:0:0
256,8,112414,5,2,0:0:0
256,8,112772,1,4,0:0:0
304,88,112950,1,0,0:0:0
208,88,113129,1,0,0:0:0
360,264,113486,5,2,0:0:0
360,264,113843,1,4,0:0:0
360,168,114022,1,0,0:0:0
432,216,114200,2,0,B|504:200|512:128|480:64,1,170,0|2,0:0|0:0,0:0:0
408,56,114736,1,0,0:0:0
328,88,114914,5,4,0:0:0
256,40,115093,2,2,B|280:8,2,21.25
224,64,115272,2,0,B|168:72|176:152,1,85
192,216,115629,5,2,0:0:0
208,248,115718,1,0,0:0:0
232,264,115807,1,0,0:0:0
288,192,115986,1,6,0:0:0
344,264,116164,1,2,0:0:0
422,221,116343,2,0,B|446:324|346:355,2,170,2|0|6,0:0|0:0|0:0,0:0:0
368,160,117236,1,0,0:0:0
368,72,117414,1,0,0:0:0
368,72,117504,1,0,0:0:0
368,72,117593,1,0,0:0:0
200,16,117772,6,0,B|152:72|176:152|248:168,1,170,2|4,0:0|0:0,0:0:0
272,232,118307,1,0,0:0:0
312,312,118486,1,2,0:0:0
224,328,118664,1,0,0:0:0
184,248,118843,1,2,0:0:0
184,248,119022,1,2,0:0:0
96,192,119200,5,4,0:0:0
96,88,119379,2,2,B|64:64,2,21.25
136,88,119557,2,0,B|128:32|208:24,1,85
280,72,119914,5,0,0:0:0
368,72,120093,1,0,0:0:0
424,144,120272,1,4,0:0:0
368,216,120450,1,2,0:0:0
280,216,120629,1,2,0:0:0
224,144,120807,1,0,0:0:0
56,128,120986,6,0,B|32:168|56:216,1,85,2|0,0:0|0:0,0:0:0
136,160,121343,1,4,0:0:0
138,69,121522,1,0,0:0:0
165,56,121611,1,0,0:0:0
193,49,121700,1,0,0:0:0
223,49,121789,1,0,0:0:0
252,53,121879,1,0,0:0:0
279,63,121968,1,0,0:0:0
299,83,122057,5,2,0:0:0
120,296,122414,1,2,0:0:0
448,320,123129,5,2,0:0:0
376,280,123307,1,0,0:0:0
400,200,123486,1,2,0:0:0
312,208,123664,2,2,B|320:168,2,21.25
288,232,123843,2,0,B|260:281|197:265,1,85
208,184,124200,1,0,0:0:0
208,152,124289,1,0,0:0:0
208,120,124379,1,0,0:0:0
120,184,124557,1,0,0:0:0
120,152,124647,1,0,0:0:0
120,120,124736,1,0,0:0:0
88,32,124914,1,4,0:0:0
240,32,125093,1,0,0:0:0
56,320,125272,5,4,0:0:0
456,64,125629,1,4,0:0:0
168,96,125986,1,0,0:0:0
152,128,126075,1,0,0:0:0
144,160,126164,1,0,0:0:0
152,192,126254,1,0,0:0:0
168,224,126343,5,6,0:0:0
280,224,126521,1,0,0:0:0
320,224,126610,1,0,0:0:0
360,224,126700,1,0,0:0:0
360,104,126878,1,2,0:0:0
320,104,126967,1,0,0:0:0
280,104,127057,1,2,0:0:0
204,23,127235,1,0,0:0:0
204,23,127325,2,2,B|153:-19|96:26,1,110.499998024106
153,72,127592,2,2,B|153:192,1,110.499998024106
64,192,127950,5,0,0:0:0
77,233,128039,1,0,0:0:0
111,261,128128,1,0,0:0:0
154,268,128217,1,0,0:0:0
193,261,128307,1,0,0:0:0
227,233,128396,1,2,0:0:0
240,192,128485,1,2,0:0:0
328,96,128664,5,0,0:0:0
416,192,128842,2,2,B|414:151,2,27.6249995060265
464,232,129021,2,2,B|416:260|416:260|368:232,1,110.499998024106
352,64,129378,5,0,0:0:0
352,64,129467,1,2,0:0:0
160,64,129646,1,0,0:0:0
160,64,129735,1,2,0:0:0
176,216,129914,1,2,0:0:0
216,232,130003,1,0,0:0:0
256,240,130092,1,0,0:0:0
296,232,130182,1,2,0:0:0
336,216,130271,1,0,0:0:0
256,320,130450,1,2,0:0:0
256,144,130628,5,2,0:0:0
88,160,130807,1,0,0:0:0
88,160,130896,1,0,0:0:0
88,160,130985,1,0,0:0:0
256,144,131164,1,2,0:0:0
424,160,131342,1,2,0:0:0
424,160,131432,1,0,0:0:0
424,160,131521,1,0,0:0:0
352,304,131700,1,4,0:0:0
160,304,131878,1,4,0:0:0
256,144,132057,5,2,0:0:0
296,32,132235,1,0,0:0:0
256,16,132325,1,0,0:0:0
216,32,132414,1,0,0:0:0
96,48,132593,1,0,0:0:0
16,120,132771,6,2,B|16:232,1,110.499998024106,2|0,0:0|0:0,0:0:0
56,184,133039,2,2,B|56:304,1,110.499998024106,2|0,0:0|0:0,0:0:0
96,248,133307,2,2,B|96:358,2,110.499998024106,2|2|0,0:0|0:0|0:0,0:0:0
128,216,133753,1,2,0:0:0
168,192,133843,2,0,B|168:328,1,110.499998024106,0|2,0:0|0:0,0:0:0
256,344,134200,5,2,0:0:0
424,272,134378,1,0,0:0:0
424,272,134468,1,2,0:0:0
424,272,134557,1,0,0:0:0
256,192,134735,1,2,0:0:0
424,112,134914,1,2,0:0:0
256,40,135093,1,0,0:0:0
256,40,135182,1,2,0:0:0
256,40,135271,1,0,0:0:0
88,112,135450,1,2,0:0:0
40,272,135628,5,2,0:0:0
74,308,135718,1,0,0:0:0
118,331,135807,1,0,0:0:0
166,342,135896,1,0,0:0:0
215,346,135985,1,2,0:0:0
264,338,136075,1,0,0:0:0
311,322,136164,1,0,0:0:0
352,294,136253,1,0,0:0:0
379,253,136343,6,0,L|380:138,1,110.499998024106,2|0,0:0|0:0,0:0:0
136,88,136700,2,0,B|136:200,1,110.499998024106,6|0,0:0|0:0,0:0:0
424,160,137057,2,0,B|424:40,1,110.499998024106,6|0,0:0|0:0,0:0:0
88,152,137414,2,0,B|88:272,1,110.499998024106,6|0,0:0|0:0,0:0:0
480,336,137771,6,2,B|480:115,1,220.999996048212,4|0,0:0|0:0,0:0:0
384,40,138307,1,2,0:0:0
347,27,138396,1,0,0:0:0
308,26,138485,1,2,0:0:0
200,32,138664,1,2,0:0:0
184,36,138709,1,2,0:0:0
169,42,138753,2,2,B|98:14|42:76|88:160,1,165.749997036159,0|2,0:0|0:0,0:0:0
128,216,139200,2,2,B|98:277|145:315,1,110.499998024106,2|0,0:0|0:0,0:0:0
170,341,139468,1,0,0:0:0
202,357,139557,1,2,0:0:0
310,357,139735,5,2,0:0:0
342,341,139825,1,0,0:0:0
366,315,139914,2,2,B|413:276|383:215,1,110.499998024106,2|0,0:0|0:0,0:0:0
229,177,140271,2,2,B|196:201,2,27.6249995060265
256,152,140450,2,0,B|256:32,1,110.499998024106
336,104,140807,5,0,0:0:0
336,104,140896,1,2,0:0:0
168,104,141075,1,0,0:0:0
168,104,141164,1,2,0:0:0
141,255,141343,1,2,0:0:0
106,279,141432,1,0,0:0:0
116,325,141521,1,0,0:0:0
166,326,141610,1,0,0:0:0
177,279,141700,2,2,L|303:279,1,110.499998024106,2|0,0:0|0:0,0:0:0
376,280,142057,1,2,0:0:0
360,160,142235,5,0,0:0:0
384,120,142325,1,0,0:0:0
360,80,142414,1,0,0:0:0
256,128,142593,1,2,0:0:0
152,80,142771,5,2,0:0:0
128,120,142860,1,0,0:0:0
152,160,142950,1,0,0:0:0
160,280,143128,1,4,0:0:0
352,280,143307,1,4,0:0:0
448,224,143485,5,2,0:0:0
448,344,143664,1,0,0:0:0
448,344,143753,1,0,0:0:0
448,344,143843,1,0,0:0:0
352,280,144021,1,0,0:0:0
360,128,144200,6,2,B|328:64|388:9,1,110.499998024106,2|0,0:0|0:0,0:0:0
421,83,144468,2,2,B|454:149|384:216,1,110.499998024106,2|0,0:0|0:0,0:0:0
338,201,144735,1,2,0:0:0
228,273,144914,6,2,B|186:327|109:297,1,110.499998024106,2|0,0:0|0:0,0:0:0
164,235,145182,2,2,B|134:121,1,110.499998024106,2|0,0:0|0:0,0:0:0
167,61,145450,2,2,B|105:43|70:93,2,110.499998024106,2|2|0,0:0|0:0|0:0,0:0:0
209,125,145896,2,2,B|276:145|329:77,1,110.499998024106,2|0,0:0|0:0,0:0:0
352,39,146164,2,2,B|398:80|369:141,1,110.499998024106
432,240,146521,1,0,0:0:0
432,240,146610,1,2,0:0:0
432,240,146700,1,0,0:0:0
344,320,146878,1,2,0:0:0
288,216,147057,5,2,0:0:0
262,244,147146,1,0,0:0:0
232,268,147235,1,0,0:0:0
195,282,147325,1,0,0:0:0
156,285,147414,1,2,0:0:0
120,270,147503,1,0,0:0:0
90,244,147593,1,0,0:0:0
80,206,147682,1,0,0:0:0
75,167,147771,6,2,B|67:97|163:57,1,110.499998024106,2|0,0:0|0:0,0:0:0
161,60,148039,1,0,0:0:0
199,56,148128,1,6,0:0:0
237,64,148218,1,0,0:0:0
271,80,148307,1,0,0:0:0
301,102,148396,1,0,0:0:0
330,126,148485,1,6,0:0:0
345,161,148575,1,0,0:0:0
358,197,148664,1,0,0:0:0
378,308,148843,5,6,0:0:0
413,291,148932,1,0,0:0:0
442,265,149021,1,0,0:0:0
461,231,149110,1,0,0:0:0
467,201,149200,1,6,0:0:0
256,192,149289,12,4,153485,0:0:0
