osu file format v9

[General]
AudioFilename: The Youkai Mountain ~ Mysterious Mountain.mp3
AudioLeadIn: 996
PreviewTime: 50907
Countdown: 0
SampleSet: Normal
StackLeniency: 0.7
Mode: 1
LetterboxInBreaks: 1

[Editor]
Bookmarks: 461,9211,17693,24211,26264,34836,43407,51979,74835,79121,83496,91978,100549,109121,126264
DistanceSpacing: 1.1
BeatDivisor: 4
GridSize: 8

[Metadata]
Title:The Youkai Mountain ~ Mysterious Mountain
Artist:ZUN
Creator:Lybydose
Version:Dunskin's Taiko Oni
Source:Touhou
Tags:faith aya shameimaru th10 Fuujinroku yyy yeahyeahyeahhh Kite DarkDunskin

[Difficulty]
HPDrainRate:4
CircleSize:4
OverallDifficulty:4
ApproachRate:5
SliderMultiplier:1.4
SliderTickRate:1

[Events]
//Background and Video events
0,0,"taiko.png"
//Break Periods
//Storyboard Layer 0 (Background)
//Storyboard Layer 1 (Fail)
//Storyboard Layer 2 (Pass)
//Storyboard Layer 3 (Foreground)
//Storyboard Sound Samples
//Background Colour Transformations
3,100,163,162,255

[TimingPoints]
630,357.142857142857,3,1,0,60,1,0
52058,357.142857142857,4,1,0,60,1,1
74915,357.142857142857,3,1,0,60,1,0
126343,357.142857142857,4,1,0,60,1,1
149200,357.142857142857,3,1,0,60,1,0

[Colours]
Combo1 : 253,9,2
Combo2 : 235,203,20
Combo3 : 255,128,0

[HitObjects]
256,192,630,1,4
256,192,808,1,0
256,192,987,1,8
256,192,1165,1,0
256,192,1254,1,0
256,192,1344,1,0
256,192,1522,1,8
256,192,1701,1,0
256,192,1879,1,0
256,192,2058,1,8
256,192,2237,1,8
256,192,2326,1,0
256,192,2415,1,0
256,192,2594,1,8
256,192,2772,1,0
256,192,2951,1,0
256,192,3129,1,8
256,192,3308,1,0
256,192,3397,1,0
256,192,3487,1,0
256,192,3665,1,8
256,192,3844,1,0
256,192,4022,1,0
256,192,4201,1,8
256,192,4290,1,8
256,192,4379,1,0
256,192,4469,1,0
256,192,4558,1,8
256,192,4647,1,0
256,192,4737,1,0
256,192,4915,1,4
256,192,5094,1,0
256,192,5272,1,8
256,192,5451,1,0
256,192,5630,1,8
256,192,5808,1,0
256,192,5987,1,0
256,192,6165,1,0
256,192,6344,1,8
256,192,6522,1,0
256,192,6701,1,8
256,192,6880,1,0
256,192,7058,1,0
256,192,7237,1,0
256,192,7415,1,8
256,192,7594,1,0
256,192,7772,1,8
256,192,7951,1,0
256,192,8130,1,0
256,192,8308,1,0
256,192,8487,1,8
256,192,8576,1,0
256,192,8665,1,0
256,192,8844,1,8
256,192,9022,1,0
256,192,9201,1,0
256,192,9380,1,0
256,192,9558,1,8
256,192,9737,1,0
256,192,9826,1,0
256,192,9915,1,8
256,192,10094,1,8
256,192,10272,1,0
256,192,10451,1,0
256,192,10630,1,8
256,192,10808,1,8
256,192,10897,1,0
256,192,10987,1,8
256,192,11165,1,8
256,192,11344,1,0
256,192,11522,1,0
256,192,11701,1,8
256,192,11879,1,8
256,192,11969,1,8
256,192,12058,1,0
256,192,12237,1,8
256,192,12415,1,8
256,192,12504,1,8
256,192,12594,1,0
256,192,12683,1,0
256,192,12772,1,8
256,192,12862,1,0
256,192,12951,1,0
256,192,13040,1,0
256,192,13129,1,8
256,192,13219,1,0
256,192,13308,1,8
256,192,13487,1,0
256,192,13665,1,0
256,192,13844,1,8
256,192,14022,1,8
256,192,14112,1,0
256,192,14201,1,8
256,192,14379,1,8
256,192,14558,1,0
256,192,14737,1,0
256,192,14915,1,8
256,192,15094,1,8
256,192,15183,1,8
256,192,15272,1,0
256,192,15451,1,8
256,192,15629,1,12
256,192,15987,1,0
256,192,16344,1,0
256,192,16701,12,0,17594
256,192,17772,5,4
256,192,17951,1,0
256,192,18129,1,8
256,192,18308,1,8
256,192,18397,1,8
256,192,18487,1,0
256,192,18665,1,8
256,192,18844,1,8
256,192,19022,1,0
256,192,19201,1,8
256,192,19379,1,0
256,192,19558,1,8
256,192,19737,1,0
256,192,19915,1,4
256,192,20094,1,0
256,192,20272,1,8
256,192,20451,1,8
256,192,20540,1,0
256,192,20629,1,8
256,192,20808,1,8
256,192,20987,1,8
256,192,21165,1,0
256,192,21344,1,8
256,192,21522,1,0
256,192,21701,1,8
256,192,21879,1,0
256,192,22058,1,4
256,192,22237,1,0
256,192,22415,1,8
256,192,22594,1,8
256,192,22683,1,8
256,192,22772,1,8
256,192,22951,1,8
256,192,23129,1,8
256,192,23308,1,0
256,192,23487,1,8
256,192,23665,1,0
256,192,23844,1,8
256,192,24022,1,0
256,192,24201,1,8
256,192,24290,1,0
256,192,24379,1,0
256,192,24469,1,0
256,192,24558,1,8
256,192,24737,1,0
256,192,24915,1,8
256,192,25272,1,4
256,192,25629,1,8
256,192,25987,1,8
256,192,26344,5,4
256,192,26522,1,0
256,192,26701,1,8
256,192,26879,1,8
256,192,26969,1,8
256,192,27058,1,0
256,192,27237,1,8
256,192,27415,1,8
256,192,27594,1,0
256,192,27772,1,8
256,192,27951,1,0
256,192,28129,1,8
256,192,28308,1,0
256,192,28487,1,4
256,192,28665,1,0
256,192,28844,1,8
256,192,29022,1,0
256,192,29112,1,0
256,192,29201,1,0
256,192,29379,1,8
256,192,29558,1,8
256,192,29737,1,0
256,192,29915,1,8
256,192,30094,1,0
256,192,30272,1,8
256,192,30451,1,0
256,192,30629,1,4
256,192,30808,1,0
256,192,30987,1,8
256,192,31165,1,0
256,192,31254,1,8
256,192,31344,1,0
256,192,31522,1,8
256,192,31701,1,8
256,192,31879,1,0
256,192,32058,1,8
256,192,32237,1,0
256,192,32415,1,8
256,192,32594,1,0
256,192,32772,1,8
256,192,32862,1,8
256,192,32951,1,0
256,192,33040,1,0
256,192,33129,1,8
256,192,33308,1,0
256,192,33487,1,8
256,192,33844,1,4
256,192,34201,1,8
256,192,34558,1,8
256,192,34915,5,0
256,192,35272,1,8
256,192,35629,1,8
256,192,35987,1,8
256,192,36165,1,8
256,192,36255,1,0
256,192,36344,1,0
256,192,36522,1,8
256,192,36612,1,8
256,192,36701,1,0
256,192,36880,1,8
256,192,37058,1,0
256,192,37415,1,8
256,192,37772,1,8
256,192,38130,1,4
256,192,38487,1,12
256,192,38844,1,8
256,192,39201,1,0
256,192,39558,1,8
256,192,39915,1,8
256,192,40272,1,8
256,192,40451,1,8
256,192,40540,1,8
256,192,40630,1,8
256,192,40808,1,8
256,192,40897,1,0
256,192,40987,1,0
256,192,41165,1,8
256,192,41344,1,0
256,192,41701,1,8
256,192,42058,1,8
256,192,42415,1,0
256,192,42772,1,8
256,192,43130,1,8
256,192,43487,5,0
256,192,43665,1,0
256,192,43844,1,8
256,192,44022,1,0
256,192,44112,1,8
256,192,44201,1,0
256,192,44380,1,0
256,192,44558,1,8
256,192,44737,1,8
256,192,44826,1,0
256,192,44915,1,0
256,192,45094,1,8
256,192,45183,1,8
256,192,45272,1,0
256,192,45451,1,8
256,192,45630,1,0
256,192,45808,1,0
256,192,45987,1,8
256,192,46165,1,0
256,192,46255,1,8
256,192,46344,1,0
256,192,46522,1,0
256,192,46701,1,4
256,192,47058,1,12
256,192,47415,1,8
256,192,47505,1,8
256,192,47594,1,8
256,192,47772,1,0
256,192,47951,1,0
256,192,48130,1,8
256,192,48308,1,0
256,192,48487,1,8
256,192,48844,1,8
256,192,49022,1,8
256,192,49112,1,8
256,192,49201,1,8
256,192,49380,1,8
256,192,49469,1,0
256,192,49558,1,0
256,192,49737,1,8
256,192,49915,1,0
256,192,50272,1,8
256,192,50630,1,8
256,192,50987,1,0
256,192,51076,1,0
256,192,51165,1,0
256,192,51255,1,0
256,192,51344,1,8
256,192,51433,1,0
256,192,51522,1,0
256,192,51612,1,0
256,192,51701,1,8
256,192,51790,1,0
256,192,51880,1,0
256,192,52058,5,4
256,192,52236,1,0
256,192,52415,1,8
256,192,52593,1,0
256,192,52683,1,0
256,192,52772,1,8
256,192,52861,1,8
256,192,52950,1,0
256,192,53129,1,8
256,192,53308,1,0
256,192,53486,1,4
256,192,53665,1,0
256,192,53843,1,8
256,192,54022,1,0
256,192,54111,1,0
256,192,54200,1,8
256,192,54290,1,8
256,192,54379,1,0
256,192,54558,1,8
256,192,54647,1,8
256,192,54736,1,0
256,192,54915,1,4
256,192,55183,1,8
256,192,55450,1,8
256,192,55629,1,4
256,192,55897,1,8
256,192,56165,1,8
256,192,56343,1,4
256,192,56522,1,0
256,192,56700,1,8
256,192,56879,1,0
256,192,56968,1,0
256,192,57058,1,8
256,192,57147,1,8
256,192,57236,1,0
256,192,57415,1,8
256,192,57593,1,0
256,192,57772,1,4
256,192,57950,1,0
256,192,58129,1,8
256,192,58308,1,8
256,192,58397,1,8
256,192,58486,1,0
256,192,58575,1,0
256,192,58665,1,0
256,192,58843,1,8
256,192,59022,1,0
256,192,59200,1,4
256,192,59379,1,0
256,192,59558,1,8
256,192,59736,1,8
256,192,59825,1,8
256,192,59915,1,0
256,192,60004,1,8
256,192,60093,1,0
256,192,60272,1,8
256,192,60450,1,0
256,192,60629,1,4
256,192,60808,1,0
256,192,60986,1,8
256,192,61165,1,0
256,192,61254,1,0
256,192,61343,1,8
256,192,61433,1,8
256,192,61522,1,0
256,192,61611,1,0
256,192,61700,1,8
256,192,61790,1,8
256,192,61879,1,0
256,192,61968,1,0
256,192,62058,1,8
256,192,62236,1,0
256,192,62325,1,0
256,192,62415,1,8
256,192,62593,1,0
256,192,62683,1,0
256,192,62772,1,8
256,192,62950,1,0
256,192,63040,1,0
256,192,63129,1,8
256,192,63308,1,0
256,192,63486,1,12
256,192,63665,1,0
256,192,63843,1,8
256,192,64022,1,8
256,192,64111,1,0
256,192,64200,1,8
256,192,64379,1,8
256,192,64468,1,0
256,192,64558,1,8
256,192,64736,1,8
256,192,64915,1,4
256,192,65093,1,0
256,192,65272,1,8
256,192,65450,1,0
256,192,65540,1,0
256,192,65629,1,8
256,192,65718,1,0
256,192,65808,1,0
256,192,65897,1,0
256,192,65986,1,8
256,192,66075,1,0
256,192,66165,1,0
256,192,66343,1,4
256,192,66611,1,8
256,192,66879,1,8
256,192,67058,1,4
256,192,67325,1,8
256,192,67593,1,8
256,192,67772,1,4
256,192,67950,1,0
256,192,68129,1,8
256,192,68308,1,0
256,192,68397,1,0
256,192,68486,1,8
256,192,68575,1,8
256,192,68665,1,0
256,192,68843,1,8
256,192,69022,1,0
256,192,69200,1,4
256,192,69379,1,0
256,192,69558,1,8
256,192,69736,1,0
256,192,69825,1,8
256,192,69915,1,0
256,192,70093,1,0
256,192,70272,1,8
256,192,70450,1,0
256,192,70629,1,4
256,192,70808,1,0
256,192,70986,1,8
256,192,71165,1,0
256,192,71254,1,8
256,192,71343,1,0
256,192,71433,1,0
256,192,71522,1,0
256,192,71700,1,8
256,192,71879,1,0
256,192,72058,1,4
256,192,72236,1,0
256,192,72415,1,8
256,192,72593,1,0
256,192,72683,1,0
256,192,72772,1,8
256,192,72861,1,0
256,192,72950,1,0
256,192,73040,1,0
256,192,73129,1,8
256,192,73218,1,0
256,192,73308,1,0
256,192,73486,1,8
256,192,73575,1,8
256,192,73665,1,0
256,192,73843,1,8
256,192,73933,1,0
256,192,74022,1,0
256,192,74200,1,8
256,192,74290,1,8
256,192,74379,1,8
256,192,74558,1,8
256,192,74736,1,0
256,192,74915,5,12
256,192,75272,1,8
256,192,75629,1,8
256,192,75986,1,0
256,192,76343,1,8
256,192,76700,1,8
256,192,77057,1,0
256,192,77414,1,8
256,192,77772,1,8
256,192,78129,1,0
256,192,78486,1,8
256,192,78843,1,8
256,192,79200,1,0
256,192,79379,1,0
256,192,79557,1,8
256,192,79736,1,0
256,192,79825,1,0
256,192,79914,1,8
256,192,80093,1,8
256,192,80272,1,0
256,192,80450,1,0
256,192,80629,1,8
256,192,80807,1,8
256,192,80897,1,0
256,192,80986,1,8
256,192,81164,1,8
256,192,81343,1,0
256,192,81522,1,0
256,192,81700,1,8
256,192,81879,1,0
256,192,81968,1,0
256,192,82057,1,8
256,192,82236,1,8
256,192,82414,1,0
256,192,82593,1,0
256,192,82772,1,8
256,192,82861,1,8
256,192,82950,1,0
256,192,83039,1,0
256,192,83129,1,8
256,192,83307,1,8
256,192,83486,1,0
256,192,83664,1,0
256,192,83843,1,8
256,192,84022,1,0
256,192,84111,1,8
256,192,84200,1,0
256,192,84379,1,8
256,192,84557,1,0
256,192,84736,1,0
256,192,84914,1,8
256,192,85093,1,8
256,192,85182,1,0
256,192,85272,1,0
256,192,85450,1,8
256,192,85629,1,0
256,192,85807,1,0
256,192,85986,1,8
256,192,86164,1,8
256,192,86254,1,8
256,192,86343,1,0
256,192,86522,1,8
256,192,86700,1,0
256,192,86789,1,0
256,192,86879,1,0
256,192,86968,1,0
256,192,87057,1,8
256,192,87147,1,0
256,192,87236,1,0
256,192,87325,1,0
256,192,87414,1,8
256,192,87504,1,0
256,192,87593,1,8
256,192,87772,1,0
256,192,87950,1,0
256,192,88129,1,8
256,192,88307,1,0
256,192,88397,1,8
256,192,88486,1,0
256,192,88664,1,8
256,192,88843,1,0
256,192,89022,1,0
256,192,89200,1,8
256,192,89379,1,8
256,192,89468,1,0
256,192,89557,1,8
256,192,89736,1,8
256,192,89914,1,4
256,192,90272,1,8
256,192,90629,1,8
256,192,90986,12,8,91879
256,192,92057,5,4
256,192,92236,1,0
256,192,92414,1,8
256,192,92593,1,8
256,192,92682,1,8
256,192,92772,1,0
256,192,92950,1,8
256,192,93129,1,0
256,192,93307,1,0
256,192,93486,1,8
256,192,93664,1,0
256,192,93843,1,8
256,192,94022,1,0
256,192,94200,1,4
256,192,94379,1,0
256,192,94557,1,8
256,192,94736,1,0
256,192,94825,1,0
256,192,94914,1,8
256,192,95093,1,8
256,192,95272,1,0
256,192,95450,1,0
256,192,95629,1,8
256,192,95807,1,0
256,192,95986,1,8
256,192,96164,1,0
256,192,96343,1,4
256,192,96522,1,0
256,192,96700,1,8
256,192,96879,1,0
256,192,96968,1,8
256,192,97057,1,0
256,192,97236,1,8
256,192,97414,1,0
256,192,97593,1,0
256,192,97772,1,8
256,192,97950,1,0
256,192,98129,1,8
256,192,98307,1,0
256,192,98486,1,8
256,192,98575,1,8
256,192,98664,1,0
256,192,98754,1,0
256,192,98843,1,8
256,192,99022,1,0
256,192,99200,1,8
256,192,99557,1,4
256,192,99914,1,8
256,192,100272,1,8
256,192,100629,5,4
256,192,100807,1,0
256,192,100986,1,8
256,192,101164,1,0
256,192,101254,1,0
256,192,101343,1,0
256,192,101522,1,8
256,192,101700,1,0
256,192,101879,1,0
256,192,102057,1,8
256,192,102236,1,0
256,192,102414,1,8
256,192,102593,1,0
256,192,102772,1,4
256,192,102950,1,0
256,192,103129,1,8
256,192,103307,1,8
256,192,103397,1,8
256,192,103486,1,8
256,192,103664,1,8
256,192,103843,1,0
256,192,104022,1,0
256,192,104200,1,8
256,192,104379,1,0
256,192,104557,1,8
256,192,104736,1,0
256,192,104914,1,4
256,192,105093,1,0
256,192,105272,1,8
256,192,105450,1,8
256,192,105539,1,0
256,192,105629,1,8
256,192,105807,1,8
256,192,105986,1,0
256,192,106164,1,0
256,192,106343,1,8
256,192,106522,1,0
256,192,106700,1,8
256,192,106879,1,0
256,192,107057,1,0
256,192,107147,1,0
256,192,107236,1,0
256,192,107325,1,0
256,192,107414,1,8
256,192,107593,1,0
256,192,107772,1,8
256,192,108129,1,4
256,192,108486,1,8
256,192,108843,1,8
256,192,109200,5,0
256,192,109557,1,8
256,192,109914,1,8
256,192,110272,1,0
256,192,110450,1,0
256,192,110539,1,0
256,192,110629,1,8
256,192,110807,1,8
256,192,110897,1,0
256,192,110986,1,0
256,192,111164,1,0
256,192,111343,1,0
256,192,111700,1,8
256,192,112057,1,8
256,192,112414,1,4
256,192,112772,1,12
256,192,113129,1,8
256,192,113486,1,0
256,192,113843,1,8
256,192,114200,1,8
256,192,114557,1,0
256,192,114736,1,8
256,192,114825,1,8
256,192,114914,1,0
256,192,115093,1,8
256,192,115182,1,8
256,192,115272,1,8
256,192,115450,1,8
256,192,115629,1,0
256,192,115986,1,8
256,192,116343,1,8
256,192,116700,1,0
256,192,117057,1,8
256,192,117414,1,8
256,192,117772,5,0
248,264,117950,1,0
256,192,118129,1,8
256,192,118307,1,0
256,192,118486,1,8
256,192,118664,1,0
256,192,118843,1,0
256,192,119022,1,0
256,192,119111,1,0
256,192,119200,1,8
256,192,119289,1,0
256,192,119379,1,8
256,192,119468,1,0
256,192,119557,1,0
256,192,119736,1,0
256,192,119914,1,0
256,192,120093,1,0
256,192,120272,1,8
256,192,120450,1,0
256,192,120629,1,8
256,192,120807,1,0
256,192,120986,1,4
256,192,121343,1,12
256,192,121700,1,8
256,192,121789,1,8
256,192,121879,1,8
256,192,122057,1,0
256,192,122414,1,8
256,192,122772,1,8
256,192,123129,1,0
256,192,123307,1,8
256,192,123397,1,8
256,192,123486,1,0
256,192,123575,1,0
256,192,123664,1,8
256,192,123754,1,8
256,192,123843,1,8
256,192,124022,1,8
256,192,124200,1,0
256,192,124557,1,8
256,192,124914,1,8
256,192,125272,1,8
256,192,125361,1,0
256,192,125450,1,0
256,192,125539,1,0
256,192,125629,1,8
256,192,125718,1,0
256,192,125807,1,0
256,192,125897,1,0
256,192,125986,1,8
256,192,126075,1,0
256,192,126164,1,0
256,192,126343,5,4
256,192,126521,1,0
256,192,126610,1,0
256,192,126700,1,8
256,192,126878,1,0
256,192,126967,1,0
256,192,127057,1,8
256,192,127146,1,8
256,192,127235,1,0
256,192,127325,1,0
256,192,127414,1,8
256,192,127592,1,0
256,192,127771,1,4
256,192,127950,1,0
256,192,128039,1,0
256,192,128128,1,8
256,192,128307,1,0
256,192,128396,1,0
256,192,128485,1,8
256,192,128575,1,8
256,192,128664,1,0
256,192,128753,1,0
256,192,128842,1,0
256,192,129021,1,0
256,192,129200,1,4
256,192,129467,1,8
256,192,129735,1,8
256,192,129914,1,4
256,192,130182,1,8
256,192,130450,1,8
256,192,130628,1,4
256,192,130807,1,0
256,192,130985,1,8
256,192,131164,1,0
256,192,131253,1,0
256,192,131342,1,8
256,192,131432,1,0
256,192,131521,1,0
256,192,131700,1,8
256,192,131878,1,0
256,192,132057,1,4
256,192,132235,1,8
256,192,132325,1,0
256,192,132414,1,0
256,192,132592,1,8
256,192,132682,1,0
256,192,132771,1,0
256,192,132860,1,0
256,192,132950,1,8
256,192,133039,1,0
256,192,133128,1,0
256,192,133307,1,0
256,192,133485,1,4
256,192,133664,1,8
256,192,133753,1,0
256,192,133842,1,0
256,192,134021,1,8
256,192,134110,1,0
256,192,134200,1,0
256,192,134289,1,0
256,192,134378,1,8
256,192,134467,1,8
256,192,134557,1,0
256,192,134735,1,8
256,192,134914,1,4
256,192,135092,1,0
256,192,135182,1,0
256,192,135271,1,8
256,192,135450,1,0
256,192,135628,1,8
256,192,135717,1,0
256,192,135807,1,0
256,192,135896,1,0
256,192,135985,1,8
256,192,136075,1,8
256,192,136164,1,0
256,192,136253,1,0
256,192,136342,1,8
256,192,136521,1,8
256,192,136610,1,8
256,192,136700,1,0
256,192,136878,1,8
256,192,136967,1,0
256,192,137057,1,0
256,192,137235,1,8
256,192,137325,1,8
256,192,137414,1,8
256,192,137592,1,0
256,192,137771,1,4
256,192,137950,1,0
256,192,138039,1,0
256,192,138128,1,8
256,192,138307,1,0
256,192,138396,1,0
256,192,138485,1,8
256,192,138575,1,8
256,192,138664,1,0
256,192,138753,1,8
256,192,138842,1,8
256,192,139021,1,8
256,192,139200,1,4
256,192,139378,1,0
256,192,139467,1,0
256,192,139557,1,8
256,192,139735,1,0
256,192,139825,1,0
256,192,139914,1,8
256,192,140003,1,0
256,192,140092,1,0
256,192,140182,1,0
256,192,140271,1,8
256,192,140360,1,0
256,192,140450,1,0
256,192,140628,1,4
256,192,140896,1,8
256,192,141164,1,8
256,192,141342,1,4
256,192,141610,1,8
256,192,141878,1,8
256,192,142057,1,4
256,192,142235,1,0
256,192,142325,1,8
256,192,142414,1,0
256,192,142592,1,0
256,192,142682,1,0
256,192,142771,1,8
256,192,142860,1,8
256,192,142950,1,0
256,192,143039,1,0
256,192,143128,1,8
256,192,143307,1,0
256,192,143485,1,4
256,192,143664,1,8
256,192,143753,1,0
256,192,143842,1,0
256,192,144021,1,8
256,192,144110,1,0
256,192,144200,1,8
256,192,144289,1,8
256,192,144378,1,0
256,192,144467,1,0
256,192,144557,1,8
256,192,144735,1,0
256,192,144914,1,4
256,192,145092,1,8
256,192,145182,1,8
256,192,145271,1,0
256,192,145450,1,8
256,192,145539,1,0
256,192,145628,1,0
256,192,145717,1,0
256,192,145807,1,8
256,192,145896,1,0
256,192,145985,1,0
256,192,146164,1,8
256,192,146342,1,4
256,192,146521,1,0
256,192,146610,1,0
256,192,146700,1,0
256,192,146878,1,0
256,192,146967,1,0
256,192,147057,1,8
256,192,147146,1,8
256,192,147235,1,0
256,192,147325,1,0
256,192,147414,1,8
256,192,147503,1,8
256,192,147592,1,0
256,192,147771,1,0
256,192,147950,1,0
256,192,148128,1,12
256,192,148307,1,0
256,192,148485,1,12
256,192,148664,1,0
256,192,148842,1,12
256,192,149200,12,0,153485
