osu file format v9

[General]
AudioFilename: ZUN - The Youkai Mountain ~ Mysterious Mountain.mp3
AudioLeadIn: 0
PreviewTime: 52396
Countdown: 0
SampleSet: Normal
StackLeniency: 0.8
Mode: 0
LetterboxInBreaks: 1

[Editor]
Bookmarks: 41862,42092
DistanceSpacing: 1.2
BeatDivisor: 4
GridSize: 4

[Metadata]
Title:The Youkai Mountain ~ Mysterious Mountain
Artist:ZUN
Creator:Deif
Version:Tenshi's Hard
Source:Touhou
Tags:mountain of faith aya shameimaru Tenshi-nyan Numbers 596108

[Difficulty]
HPDrainRate:6
CircleSize:4
OverallDifficulty:6
ApproachRate:7
SliderMultiplier:1.2
SliderTickRate:1

[Events]
//Background and Video events
0,0,"Background - Hard.jpg"
//Break Periods
2,79380,82209
//Storyboard Layer 0 (Background)
//Storyboard Layer 1 (Fail)
//Storyboard Layer 2 (Pass)
//Storyboard Layer 3 (Foreground)
//Storyboard Sound Samples
//Background Colour Transformations
3,100,163,162,255

[TimingPoints]
610,357.142857142857,3,2,0,58,1,0
41592,-100,3,1,0,32,0,0
43199,-100,3,2,0,58,0,0
50877,-100,3,1,0,56,0,0
52038,357.142857142857,4,1,0,44,1,1
74895,357.142857142857,3,2,0,58,1,0
83020,-100,3,1,0,34,0,0
83377,-100,3,2,0,58,0,0
115877,-100,3,1,0,35,0,0
117484,-100,3,2,0,58,0,0
125162,-100,3,1,0,60,0,0
126323,357.142857142857,4,1,0,43,1,1
149180,357.142857142857,3,2,0,58,1,0

[Colours]
Combo1 : 145,72,0
Combo2 : 244,38,38
Combo3 : 242,170,21
Combo4 : 182,200,228

[HitObjects]
256,192,4895,1,4
352,192,5252,1,0
352,288,5610,1,2
352,288,5788,1,0
352,288,5967,1,2
256,288,6324,6,2,B|168:288,4,60,2|0|2|0|2
192,192,7395,5,2
232,160,7574,1,0
264,192,7752,1,2
296,224,7931,1,0
336,192,8110,1,2
368,152,8288,5,0
416,152,8467,2,0,B|416:208,2,30,2|0|0
416,104,8824,2,0,B|416:32,2,60,2|0|4
296,72,9538,5,2
192,128,9895,1,2
192,248,10252,5,0
296,312,10610,1,2
400,248,10967,1,2
296,192,11324,5,0
296,72,11681,1,2
296,72,12038,1,2
200,152,12395,6,0,B|144:144|128:184,2,60,2|0|2
248,160,12931,1,0
280,200,13109,1,2
296,248,13288,1,0
296,296,13467,1,4
216,352,13824,5,2
125,329,14181,1,2
91,295,14359,1,0
64,256,14538,2,0,B|33:225|41:188,1,60,2|0
40,152,14895,1,2
56,104,15074,2,0,B|61:75|84:53,2,60,0|2|0
56,104,15609,1,4
256,192,15788,12,4,17752
256,192,18109,5,2
296,216,18288,1,0
344,224,18467,1,2
392,216,18645,1,0
432,192,18824,1,2
432,88,19181,5,8
344,48,19538,1,8
256,88,19895,1,4
160,88,20252,6,2,B|160:8,4,60,2|0|2|0|2
104,168,21324,5,8
160,248,21681,1,8
256,248,22038,1,4
320,176,22395,5,2
280,152,22574,1,0
232,144,22752,1,2
184,152,22931,1,0
144,176,23109,1,2
80,248,23467,5,8
168,288,23824,1,8
216,296,24002,2,0,B|216:216,2,60,2|2|2
264,288,24538,1,0
352,248,24895,1,4
418,185,25252,2,4,B|368:88|264:88|152:88|112:200,1,360,0|4
184,256,26681,5,2
184,304,26859,1,0
208,344,27038,1,2
256,360,27217,1,0
304,360,27395,1,2
384,304,27752,5,8
384,208,28109,1,8
288,208,28467,1,4
288,112,28824,6,2,B|200:112,4,60,2|0|2|0|2
384,112,29895,5,8
440,192,30252,1,8
384,272,30609,1,4
280,272,30967,5,2
236,255,31145,1,0
200,222,31324,1,2
177,179,31502,1,0
171,133,31681,1,2
240,64,32038,1,8
336,64,32395,1,8
384,64,32574,6,2,B|384:144,2,60,2|2|2
432,64,33109,1,0
464,152,33467,1,4
424,240,33824,2,4,B|374:337|270:337|158:337|118:225,1,360,0|0
160,152,35252,5,2
56,312,35967,1,2
24,280,36145,1,0
8,232,36324,2,2,B|8:176|40:160,1,60,2|0
32,120,36681,2,2,B|88:120|104:88,1,60
112,64,37038,5,4
208,48,37395,1,4
368,184,38110,1,2
272,184,38467,1,2
112,296,39181,2,2,B|248:296,1,120,0|2
104,160,40252,5,2
152,160,40431,1,0
200,160,40610,2,2,B|200:216|168:232,1,60,2|0
168,264,40967,2,2,B|224:264|240:232,1,60,0|2
272,240,41324,1,4
368,232,41681,5,0
368,232,42038,1,0
360,136,42395,2,0,B|296:112|240:136,1,120
152,136,43110,1,0
152,136,43467,5,0
244,136,43824,1,2
140,296,44538,1,2
188,296,44717,1,0
236,292,44895,2,2,B|236:236|204:220,1,60,2|0
264,212,45252,2,2,B|320:212|336:180,1,60
340,152,45610,5,4
384,68,45967,1,4
456,240,46681,1,2
408,320,47038,1,2
344,144,47752,1,0
344,144,48110,1,2
216,272,48824,6,2,B|152:232,1,60
112,192,49181,1,0
73,128,49360,2,2,B|17:128,2,30
118,65,49717,1,0
181,25,49895,1,4
176,296,50967,5,4
360,160,51324,1,4
120,184,51681,1,4
304,48,52038,1,4
176,320,52573,5,2
176,320,52663,1,2
176,320,52752,1,2
248,320,52930,1,2
392,320,53288,2,0,B|392:256,1,60,0|2
256,96,54002,5,0
256,96,54091,1,0
256,96,54180,1,2
304,176,54359,1,2
216,176,54538,1,2
256,256,54716,1,2
304,312,54895,5,0
192,312,55163,1,0
88,312,55430,1,0
40,264,55609,1,0
40,152,55877,1,0
152,152,56145,1,0
216,120,56323,2,2,B|216:40|360:48,1,180
432,56,57038,2,2,B|432:136|288:128,1,180
236,176,57752,6,2,B|348:240|236:344,1,180
200,280,58466,1,0
236,176,58734,1,0
120,208,59002,1,0
120,208,59180,2,2,B|64:296,2,90
72,152,59895,5,2
96,48,60163,1,0
184,112,60430,1,2
224,48,60609,1,2
320,104,60877,1,0
384,16,61145,1,0
408,80,61323,6,0,B|456:56,6,30,2|0|2|0|2|0|2
384,152,62038,2,2,B|328:184,1,60
384,232,62395,2,2,B|440:272,1,60
384,232,62752,2,2,B|320:280,1,60
384,328,63109,5,4
208,168,63466,1,4
72,344,64002,5,2
72,344,64091,1,2
72,344,64180,1,2
72,272,64359,1,2
72,200,64538,2,2,B|72:136,2,60
72,56,65252,5,0
144,56,65430,1,0
144,56,65520,1,0
144,56,65609,1,2
216,56,65788,2,2,B|280:56,1,60
352,56,66145,5,2
424,56,66323,2,2,B|464:160,1,90
384,220,66859,1,0
336,276,67038,2,2,B|220:296,1,90
248,292,67573,1,0
180,324,67752,1,2
88,216,68109,5,0
88,144,68288,1,0
92,72,68466,2,2,B|176:16|260:72,1,180
304,128,69180,6,2,B|416:128|416:72,1,120
424,20,69716,1,0
352,32,69895,2,2,B|264:32|264:72,1,90
176,112,70430,1,0
128,168,70609,5,2
196,256,70877,1,2
292,208,71145,1,0
356,240,71323,1,2
260,296,71591,1,2
160,352,71859,1,0
112,304,72038,1,2
32,232,72305,1,2
32,120,72573,5,2
104,120,72752,2,0,B|104:176,6,30,2|0|2|0|2|0|2
168,152,73466,2,2,B|256:152,1,60
232,224,73823,2,2,B|160:224,1,60
168,296,74180,2,2,B|248:296,1,60
232,368,74538,2,2,B|152:368,2,60,2|2|4
256,192,75073,12,4,79180
256,192,83109,5,0
256,192,83287,1,0
256,192,83466,2,2,B|256:72,2,120,2|2|2
256,192,84537,2,2,B|359:252,2,120,2|2|2
256,192,85609,2,2,B|152:252,2,120
344,152,86680,5,2
360,200,86859,1,0
408,200,87037,2,0,B|464:200|472:168,1,60,2|0
488,136,87394,2,0,B|488:80|456:64,1,60,2|0
432,56,87752,6,2,B|288:56,2,120,2|2|2
344,128,88823,2,2,B|200:128,2,120
256,192,89894,12,4,92037
256,192,92394,5,2
208,192,92573,1,0
160,192,92752,1,2
160,144,92930,1,0
160,96,93109,1,2
64,96,93466,5,8
64,192,93823,1,8
64,288,94180,1,4
160,288,94537,6,2,B|240:288,4,60,2|0|2|0|2
200,200,95609,5,8
280,144,95966,1,8
360,200,96323,1,4
456,200,96680,5,2
456,152,96859,1,0
456,104,97037,1,2
408,104,97216,1,0
360,104,97394,1,2
264,104,97752,5,8
168,104,98109,1,8
168,152,98287,5,2
168,200,98466,2,2,B|240:200,2,60,2|2|0
88,256,99180,1,4
168,312,99537,2,4,B|304:312|392:232|376:48,1,360,0|4
280,64,100966,5,2
240,40,101144,1,0
192,32,101323,1,2
144,40,101502,1,0
104,64,101680,1,2
104,160,102037,5,8
184,216,102394,1,8
264,160,102752,1,4
328,232,103109,6,2,B|416:232,4,60,2|0|2|0|2
328,328,104180,5,8
256,272,104537,1,8
184,216,104894,1,4
104,168,105252,5,2
80,208,105430,1,0
72,256,105609,1,2
80,304,105787,1,0
104,344,105966,1,2
200,344,106323,1,8
200,248,106680,1,8
248,248,106859,5,2
296,248,107037,2,2,B|296:320,2,60,2|2|0
392,240,107752,1,4
392,144,108109,2,0,B|352:32|144:32|98:159,1,360
128,248,109537,5,2
296,152,110252,1,2
344,152,110430,1,0
392,152,110609,2,2,B|392:208|432:216,1,60,2|0
408,248,110966,2,2,B|352:248|336:216,1,60
312,264,111323,5,4
240,328,111680,1,4
152,160,112394,1,2
248,160,112752,1,2
208,344,113466,2,2,B|72:344,1,120,0|2
256,256,114537,5,2
216,280,114716,1,0
168,280,114894,2,2,B|168:224|144:208,1,60,2|0
152,176,115252,2,2,B|208:176|224:144,1,60
256,152,115609,1,4
352,160,115966,6,0,B|320:96|360:48,2,120
432,112,117037,1,0
432,112,117394,1,0
432,272,117752,5,0
336,272,118109,1,2
264,96,118823,1,2
292,136,119002,1,0
292,184,119180,2,2,B|292:240|260:256,1,60,2|0
232,256,119537,2,2,B|181:252|178:236,1,60
160,192,119894,5,4
160,192,120252,1,4
264,280,120966,1,2
360,280,121323,1,2
216,160,122037,1,0
272,88,122394,1,2
296,272,123109,6,2,B|368:272,1,60
432,272,123466,1,0
432,200,123644,2,2,B|472:160,2,30
368,168,124002,1,0
312,120,124180,1,4
336,296,125252,5,4
152,160,125609,1,4
392,184,125966,1,4
208,48,126323,1,4
248,240,126858,5,0
248,240,126947,1,0
248,240,127037,1,2
248,312,127215,1,2
392,312,127572,2,0,B|392:248,1,60,0|2
432,96,128287,6,2,B|432:64,2,30,0|0|2
432,184,128644,1,2
472,264,128822,1,2
384,264,129001,1,2
312,288,129180,5,0
256,192,129447,1,0
208,288,129715,1,0
160,232,129894,1,0
80,304,130162,1,0
80,200,130430,1,0
80,128,130608,2,2,B|80:48|224:56,1,180
292,60,131322,2,2,B|292:140|148:132,1,180,2|0
80,128,132037,6,0,B|80:232|184:248|272:216,1,240,2|0
364,240,133019,1,0
400,344,133287,1,0
328,344,133465,2,2,B|240:344,2,90
320,272,134180,5,2
216,240,134447,1,2
120,280,134715,1,2
120,208,134894,1,0
216,160,135162,1,2
136,88,135430,1,2
208,64,135608,6,0,B|256:96,6,30,2|0|2|0|2|0|2
224,136,136322,2,2,B|176:184,1,60
248,208,136680,2,2,B|200:248,1,60
264,280,137037,2,2,B|200:328,1,60
96,320,137394,5,4
72,80,137751,1,4
72,80,138287,5,0
72,80,138376,1,0
72,80,138465,1,2
144,80,138644,1,2
216,80,138822,2,0,B|216:16,2,60,2|2|2
104,192,139537,5,0
176,192,139715,1,0
176,192,139805,1,0
176,192,139894,1,2
216,248,140072,2,2,B|280:248,1,60
344,248,140430,5,2
416,248,140608,2,2,B|456:352,1,90
340,336,141144,1,0
340,336,141322,1,2
232,336,141590,2,2,B|144:336,1,90,2|2
144,336,142037,1,2
36,232,142394,5,0
36,232,142572,1,0
60,164,142751,2,2,B|112:76|216:104,1,180
208,176,143465,6,2,B|208:244|264:288,1,120
324,312,144001,1,0
340,240,144180,2,2,B|324:188|292:152,1,90
208,104,144715,1,0
208,104,144894,5,2
108,68,145162,1,2
112,176,145430,1,0
156,232,145608,1,2
48,236,145876,1,2
48,128,146144,1,0
48,56,146322,1,2
152,24,146590,1,2
264,24,146858,1,2
336,24,147037,2,0,B|336:80,6,30,2|0|2|0|2|0|2
408,32,147751,6,2,B|496:32,1,60
456,104,148108,2,2,B|400:160,1,60
368,200,148465,2,2,B|320:248,1,60
256,248,148822,2,2,B|184:248,2,60,2|2|4
256,192,149358,12,4,153465
