osu file format v9

[General]
AudioFilename: ZUN - The Youkai Mountain ~ Mysterious Mountain.mp3
AudioLeadIn: 0
PreviewTime: 52396
Countdown: 0
SampleSet: Soft
StackLeniency: 0.9
Mode: 0
LetterboxInBreaks: 1

[Editor]
DistanceSpacing: 1
BeatDivisor: 4
GridSize: 8

[Metadata]
Title:The Youkai Mountain ~ Mysterious Mountain
Artist:ZUN
Creator:Deif
Version:Normal
Source:Touhou
Tags:mountain of faith aya shameimaru Tenshi-nyan Numbers 596108

[Difficulty]
HPDrainRate:4
CircleSize:4
OverallDifficulty:4
ApproachRate:4
SliderMultiplier:0.9
SliderTickRate:1

[Events]
//Background and Video events
0,0,"Background - Easy_Normal_Lunatic.jpg"
//Break Periods
2,79380,82146
//Storyboard Layer 0 (Background)
//Storyboard Layer 1 (Fail)
//Storyboard Layer 2 (Pass)
//Storyboard Layer 3 (Foreground)
//Storyboard Sound Samples
//Background Colour Transformations
3,100,163,162,255

[TimingPoints]
610,357.142857142857,3,2,0,70,1,0
50877,-100,3,1,0,30,0,0
51949,-100,3,1,0,70,0,0
52038,357.142857142857,4,1,0,70,1,1
52127,-100,4,1,0,50,0,1
74895,357.142857142857,3,1,0,50,1,0
74984,-100,3,2,0,70,0,0
125162,-100,3,1,0,30,0,0
126234,-100,3,1,0,70,0,0
126323,357.142857142857,4,1,0,70,1,1
126412,-100,4,1,0,50,0,1
149180,357.142857142857,3,1,0,30,1,0
149269,-100,3,2,0,30,0,0

[Colours]
Combo1 : 145,72,0
Combo2 : 244,38,38
Combo3 : 242,170,21
Combo4 : 182,200,228

[HitObjects]
296,120,4895,2,0,B|384:120,2,90,6|2|2
216,168,5967,2,0,B|128:168,2,90,2|2|2
296,216,7038,2,0,B|384:216,2,90,2|2|2
216,264,8110,1,8
256,344,8467,1,8
344,344,8824,1,4
392,264,9181,6,0,B|480:264,2,90,2|2|2
320,208,10252,2,0,B|232:208,2,90,2|2|2
392,152,11324,2,0,B|480:152,2,90,2|2|2
320,96,12395,1,8
232,96,12752,1,8
144,96,13109,1,4
144,184,13467,6,0,B|40:184,2,90,2|2|2
216,240,14538,2,0,B|304:240,2,90,2|2|2
256,192,15609,12,4,17038
256,136,17752,6,0,B|256:224,2,90,4|8|8
256,48,18824,1,0
168,72,19181,1,8
168,160,19538,1,8
256,136,19895,2,0,B|296:248|176:320|88:232,1,270,4|0
56,168,21324,5,8
144,160,21681,1,8
56,168,22038,2,0,B|16:56|136:-16|224:72,1,270,4|0
304,80,23467,1,8
368,144,23824,6,2,B|416:144,2,45,8|2|6
324,224,24538,1,6
232,224,24895,1,8
192,144,25252,2,0,B|120:160|104:240|160:280,1,180,2|2
232,224,26324,5,4
312,272,26681,2,0,B|312:152|464:168|480:64,1,270,0|8
400,32,28109,1,8
312,32,28467,2,0,B|200:24|120:80|128:192,1,270,4|0
216,176,29895,5,8
288,120,30252,1,8
376,120,30609,2,0,B|383:217|303:273|193:266,1,270,4|0
104,264,32038,1,8
120,176,32395,6,2,B|168:176,2,45,8|2|6
80,96,33109,1,6
148,40,33467,1,8
216,96,33824,2,0,B|312:152|240:264,1,180,2|2
160,248,34895,5,4
160,248,35252,1,2
344,248,35967,2,0,B|316:296,2,45,0|0|2
392,248,36502,2,0,B|420:296,2,45
368,208,37038,1,4
416,136,37395,1,2
256,72,38110,1,4
256,160,38467,1,2
432,160,39181,5,4
344,160,39538,1,2
168,136,40252,2,0,B|216:108,2,45,0|0|2
168,184,40788,2,0,B|216:212,2,45
128,160,41324,1,4
344,192,43467,5,4
344,192,43824,1,2
168,168,44538,2,0,B|168:120,2,45,0|0|2
168,216,45074,2,0,B|168:264,2,45
208,192,45610,1,4
296,192,45967,1,2
440,304,46681,1,4
368,248,47038,1,2
440,80,47752,5,4
368,136,48110,1,2
208,216,48824,2,0,B|256:256,2,45,4|0|2
208,168,49360,2,0,B|256:128,2,45
168,192,49895,1,4
256,192,50074,12,4,52038
256,192,52752,6,0,B|218:220|218:286|284:296,1,135
320,304,53466,2,0,B|395:313|440:256,1,135
464,224,54180,6,2,B|501:167|492:129|464:100,1,135
424,80,54895,2,0,B|368:48|320:80,4,90,0|2|0|2|0
352,192,56859,5,2
352,192,57038,2,0,B|256:192,2,90,2|0|2
224,320,58466,6,0,B|36:340|-67:194|36:28|244:69,1,540
352,192,61323,1,0
352,192,61680,1,0
352,192,62038,1,2
264,192,62395,5,0
192,136,62752,1,2
256,72,63109,1,2
328,128,63466,1,4
192,136,64002,6,0,B|208:208|288:208|312:264,1,180
336,304,64895,2,0,B|429:324|424:232,1,135
432,192,65609,6,2,B|440:144|328:184|336:104,1,135
312,80,66323,2,0,B|256:48|208:80,4,90,0|2|0|2|0
248,200,68288,5,2
248,200,68466,2,0,B|152:200,2,90,2|0|2
120,320,69895,6,0,B|307:340|411:194|307:28|99:69,1,540
256,192,72752,1,0
256,192,73109,1,0
256,192,73466,1,2
344,192,73823,5,0
300,112,74180,1,2
212,112,74538,1,2
168,192,74895,1,4
256,192,75073,12,4,79180
256,192,83466,5,0
212,268,83823,1,8
300,268,84180,1,8
256,192,84537,5,0
212,115,84894,1,8
168,192,85252,1,8
256,192,85609,5,0
343,192,85966,1,8
299,115,86323,1,8
256,192,86680,6,0,B|208:160,5,45,0|0|2|0|0|0
184,136,87752,2,0,B|120:112|88:144,2,90,2|8|10
144,216,88823,2,0,B|80:240|48:208,2,90,2|8|10
256,192,89894,12,4,92037
256,192,93109,5,0
280,280,93466,1,8
368,272,93823,1,8
376,184,94180,2,0,B|332:96|240:60|192:104|144:152,1,270,4|0
92,200,95609,5,8
156,264,95966,1,8
216,200,96323,2,0,B|260:296|352:324|400:280|440:236,1,270,4|0
420,156,97752,1,8
336,184,98109,6,2,B|312:128,2,45,8|2|6
268,244,98823,1,6
224,320,99180,1,8
316,324,99537,2,0,B|434:343|444:228,1,180,2|2
388,164,100609,5,6
472,136,100966,2,0,B|448:8|240:72,1,270,0|8
288,152,102394,1,8
376,160,102752,2,0,B|352:280|144:224,1,270,4|0
200,152,104180,5,8
144,80,104537,1,8
88,152,104894,2,0,B|32:232|88:336|200:336,1,270,4|0
288,336,106323,1,8
376,336,106680,6,2,B|348:280,2,45,8|2|6
464,336,107394,1,6
424,256,107752,1,8
360,192,108109,2,4,B|320:128|216:128|288:264|184:264|144:192,1,270,4|2
104,120,109537,5,2
104,304,110252,2,0,B|112:248,1,45
152,248,110609,2,0,B|160:192,1,45,2|0
200,192,110966,2,0,B|208:136,1,45
248,136,111323,1,4
336,136,111680,1,2
308,312,112394,1,4
380,256,112752,1,2
208,312,113466,5,4
136,256,113823,1,2
280,152,114537,2,0,B|320:104,2,45,0|0|2
232,152,115073,2,0,B|192:104,2,45
256,192,115609,1,4
344,192,117752,5,4
344,192,118109,1,2
232,48,118823,2,0,B|176:56,1,45
176,96,119180,2,0,B|120:104,1,45,2|0
120,144,119537,2,0,B|64:152,1,45
64,192,119894,1,4
64,280,120252,1,2
200,160,120966,1,4
232,248,121323,1,2
400,184,122037,5,4
368,96,122394,1,2
216,200,123109,2,0,B|272:176,6,45,4|0|2|0|0|0|4
184,280,125252,5,4
112,232,125609,1,4
184,184,125966,1,4
256,232,126323,1,4
128,112,127037,6,0,B|146:71|225:71|246:121,1,135
280,136,127751,2,0,B|352:192|352:256,1,135
360,288,128465,6,2,B|400:308|448:312|464:240,1,135
464,200,129180,1,0
464,112,129537,1,0
384,72,129894,1,0
304,112,130251,1,0
384,160,130608,2,2,B|288:256,1,135,2|0
256,288,131322,1,0
256,104,132037,5,4
80,152,132751,2,0,B|36:304|296:272|144:208|128:112|384:112|368:208|216:272|476:304|433:150,1,540
256,104,135608,1,0
256,104,135965,1,0
256,104,136322,1,2
256,192,136680,5,4
300,268,137037,1,2
388,268,137394,1,2
344,192,137751,1,0
216,156,138287,5,0
176,176,138465,2,0,B|136:212|136:248|184:288,1,135
224,296,139180,2,2,B|296:320|360:272,1,135
392,248,139894,6,2,B|440:224|456:184|416:136,1,135
384,104,140608,1,0
296,72,140965,1,0
208,96,141322,1,0
264,168,141680,1,0
352,200,142037,2,2,B|256:312,1,135,2|0
232,336,142751,1,0
416,336,143465,5,2
416,152,144180,2,0,B|464:24|216:32|352:168|343:261|169:261|160:168|296:32|48:24|97:154,1,540
96,336,147037,1,0
96,336,147394,1,0
96,336,147751,1,2
176,304,148108,5,0
256,272,148465,1,2
176,224,148822,1,2
256,192,149180,1,4
256,192,149358,12,4,153465
