osu file format v9

[General]
AudioFilename: ZUN - The Youkai Mountain ~ Mysterious Mountain.mp3
AudioLeadIn: 0
PreviewTime: 52396
Countdown: 0
SampleSet: Soft
StackLeniency: 0.7
Mode: 0
LetterboxInBreaks: 1

[Editor]
DistanceSpacing: 1
BeatDivisor: 4
GridSize: 8

[Metadata]
Title:The Youkai Mountain ~ Mysterious Mountain
Artist:ZUN
Creator:Deif
Version:Easy
Source:Touhou
Tags:mountain of faith aya shameimaru Tenshi-nyan Numbers 596108

[Difficulty]
HPDrainRate:1
CircleSize:3
OverallDifficulty:1
ApproachRate:2
SliderMultiplier:0.7
SliderTickRate:1

[Events]
//Background and Video events
0,0,"Background - Easy_Normal_Lunatic.jpg"
//Break Periods
2,79380,81906
//Storyboard Layer 0 (Background)
//Storyboard Layer 1 (Fail)
//Storyboard Layer 2 (Pass)
//Storyboard Layer 3 (Foreground)
//Storyboard Sound Samples
//Background Colour Transformations
3,100,163,162,255

[TimingPoints]
610,357.142857142857,3,2,0,70,1,0
50877,-100,3,1,0,50,0,0
51948,-100,3,1,0,70,0,0
52038,357.142857142857,4,1,0,70,1,1
52127,-100,4,1,0,50,0,1
74895,357.142857142857,3,1,0,50,1,0
74984,-100,3,2,0,70,0,0
125162,-100,3,1,0,50,0,0
126233,-100,3,1,0,70,0,0
126323,357.142857142857,4,1,0,70,1,1
126412,-100,4,1,0,50,0,1
149180,357.142857142857,3,1,0,50,1,0
149269,-100,3,2,0,70,0,0

[Colours]
Combo1 : 145,72,0
Combo2 : 244,38,38
Combo3 : 242,170,21
Combo4 : 182,200,228

[HitObjects]
48,48,4895,1,6
256,48,5967,1,2
464,48,7038,1,2
320,192,8110,1,8
368,240,8467,1,8
416,288,8824,1,8
464,336,9181,5,6
256,336,10252,1,2
48,336,11324,1,2
192,192,12395,1,8
144,144,12752,1,8
96,96,13109,1,8
48,48,13467,5,6
256,48,14538,1,2
240,256,15609,2,0,B|172:283|104:222|172:147|226:168|254:195,1,210,4|0
448,192,17752,6,0,B|432:64|224:56,1,280,6|8
160,56,19538,1,8
88,56,19895,2,0,B|104:184|312:192,1,280,2|8
376,192,21681,1,8
448,192,22038,6,0,B|448:96|272:112,1,210,2|2
208,112,23467,1,8
208,184,23824,2,0,B|288:184,4,70,8|2|2|0|6
352,336,26324,6,0,B|376:240|520:216|440:96,1,280,6|8
400,40,28109,1,8
360,96,28467,2,0,B|281:213|425:237|449:333,1,280,2|8
376,336,30252,1,8
304,336,30609,6,0,B|208:336|160:256|192:192,1,210,2|2
208,136,32038,1,8
264,96,32395,1,8
328,112,32752,2,0,B|424:112|472:192|440:256,2,210,2|4|0
328,184,35252,1,2
336,320,35967,6,0,B|416:320,4,70,0|2|0|0|2
444,228,38110,2,0,B|444:156,1,70,0|2
304,156,39181,6,0,B|304:228,1,70,0|2
180,160,40252,2,0,B|148:206|195:237,3,70,0|2|0|4
48,64,43467,6,0,B|120:64,1,70,2|2
256,64,44538,2,0,B|332:131|256:188|179:256|256:332,1,280,2|2
384,320,46681,2,0,B|456:320,1,70,2|2
384,200,47752,6,0,B|352:136,1,70,6|2
480,200,48824,2,0,B|424:96|400:48|400:48|344:48,1,210,4|2
152,96,50967,6,0,B|152:168,3,70,4|4|4|4
288,192,52752,6,0,B|360:224|368:304,1,140,0|0
224,304,54180,1,2
144,192,54895,2,0,B|62:174|53:275,2,140,0|2|0
128,296,56859,2,2,B|112:344,1,35
216,232,57752,5,2
88,176,58466,2,0,B|112:88|208:104,3,140,0|2|0|2
264,104,60966,1,0
264,176,61323,2,0,B|272:232|352:232|360:168,1,140,2|0
392,112,62395,6,0,B|456:160,1,70,2|2
448,224,63109,2,2,B|392:272,1,70,0|2
264,328,64180,6,0,B|176:352|136:264,1,140,0|2
264,208,65609,2,0,B|240:176|200:176,1,70,0|0
136,160,66323,2,0,B|80:88|144:32,2,140,2|8|2
224,96,68288,2,2,B|282:96,1,35
400,96,69180,5,2
460,224,69895,2,0,B|396:280|336:224,3,140,8|2|8|2
216,144,72752,2,0,B|160:136|160:56|224:48,1,140,2|0
288,48,73823,6,0,B|364:86,1,70,2|2
352,152,74538,2,2,B|294:190,1,70,2|6
256,192,75073,12,4,79180
256,88,83466,5,2
152,272,84537,1,2
360,272,85609,1,2
168,192,86680,1,8
216,144,87037,1,8
288,144,87394,1,8
336,192,87752,5,6
168,320,88823,1,2
376,320,89894,2,0,B|408:216|408:216|360:168|312:216,1,210,4|0
503,115,92037,6,0,B|448:32|232:40,1,280,2|8
176,48,93823,1,8
104,64,94180,2,0,B|-48:80|48:320,1,280,2|8
96,324,95966,1,8
112,256,96323,6,0,B|72:160|160:104|224:152,1,210,2|2
176,208,97752,1,8
208,272,98109,2,0,B|262:238|239:186,4,70,8|2|6|0|4
360,128,100609,6,0,B|208:128|456:336|304:336,1,280,6|8
256,296,102394,1,8
200,336,102752,2,0,B|64:336|312:120|144:128,1,280,2|8
107,77,104537,1,8
168,40,104894,6,0,B|236:108|283:108|352:32,1,210,2|2
405,77,106323,1,8
384,144,106680,1,8
352,208,107037,2,0,B|296:152|216:152|160:208,2,210,2|4|2
192,80,110252,6,0,B|112:80,4,70,0|2|0|0|2
72,156,112394,2,0,B|72:228,1,70,0|2
212,228,113466,6,0,B|212:156,1,70,0|2
336,224,114537,2,0,B|368:178|321:147,3,70,0|2|0|2
27,192,117752,6,0,B|96:192,1,70,2|2
72,56,118823,2,0,B|224:104|136:248|256:256,1,280,0|2
384,256,120966,2,0,B|456:256,1,70
456,120,122037,6,0,B|384:120,1,70,6|2
348,256,123109,2,0,B|303:322|258:190|212:322|148:248,1,210,4|2
292,96,125252,6,0,B|220:96,3,70,4|4|4|4
296,216,127037,6,0,B|200:232|232:336,1,140
368,320,128465,1,2
432,192,129180,2,0,B|488:128|432:64,2,140,0|2|0
352,128,131144,2,2,B|295:128,1,35
176,128,132037,5,2
56,192,132751,2,0,B|80:280|176:264,3,140,8|2|8|2
192,200,135251,1,0
176,128,135608,2,0,B|223:72|309:100,1,140,8|0
368,128,136680,6,0,B|432:160,1,70,2|2
432,232,137394,2,2,B|368:264,1,70,2|2
232,296,138465,6,0,B|144:312|104:224,1,140,0|0
232,168,139894,2,2,B|216:96,1,70
144,96,140608,2,0,B|48:80|48:192,2,140,2|0|2
248,96,142572,2,2,B|305:96,1,35
424,96,143465,5,2
400,232,144180,2,0,B|336:288|275:227,3,140,8|2|8|2
160,144,147037,2,0,B|100:151|100:231|156:239,1,140,2|0
216,272,148108,6,0,B|292:310,1,70,2|2
352,304,148822,2,2,B|424:272,1,70,2|6
256,192,149358,12,4,153465
