osu file format v12

[General]
AudioFilename: 909090.mp3
AudioLeadIn: 1750
PreviewTime: 50986
Countdown: 0
SampleSet: Soft
StackLeniency: 0.3
Mode: 0
LetterboxInBreaks: 0

[Editor]
Bookmarks: 79199
DistanceSpacing: 0.9
BeatDivisor: 4
GridSize: 4

[Metadata]
Title:The Youkai Mountain ~ Mysterious Mountain
TitleUnicode:妖怪の山 ~ Mysterious Mountain
Artist:ZUN
ArtistUnicode:ZUN
Creator:BCI
Version:Easy
Source:Touhou
Tags:aya shameimaru mof mountain of faith th10 Black_Cherry_Ita Leyko _LRJ_ LRJulien Kokatsu Flask Loneight l1106188 collab collaboration
BeatmapID:214556
BeatmapSetID:76048

[Difficulty]
HPDrainRate:3
CircleSize:3
OverallDifficulty:3
ApproachRate:4
SliderMultiplier:1
SliderTickRate:2

[Events]
//Background and Video events
0,0,"bg.jpg",0,0
//Break Periods
2,79399,88594
//Storyboard Layer 0 (Background)
//Storyboard Layer 1 (Fail)
//Storyboard Layer 2 (Pass)
//Storyboard Layer 3 (Foreground)
//Storyboard Sound Samples
//Background Colour Transformations
3,100,0,0,0

[TimingPoints]
629,357.142857142857,3,2,1,70,1,0
8396,-100,3,2,2,70,0,0
8575,-100,3,2,1,70,0,0
8753,-100,3,2,2,70,0,0
8932,-100,3,2,1,70,0,0
10539,-100,3,2,2,70,0,0
10718,-100,3,2,1,70,0,0
11611,-100,3,2,2,70,0,0
11789,-100,3,2,1,70,0,0
12682,-100,3,2,2,70,0,0
12861,-100,3,2,1,70,0,0
14825,-100,3,2,2,70,0,0
15003,-100,3,2,1,70,0,0
16968,-100,3,2,2,70,0,0
17146,-100,3,2,1,70,0,0
18039,-100,3,2,2,70,0,0
18218,-100,3,2,1,70,0,0
20182,-100,3,2,2,70,0,0
20361,-100,3,2,1,70,0,0
21253,-100,3,2,2,70,0,0
21432,-100,3,2,1,70,0,0
22325,-100,3,2,2,70,0,0
22503,-100,3,2,1,70,0,0
28753,-100,3,2,2,70,0,0
28932,-100,3,2,1,70,0,0
31253,-100,3,2,2,70,0,0
31432,-100,3,2,1,70,0,0
43039,-100,3,2,1,30,0,0
43218,-100,3,2,1,70,0,0
49914,-100,3,2,1,50,0,0
50986,-100,3,2,1,75,0,0
52057,357.142857142857,4,2,1,80,1,1
52324,-100,4,2,2,80,0,1
52503,-100,4,2,1,80,0,1
55182,-100,4,2,2,80,0,1
55360,-100,4,2,1,80,0,1
56610,-100,4,2,2,80,0,1
56789,-100,4,2,1,80,0,1
58039,-100,4,2,2,80,0,1
58218,-100,4,2,1,80,0,1
60182,-100,4,2,2,80,0,1
60361,-100,4,2,1,80,0,1
63753,-100,4,2,2,80,0,1
63931,-100,4,2,1,80,0,1
65181,-100,4,2,2,80,0,1
65360,-100,4,2,1,80,0,1
66610,-100,4,2,2,80,0,1
66789,-100,4,2,1,80,0,1
68039,-100,4,2,2,80,0,1
68217,-100,4,2,1,80,0,1
69468,-100,4,2,2,80,0,1
69736,-100,4,2,1,80,0,1
72324,-100,4,2,2,80,0,1
72503,-100,4,2,1,80,0,1
74914,357.142857142857,3,2,1,70,1,0
94467,-100,3,2,2,70,0,0
94646,-100,3,2,1,70,0,0
95539,-100,3,2,2,70,0,0
95717,-100,3,2,1,70,0,0
98039,-100,3,2,2,70,0,0
98217,-100,3,2,1,70,0,0
103039,-100,3,2,2,70,0,0
103217,-100,3,2,1,70,0,0
104110,-100,3,2,2,70,0,0
104289,-100,3,2,1,70,0,0
117324,-100,3,2,1,30,0,0
117503,-100,3,2,1,70,0,0
125271,-100,3,2,1,75,0,0
126342,357.142857142857,4,2,1,80,1,1
126609,-100,4,2,2,80,0,1
126788,-100,4,2,1,80,0,1
129467,-100,4,2,2,80,0,1
129645,-100,4,2,1,80,0,1
130895,-100,4,2,2,80,0,1
131074,-100,4,2,1,80,0,1
132324,-100,4,2,2,80,0,1
132502,-100,4,2,1,80,0,1
135181,-100,4,2,2,80,0,1
135359,-100,4,2,1,80,0,1
138752,-100,4,2,2,80,0,1
138931,-100,4,2,1,80,0,1
140895,-100,4,2,2,80,0,1
141074,-100,4,2,1,80,0,1
143752,-100,4,2,2,80,0,1
143931,-100,4,2,1,80,0,1
146609,-100,4,2,2,80,0,1
146788,-100,4,2,1,80,0,1
149199,357.142857142857,3,2,1,70,1,0

[Colours]
Combo1 : 114,140,167
Combo2 : 231,47,14
Combo3 : 234,220,55
Combo4 : 81,136,88

[HitObjects]
80,68,629,2,0,P|40:184|85:230,1,200,4|8,0:0|0:0,0:0:0:0:
156,288,1700,2,0,L|364:288,1,200,2|8,0:0|0:0,0:0:0:0:
426,230,2771,2,0,P|472:184|432:68,1,200,2|8,0:0|0:0,0:0:0:0:
344,68,3843,2,0,L|232:64,2,100,2|8|8,0:0|0:0|0:0,0:0:0:0:
388,148,4914,5,4,0:0:0:0:
428,232,5271,2,0,L|408:336,1,100,8|8,0:0|0:0,0:0:0:0:
324,360,5986,1,2,0:0:0:0:
260,296,6343,2,0,P|208:288|156:300,1,100,8|8,0:0|0:0,0:0:0:0:
72,288,7057,5,2,0:0:0:0:
32,208,7414,1,8,0:0:0:0:
80,132,7771,1,8,0:0:0:0:
168,140,8128,2,0,P|196:60|328:160,1,300,2|4,0:0|0:0,0:0:0:0:
420,120,9557,6,0,P|420:172|384:224,1,100,8|8,0:0|0:0,0:0:0:0:
336,280,10271,2,0,P|264:324|164:276,1,200,2|8,0:0|0:0,0:0:0:0:
76,280,11343,2,0,B|76:228|48:192|48:192|76:156|76:88,1,200,2|8,0:0|0:0,0:0:0:0:
164,64,12414,2,0,B|256:88|256:88|372:60,1,200,2|8,0:0|0:0,0:0:0:0:
448,80,13486,5,2,0:0:0:0:
440,168,13843,2,0,P|432:236|432:280,1,100,8|8,0:0|0:0,0:0:0:0:
488,336,14557,2,0,P|404:356|344:256,1,200,2|8,0:0|0:0,0:0:0:0:
256,264,15628,6,0,L|256:60,1,200,4|2,0:0|0:0,0:0:0:0:
168,92,16700,2,0,B|168:176|80:176|80:272,1,200,2|8,0:0|0:0,0:0:0:0:
160,304,17771,6,0,P|252:268|320:332,1,200,4|8,0:0|0:0,0:0:0:0:
408,340,18843,2,0,P|448:336|504:304,2,100,2|8|8,0:0|0:0|0:0,0:0:0:0:
424,252,19914,6,0,P|460:200|404:80,1,200,2|8,0:0|0:0,0:0:0:0:
376,168,20986,2,0,B|280:140|280:216|164:168,1,200,2|8,0:0|0:0,0:0:0:0:
188,88,22057,6,0,B|136:84|104:128|104:128|48:104|-4:144,1,200,2|8,0:0|0:0,0:0:0:0:
60,208,23128,2,0,P|64:260|92:308,1,100,2|8,0:0|0:0,0:0:0:0:
172,328,23843,1,8,0:0:0:0:
256,292,24200,6,0,P|320:252|424:316,1,200,4|2,0:0|0:0,0:0:0:0:
336,340,25271,1,2,0:0:0:0:
256,80,26343,5,4,0:0:0:0:
180,124,26700,2,0,L|80:124,2,100,8|8|2,0:0|0:0|0:0,0:0:0:0:
256,172,27771,2,0,L|256:276,1,100,8|8,0:0|0:0,0:0:0:0:
340,320,28486,6,0,L|340:108,1,200,2|8,0:0|0:0,0:0:0:0:
388,44,29557,2,0,P|340:32|292:44,1,100,2|8,0:0|0:0,0:0:0:0:
248,120,30271,2,0,P|200:132|152:120,1,100,8|2,0:0|0:0,0:0:0:0:
64,132,30986,6,0,P|20:208|68:316,1,200,8|2,0:0|0:0,0:0:0:0:
136,348,32057,2,0,P|184:356|236:348,1,100,8|8,0:0|0:0,0:0:0:0:
256,260,32771,5,4,0:0:0:0:
196,192,33128,1,4,0:0:0:0:
256,124,33486,1,2,0:0:0:0:
316,192,33843,1,2,0:0:0:0:
52,140,34914,6,0,P|44:192|56:244,1,100,0|2,0:0|0:0,0:0:0:0:
208,332,35986,2,0,P|260:344|312:324,2,100,0|2|0,0:0|0:0|0:0,0:0:0:0:
252,256,37057,2,0,P|208:244|148:264,1,100,0|2,0:0|0:0,0:0:0:0:
116,136,38128,2,0,P|168:124|220:140,1,100,0|2,0:0|0:0,0:0:0:0:
376,60,39200,5,0,0:0:0:0:
464,80,39557,1,2,0:0:0:0:
440,244,40271,2,0,P|416:336|304:240,1,300
264,164,41700,5,2,0:0:0:0:
236,80,42057,1,0,0:0:0:0:
176,148,42414,2,0,P|128:136|76:148,2,100,0|2|0,0:0|0:0|1:0,0:0:0:0:
264,164,43486,6,0,P|312:176|364:164,1,100,0|2,0:0|0:0,0:0:0:0:
464,312,44557,2,0,B|364:280|364:352|256:320,1,200
180,308,45628,2,0,P|136:300|76:308,1,100,0|2,0:0|0:0,0:0:0:0:
80,128,46700,2,0,P|144:136|192:124,1,100,0|2,0:0|0:0,0:0:0:0:
348,72,47771,6,0,P|364:120|344:172,1,100,4|2,0:0|0:0,0:0:0:0:
256,320,48843,2,0,L|152:332,1,100,4|2,0:0|0:0,0:0:0:0:
116,248,49557,2,0,L|228:236,2,100,0|4|2,0:0|0:0|0:0,0:0:0:0:
124,68,50986,6,0,P|72:92|44:136,1,100,4|4,0:0|0:0,0:0:0:0:
132,156,51700,1,4,0:0:0:0:
172,236,52057,6,0,P|256:288|344:232,1,200,4|2,0:0|0:0,0:0:0:0:
256,200,53128,1,8,0:0:0:0:
308,128,53486,1,2,0:0:0:0:
368,60,53842,1,8,0:0:0:0:
428,128,54200,2,0,P|436:180|424:240,1,100,2|8,0:0|0:0,0:0:0:0:
496,284,54914,6,0,P|436:312|332:232,1,200,2|2,0:0|0:0,0:0:0:0:
256,284,55985,1,8,0:0:0:0:
164,260,56342,2,0,B|164:208|120:176|120:176|164:144|164:80,1,200,2|2,0:0|0:0,0:0:0:0:
224,24,57414,1,8,0:0:0:0:
256,108,57771,6,0,B|256:192|348:192|348:296,1,200,2|2,0:0|0:0,0:0:0:0:
256,284,58842,2,0,L|148:304,2,100,8|2|8,0:0|0:0|0:0,0:0:0:0:
312,356,59914,2,0,P|368:364|424:244,1,200,2|2,0:0|0:0,0:0:0:0:
464,172,60986,6,0,P|412:164|364:184,1,100,8|2,0:0|0:0,0:0:0:0:
308,116,61699,1,8,0:0:0:0:
240,56,62057,6,0,L|124:44,1,100,4|4,0:0|0:0,0:0:0:0:
124,132,62771,2,0,L|232:144,1,100,4|4,0:0|0:0,0:0:0:0:
308,116,63485,6,0,P|308:184|200:232,1,200,4|2,0:0|0:0,0:0:0:0:
136,292,64556,1,8,0:0:0:0:
56,336,64914,2,0,B|44:228|44:228|64:188|52:128,1,200,2|2,0:0|0:0,0:0:0:0:
56,52,65985,1,8,0:0:0:0:
140,84,66342,6,0,P|212:136|304:64,1,200,2|2,0:0|0:0,0:0:0:0:
384,56,67414,1,8,0:0:0:0:
452,116,67771,2,0,P|464:184|364:264,1,200,2|2,0:0|0:0,0:0:0:0:
372,172,68842,1,8,0:0:0:0:
296,216,69199,6,0,P|248:284|136:264,1,200,2|2,0:0|0:0,0:0:0:0:
208,208,70271,2,0,P|192:148|168:104,1,100,8|2,0:0|0:0,0:0:0:0:
164,24,70985,2,0,B|216:24|252:68|252:68|288:24|344:24,1,200,8|8,0:0|0:0,0:0:0:0:
336,116,72057,6,0,P|304:180|352:308,1,200,2|2,0:0|0:0,0:0:0:0:
416,252,73128,2,0,P|424:208|412:140,1,100,8|4,0:0|0:0,0:0:0:0:
408,64,73842,2,0,P|352:32|304:36,2,100,4|4|4,0:0|0:0|0:0,0:0:0:0:
336,116,74914,5,4,0:0:0:0:
256,192,75092,12,4,79199,0:0:0:0:
256,192,89914,12,4,92057,0:0:0:0:
244,104,93128,6,0,L|148:56,2,100,2|8|8,0:0|0:0|0:0,0:0:0:0:
256,192,94200,2,0,P|308:172|292:36,1,200,2|8,0:0|0:0,0:0:0:0:
396,24,95271,2,0,P|416:88|380:220,1,200,2|8,0:0|0:0,0:0:0:0:
305,268,96342,6,0,P|261:280|201:264,1,100,2|8,0:0|0:0,0:0:0:0:
256,192,97057,2,0,P|212:180|156:196,1,100,8|2,0:0|0:0,0:0:0:0:
124,272,97771,2,0,B|72:252|68:196|68:196|12:108,1,200,8|4,0:0|0:0,0:0:0:0:
88,60,98842,2,0,B|136:136|136:136|188:108|260:132,1,200,4|2,0:0|0:0,0:0:0:0:
496,228,100628,6,0,P|496:280|508:332,2,100,4|8|8,0:0|0:0|0:0,0:0:0:0:
424,176,101699,2,0,P|424:116|404:64,2,100,2|8|8,0:0|0:0|0:0,0:0:0:0:
408,264,102771,6,0,P|348:284|248:204,1,200,2|8,0:0|0:0,0:0:0:0:
224,120,103842,2,0,B|164:120|164:120|136:108|136:108|16:108,1,200,2|8,0:0|0:0,0:0:0:0:
20,196,104914,6,0,L|128:196,1,100,2|8,0:0|0:0,0:0:0:0:
120,284,105628,2,0,L|12:284,2,100,8|2|8,0:0|0:0|0:0,0:0:0:0:
196,236,106699,1,8,0:0:0:0:
236,316,107057,6,0,P|280:232|228:148,1,200,4|2,0:0|0:0,0:0:0:0:
300,96,108128,2,0,B|332:120|356:172|356:172|388:112|456:116,1,200,2|0,0:0|0:0,0:0:0:0:
440,208,109199,6,0,B|448:256|448:256|440:320,1,100,0|2,0:0|0:0,0:0:0:0:
256,320,110271,1,0,0:0:0:0:
300,240,110628,2,0,P|256:228|200:244,1,100,2|0,0:0|0:0,0:0:0:0:
160,320,111342,2,0,P|116:332|60:316,1,100,0|2,0:0|0:0,0:0:0:0:
92,140,112414,2,0,P|80:96|96:40,1,100,0|2,0:0|0:0,0:0:0:0:
256,124,113485,6,0,L|256:232,1,100,0|2,0:0|0:0,0:0:0:0:
396,336,114557,2,0,P|352:348|296:332,1,100,0|2,0:0|0:0,0:0:0:0:
212,312,115271,2,0,P|164:300|116:316,1,100,0|2,0:0|0:0,0:0:0:0:
116,224,115985,2,0,P|176:212|220:224,1,100,0|2,0:0|0:0,0:0:0:0:
296,184,116699,2,0,P|332:140|380:128,2,100,0|2|0,0:0|0:0|1:0,0:0:0:0:
380,216,117771,6,0,B|380:256|380:256|384:272|384:272|384:324,1,100,0|2,0:0|0:0,0:0:0:0:
208,328,118842,1,0,0:0:0:0:
252,252,119199,1,2,0:0:0:0:
160,252,119557,2,0,P|128:276|8:188,1,200,0|2,0:0|0:0,0:0:0:0:
100,52,120985,2,0,L|204:52,1,100,0|2,0:0|0:0,0:0:0:0:
256,224,122057,6,0,L|256:336,1,100,4|2,0:0|0:0,0:0:0:0:
432,292,123128,1,4,0:0:0:0:
348,328,123485,2,0,P|412:376|516:316,1,200,2|4,0:0|0:0,0:0:0:0:
328,132,125271,6,0,L|220:132,1,100,4|4,0:0|0:0,0:0:0:0:
148,92,125985,1,4,0:0:0:0:
76,144,126342,6,0,B|116:220|116:220|112:288|176:320,1,200,4|2,0:0|0:0,0:0:0:0:
204,232,127413,2,0,B|256:224|256:224|320:232,1,100,8|2,0:0|0:0,0:0:0:0:
388,260,128127,2,0,B|440:268|440:268|504:260,2,100,8|2|8,0:0|0:0|0:0,0:0:0:0:
368,172,129199,6,0,P|380:80|292:28,1,200,2|2,0:0|0:0,0:0:0:0:
300,116,130270,1,8,0:0:0:0:
228,60,130627,2,0,P|220:159|313:209,1,200,2|2,0:0|0:0,0:0:0:0:
376,256,131699,1,8,0:0:0:0:
312,320,132056,6,0,B|224:320|224:320|196:328|196:328|100:328,1,200,2|2,0:0|0:0,0:0:0:0:
52,260,133127,1,8,0:0:0:0:
60,172,133484,2,0,P|48:124|60:76,1,100,2|8,0:0|0:0,0:0:0:0:
132,132,134199,2,0,P|144:180|132:228,1,100,2|8,0:0|0:0,0:0:0:0:
208,276,134913,6,0,P|228:208|204:80,1,200,2|2,0:0|0:0,0:0:0:0:
280,36,135984,1,8,0:0:0:0:
368,52,136342,5,4,0:0:0:0:
340,136,136699,1,4,0:0:0:0:
428,128,137056,1,4,0:0:0:0:
448,216,137413,1,4,0:0:0:0:
496,292,137770,6,0,P|444:308|396:288,1,100,4|8,0:0|0:0,0:0:0:0:
312,276,138484,2,0,B|236:240|212:344|112:292,1,200,2|2,0:0|0:0,0:0:0:0:
168,220,139556,2,0,P|120:144|176:60,1,200,8|8,0:0|0:0,0:0:0:0:
208,144,140627,6,0,B|256:120|260:64|260:64|312:84|376:60,1,200,2|2,0:0|0:0,0:0:0:0:
416,136,141699,1,8,0:0:0:0:
492,180,142056,2,0,P|508:224|484:284,1,100,2|8,0:0|0:0,0:0:0:0:
416,320,142770,2,0,P|404:272|424:216,1,100,2|8,0:0|0:0,0:0:0:0:
416,136,143484,6,0,P|348:80|272:144,1,200,2|2,0:0|0:0,0:0:0:0:
188,172,144556,2,0,P|144:188|92:168,2,100,8|2|8,0:0|0:0|0:0,0:0:0:0:
256,232,145627,2,0,L|256:332,1,100,2|8,0:0|0:0,0:0:0:0:
340,364,146342,6,0,B|340:236|340:236|340:184|308:156,1,200,2|2,0:0|0:0,0:0:0:0:
256,100,147413,1,8,0:0:0:0:
180,52,147770,5,4,0:0:0:0:
128,124,148127,1,4,0:0:0:0:
204,172,148484,1,4,0:0:0:0:
232,256,148842,1,4,0:0:0:0:
260,344,149199,5,4,0:0:0:0:
256,192,149377,12,4,153484,0:0:0:0:
