osu file format v12

[General]
AudioFilename: 0713.mp3
AudioLeadIn: 3000
PreviewTime: 110562
Countdown: 0
SampleSet: Normal
StackLeniency: 0.7
Mode: 0
LetterboxInBreaks: 0
WidescreenStoryboard: 0

[Editor]
Bookmarks: 68996
DistanceSpacing: 1.1
BeatDivisor: 4
GridSize: 8

[Metadata]
Title:The Venerable Ancient Battlefield ~ Suwa Foughten Field
TitleUnicode:神さびた古戦場 ~ Suwa Foughten Field
Artist:ZUN
ArtistUnicode:ZUN
Creator:sjoy
Version:Normal
Source:Touhou
Tags:Mountain of Faith chenwu Kanako Yasaka
BeatmapID:273640
BeatmapSetID:100444

[Difficulty]
HPDrainRate:3
CircleSize:3
OverallDifficulty:4
ApproachRate:5
SliderMultiplier:1.20000000596046
SliderTickRate:1

[Events]
//Background and Video events
0,0,"bg.jpg",0,0
//Break Periods
2,52056,62082
//Storyboard Layer 0 (Background)
//Storyboard Layer 1 (Fail)
//Storyboard Layer 2 (Pass)
//Storyboard Layer 3 (Foreground)
//Storyboard Sound Samples
//Background Colour Transformations
3,100,163,162,255

[TimingPoints]
147,357.142857142857,4,1,1,60,1,0
147,-100,4,1,1,70,0,0
11218,-100,4,1,2,60,0,0
23005,365.853658536585,4,1,1,60,1,0
28858,-100,4,1,1,70,0,0
34712,357.142857142857,3,2,0,70,1,0
43283,-100,3,2,0,80,0,0
51854,357.142857142857,4,1,2,60,1,0
74712,365.853658536585,4,1,1,60,1,0
80565,-100,4,1,1,70,0,0
84407,-100,4,1,1,80,0,0
84955,-100,4,1,1,90,0,0
85504,-100,4,1,1,100,0,0
86419,368.098159509202,4,2,0,25,1,0
87891,361.44578313253,4,2,0,60,1,0
99457,-100,4,2,0,80,0,0
111023,-100,4,1,1,70,0,1
134156,357.142857142857,4,1,1,80,1,0

[Colours]
Combo1 : 255,255,128
Combo2 : 140,255,100
Combo3 : 250,180,220
Combo4 : 172,251,253

[HitObjects]
72,208,147,2,0,L|152:144,2,60.000000298023,8|0|0,0:0|0:0|0:0,0:0:0:0:
200,208,861,2,0,L|280:144,2,60.000000298023
328,208,1575,2,0,L|408:272,2,60.000000298023,8|0|0,0:0|0:0|0:0,0:0:0:0:
328,88,2289,2,0,L|408:24,2,60.000000298023
464,88,3004,6,0,P|496:136|440:184,1,120.000000596046,8|0,0:0|0:0,0:0:0:0:
392,296,3718,2,0,P|336:320|272:272,1,120.000000596046
336,176,4432,1,8,0:0:0:0:
256,72,4789,1,0,0:0:0:0:
176,176,5146,1,0,0:0:0:0:
400,40,5861,6,0,P|456:56|512:112,1,120.000000596046,8|0,0:0|0:0,0:0:0:0:
392,168,6575,2,0,P|352:208|288:224,1,120.000000596046
192,312,7289,2,0,P|144:288|112:224,1,120.000000596046,8|0,0:0|0:0,0:0:0:0:
9,149,8004,2,0,P|39:92|87:68,1,120.000000596046,8|0,0:0|0:0,0:0:0:0:
192,149,8718,1,12,0:0:0:0:
256,192,9432,12,0,11218,0:0:0:0:
384,224,11575,6,0,P|353:281|288:304,1,120.000000596046,12|0,0:0|0:0,0:0:0:0:
176,304,12289,1,0,0:0:0:0:
64,232,12646,1,0,0:0:0:0:
120,112,13004,2,0,P|171:95|248:96,1,120.000000596046,8|0,0:0|0:0,0:0:0:0:
272,224,13718,2,0,P|331:204|364:133,1,120.000000596046
361,30,14432,6,0,P|456:59|477:141,1,180.000000894069,8|0,0:0|0:0,0:0:0:0:
480,194,15146,2,0,P|457:263|362:292,1,180.000000894069,0|0,0:0|0:0,0:0:0:0:
320,240,15861,1,8,0:0:0:0:
256,120,16218,1,0,0:0:0:0:
200,240,16575,1,0,0:0:0:0:
136,120,16932,1,0,0:0:0:0:
216,16,17289,6,0,P|96:32|2:128,1,240.000001192092,12|0,0:0|0:0,0:0:0:0:
111,203,18361,1,0,0:0:0:0:
50,320,18718,2,0,P|163:321|241:217,1,240.000001192092,8|0,0:0|0:0,0:0:0:0:
336,144,19789,1,0,0:0:0:0:
463,110,20146,6,0,P|436:56|367:22,1,120.000000596046,8|0,0:0|0:0,0:0:0:0:
265,102,20861,2,0,P|186:94|159:67,1,120.000000596046
45,134,21575,2,0,P|116:140|165:173,3,120.000000596046,8|0|8|0,0:0|0:0|0:0|0:0,0:0:0:0:
69,268,23005,6,0,P|204:214|266:81,1,300.000001490115
462,50,24468,1,8,0:0:0:0:
266,81,25017,2,0,P|304:157|403:190,1,180.000000894069
486,271,25931,6,0,P|358:303|158:215,1,300.000001490115,8|0,0:0|0:0,0:0:0:0:
55,158,27395,1,8,0:0:0:0:
61,342,27944,2,0,P|159:314|205:238,1,180.000000894069
227,123,28858,6,0,P|200:74|143:44,2,120.000000596046,8|0|0,0:0|0:0|0:0,0:0:0:0:
263,178,29773,1,0,0:0:0:0:
432,238,30322,2,0,P|486:213|498:145,1,120.000000596046,8|0,0:0|0:0,0:0:0:0:
465,110,30870,2,0,L|338:110,1,120.000000596046
286,141,31419,1,0,0:0:0:0:
357,252,31785,5,8,0:0:0:0:
249,329,32151,1,0,0:0:0:0:
73,230,32700,2,0,L|198:378,1,180.000000894069,0|8,0:0|0:0,0:0:0:0:
116,162,33797,2,0,B|255:161|255:265|390:265,1,300.000001490115,0|4,0:0|2:0,0:0:0:0:
344,144,35069,5,0,1:0:0:0:
216,104,35426,2,0,L|136:24,2,60.000000298023,0|0|0,0:0|0:0|1:0,0:0:0:0:
104,168,36140,2,0,P|136:216|200:240,1,120.000000596046,0|0,0:0|1:0,0:0:0:0:
312,184,36854,2,0,P|368:192|424:240,1,120.000000596046,0|0,0:0|1:0,0:0:0:0:
320,304,37569,1,0,0:0:0:0:
224,368,37926,2,0,P|176:350|138:295,1,120.000000596046,0|0,1:0|0:0,0:0:0:0:
216,43,38997,6,0,P|158:67|123:130,1,120.000000596046,4|0,0:0|1:0,0:0:0:0:
247,167,39712,2,0,L|319:223,2,60.000000298023,0|0|0,0:0|0:0|1:0,0:0:0:0:
130,229,40426,2,0,P|153:288|221:316,1,120.000000596046,0|0,0:0|1:0,0:0:0:0:
332,312,41140,6,0,P|444:272|487:163,1,240.000001192092
351,171,42212,1,0,0:0:0:0:
107,69,42926,5,0,0:0:0:0:
107,69,43283,2,0,P|167:113|191:160,1,120.000000596046,4|0,0:0|1:0,0:0:0:0:
78,225,43997,2,0,P|115:262|196:283,1,120.000000596046,0|0,0:0|1:0,0:0:0:0:
291,215,44711,1,0,0:0:0:0:
396,136,45068,1,0,1:0:0:0:
411,267,45425,6,0,P|473:244|516:189,1,120.000000596046,0|0,0:0|1:0,0:0:0:0:
396,136,46140,1,0,0:0:0:0:
279,73,46497,2,0,P|260:131|271:193,1,120.000000596046,0|0,1:0|0:0,0:0:0:0:
113,370,47568,6,0,P|50:357|2:313,1,120.000000596046,4|0,0:0|1:0,0:0:0:0:
108,255,48283,1,0,0:0:0:0:
108,255,48461,2,0,L|157:201,1,60.000000298023,0|0,0:0|1:0,0:0:0:0:
174,93,48997,2,0,P|227:118|269:171,1,120.000000596046,0|0,0:0|1:0,0:0:0:0:
256,192,49711,12,4,51854,2:0:0:0:
88,80,63282,5,0,0:0:0:0:
200,152,63640,1,8,0:0:0:0:
85,223,63997,2,0,P|108:286|160:325,2,120.000000596046,0|8|0,0:0|0:0|0:0,0:0:0:0:
216,216,65068,1,8,0:0:0:0:
269,336,65425,2,0,P|324:290|350:232,1,120.000000596046,0|8,0:0|0:0,0:0:0:0:
442,157,66140,6,0,P|392:122|315:118,1,120.000000596046,0|8,0:0|0:0,0:0:0:0:
222,44,66854,2,0,P|166:60|128:128,1,120.000000596046,0|8,0:0|0:0,0:0:0:0:
256,160,67568,5,0,0:0:0:0:
136,208,67925,1,8,0:0:0:0:
24,256,68282,2,0,P|48:312|99:335,1,120.000000596046,0|8,0:0|0:0,0:0:0:0:
232,336,68997,6,0,L|320:240,1,120.000000596046,0|8,0:0|0:0,0:0:0:0:
315,115,69711,2,0,L|227:19,1,120.000000596046,0|8,0:0|0:0,0:0:0:0:
101,27,70425,2,0,L|13:123,1,120.000000596046,0|8,0:0|0:0,0:0:0:0:
16,247,71139,2,0,L|104:343,1,120.000000596046,0|8,0:0|0:0,0:0:0:0:
113,204,71854,6,0,B|153:252|153:252|230:251,1,120.000000596046,0|8,0:0|0:0,0:0:0:0:
293,353,72568,2,0,B|350:353|350:353|390:305,1,120.000000596046,0|8,0:0|0:0,0:0:0:0:
440,192,73282,6,0,L|376:144,1,60.000000298023
344,112,73640,2,0,L|296:168,1,60.000000298023,8|0,0:0|0:0,0:0:0:0:
256,200,73997,1,0,0:0:0:0:
32,136,74712,6,0,P|56:88|160:88,1,120.000000596046,8|0,0:0|0:0,0:0:0:0:
144,128,75260,1,0,0:0:0:0:
96,248,75626,2,0,P|144:304|232:288,1,120.000000596046
256,304,76175,2,0,P|314:242|402:210,1,180.000000894069,8|0,0:0|0:0,0:0:0:0:
336,24,77272,1,0,0:0:0:0:
240,112,77638,5,8,0:0:0:0:
144,24,78004,2,0,P|72:64|24:168,1,180.000000894069
136,336,79102,2,0,P|224:344|320:304,1,180.000000894069,8|0,0:0|0:0,0:0:0:0:
184,160,80199,1,0,0:0:0:0:
312,120,80565,6,0,P|264:56|216:32,1,120.000000596046,8|0,0:0|0:0,0:0:0:0:
32,40,81480,1,0,0:0:0:0:
32,240,82029,2,0,B|56:320|56:320|152:328,1,180.000000894069,8|0,0:0|0:0,0:0:0:0:
152,128,83126,1,0,0:0:0:0:
190,249,83492,6,0,P|232:288|294:295,1,120.000000596046
480,280,84407,2,0,P|504:224|472:168,1,120.000000596046
440,120,84955,2,0,P|345:99|288:112,1,120.000000596046,8|0,0:0|0:0,0:0:0:0:
256,104,85504,2,0,P|184:144|144:240,1,180.000000894069
280,224,86419,5,0,0:0:0:0:
496,64,87155,1,0,0:0:0:0:
264,24,87891,6,0,P|152:48|56:152,1,240.000001192092,4|0,0:0|0:0,0:0:0:0:
216,256,89156,2,0,P|280:344|392:336,1,180.000000894069
336,224,90059,1,0,0:0:0:0:
294,45,90782,6,0,L|233:128,1,60.000000298023,8|0,0:0|0:0,0:0:0:0:
214,142,91144,2,0,L|249:190,1,60.000000298023,0|0,0:0|0:0,0:0:0:0:
293,239,91505,2,0,L|232:322,1,60.000000298023
191,289,91866,2,0,L|130:206,1,60.000000298023
120,184,92228,5,8,0:0:0:0:
240,120,92589,1,0,0:0:0:0:
360,64,92951,2,0,P|414:78|441:146,1,120.000000596046
480,256,93674,6,0,P|400:240|376:200,1,120.000000596046,8|0,0:0|0:0,0:0:0:0:
304,104,94397,1,0,0:0:0:0:
176,128,94758,2,0,P|205:188|264:208,1,120.000000596046,0|8,0:0|0:0,0:0:0:0:
496,320,95842,1,0,0:0:0:0:
488,120,96384,1,0,0:0:0:0:
488,120,96565,2,0,P|432:136|400:208,1,120.000000596046,8|0,0:0|0:0,0:0:0:0:
312,88,97288,5,0,0:0:0:0:
232,192,97650,1,0,0:0:0:0:
336,280,98011,2,0,P|304:328|176:352,1,180.000000894069,8|0,0:0|0:0,0:0:0:0:
192,288,98734,2,0,P|78:259|46:211,1,180.000000894069
96,168,99457,5,8,0:0:0:0:
344,248,100180,2,0,P|402:222|440:160,2,120.000000596046,0|0|8,0:0|0:0|0:0,0:0:0:0:
294,62,101625,2,0,P|234:46|165:67,1,120.000000596046
57,138,102348,6,0,L|194:137,1,120.000000596046,8|0,0:0|0:0,0:0:0:0:
240,136,102891,2,0,L|304:184,1,60.000000298023
184,256,103433,1,0,0:0:0:0:
288,336,103794,1,8,0:0:0:0:
392,255,104156,2,0,P|451:231|471:162,2,120.000000596046
272,200,105240,6,0,P|312:152|376:128,1,120.000000596046,8|0,0:0|0:0,0:0:0:0:
488,96,105963,2,0,P|468:55|360:48,1,120.000000596046
272,32,106686,1,8,0:0:0:0:
56,184,107409,2,0,P|80:273|155:332,1,180.000000894069
280,328,108312,6,0,L|359:327,2,60.000000298023
279,261,108854,2,0,P|234:235|206:168,1,120.000000596046
176,48,109577,6,0,P|240:64|286:107,1,120.000000596046
344,216,110300,2,0,P|400:184|434:132,1,120.000000596046
486,19,111023,6,0,P|428:19|360:64,1,120.000000596046,12|0,0:0|0:0,0:0:0:0:
248,96,111746,2,0,P|192:120|120:120,1,120.000000596046,0|0,0:0|0:0,0:0:0:0:
40,216,112469,1,8,0:0:0:0:
121,319,112830,2,0,P|161:263|175:206,1,120.000000596046
415,105,113915,6,0,B|324:130|279:27|178:50,1,240.000001192092,8|0,0:0|0:0,0:0:0:0:
188,180,114999,1,0,0:0:0:0:
225,309,115360,1,8,0:0:0:0:
414,125,116083,5,0,0:0:0:0:
281,128,116445,1,0,0:0:0:0:
344,243,116806,2,0,B|253:268|208:165|107:188,1,240.000001192092,8|0,0:0|0:0,0:0:0:0:
17,210,117890,6,0,P|19:151|70:107,1,120.000000596046,0|8,0:0|0:0,0:0:0:0:
162,26,118613,2,0,P|221:51|256:107,1,120.000000596046
338,195,119336,2,0,P|313:228|241:252,1,120.000000596046,0|8,0:0|0:0,0:0:0:0:
120,360,120421,6,0,P|64:336|24:256,1,120.000000596046
120,192,121144,2,0,P|176:171|216:104,1,120.000000596046,8|0,0:0|0:0,0:0:0:0:
120,32,121866,1,0,0:0:0:0:
384,33,122589,6,0,P|366:153|260:229,1,240.000001192092,12|0,0:0|0:0,0:0:0:0:
30,131,124035,6,0,P|51:185|96:225,1,120.000000596046,8|0,0:0|0:0,0:0:0:0:
196,311,124758,1,0,0:0:0:0:
316,247,125119,1,0,0:0:0:0:
196,183,125481,1,8,0:0:0:0:
82,116,125842,2,0,P|124:75|198:67,2,120.000000596046
196,183,126927,6,0,B|316:183|316:183|316:63,1,240.000001192092,12|0,0:0|0:0,0:0:0:0:
312,303,128372,6,0,B|312:183|312:183|432:183,1,240.000001192092,12|0,0:0|0:0,0:0:0:0:
437,303,129457,1,0,0:0:0:0:
312,303,129818,2,0,L|175:305,1,120.000000596046,8|0,0:0|0:0,0:0:0:0:
97,211,130541,5,0,0:0:0:0:
136,130,130812,2,0,P|169:160|190:202,1,90.0000004470345
256,192,131264,12,4,134156,0:0:0:0:
