osu file format v12

[General]
AudioFilename: uguuuu.mp3
AudioLeadIn: 1996
PreviewTime: 32808
Countdown: 0
SampleSet: None
StackLeniency: 0.3
Mode: 0
LetterboxInBreaks: 1

[Editor]
Bookmarks: 55665,61787
DistanceSpacing: 1.3
BeatDivisor: 4
GridSize: 4

[Metadata]
Title:The Bridge People No Longer Cross
TitleUnicode:渡る者の途絶えた橋
Artist:ZUN
ArtistUnicode:ZUN
Creator:BCI
Version:lel
Source:Touhou
Tags:東方地霊殿 th11 subterranean animism Parsee Mizuhashi Leyko Leader Flask
BeatmapID:243284
BeatmapSetID:88156

[Difficulty]
HPDrainRate:6
CircleSize:4
OverallDifficulty:7
ApproachRate:8
SliderMultiplier:1.7
SliderTickRate:2

[Events]
//Background and Video events
0,0,"bg.png",1,1
//Break Periods
//Storyboard Layer 0 (Background)
//Storyboard Layer 1 (Fail)
//Storyboard Layer 2 (Pass)
//Storyboard Layer 3 (Foreground)
//Storyboard Sound Samples
//Background Colour Transformations
3,100,163,162,255

[TimingPoints]
155,408.163265306122,4,3,0,40,1,0
6685,-100,4,3,0,60,0,0
19312,-100,4,3,1,60,0,0
19721,-133.333333333333,4,3,1,60,0,0
29414,-100,4,3,1,60,0,0
32808,-133.333333333333,4,3,1,60,0,0
42603,-100,4,3,1,70,0,0
68726,-100,4,3,1,80,0,1
78522,-100,4,3,1,80,0,0
81787,-100,4,3,1,90,0,1
91583,-100,4,3,1,90,0,0
94848,-133.333333333333,4,3,1,100,0,1
95052,-133.333333333333,4,3,1,60,0,0
103012,-133.333333333333,4,3,1,60,0,1
103037,-133.333333333333,4,3,1,60,0,0
103292,-133.333333333333,4,3,1,10,0,0
103343,-133.333333333333,4,3,1,60,0,0
103420,-111.111111111111,4,3,1,70,0,1
103445,-111.111111111111,4,3,1,70,0,0
103700,-111.111111111111,4,3,1,10,0,0
103751,-111.111111111111,4,3,1,70,0,0
103828,-95.2380952380952,4,3,1,80,0,1
103853,-95.2380952380952,4,3,1,80,0,0
104109,-95.2380952380952,4,3,1,10,0,0
104160,-95.2380952380952,4,3,1,80,0,0
104236,-83.3333333333333,4,3,1,90,0,1
104262,-83.3333333333333,4,3,1,90,0,0
104644,-83.3333333333333,4,3,1,90,0,1
104746,-83.3333333333333,4,3,1,90,0,0
107910,-100,4,3,1,90,0,1
108012,-100,4,3,1,90,0,0

[Colours]
Combo1 : 35,139,139
Combo2 : 0,210,27
Combo3 : 33,82,84

[HitObjects]
84,176,155,2,0,L|72:264,1,85
168,204,563,2,0,L|160:108,1,85
248,184,971,2,0,L|236:272,1,85
308,308,1277,2,0,L|328:168,1,127.5
284,112,1685,1,0,0:0:0:0:
284,112,1787,6,0,P|224:108|192:124,1,85
326,181,2195,2,0,P|386:185|418:169,1,85
476,140,2501,1,0,0:0:0:0:
476,140,2603,2,0,P|484:188|464:232,1,85
436,288,2910,2,0,L|304:308,1,127.5
244,344,3318,1,0,0:0:0:0:
244,344,3420,6,0,P|236:288|256:252,1,85
320,128,3828,2,0,P|328:184|308:220,1,85
252,168,4134,1,0,0:0:0:0:
252,168,4236,2,0,P|244:108|260:80,1,85
320,52,4542,2,0,P|368:68|396:152,1,127.5
356,200,4950,1,0,0:0:0:0:
356,200,5052,6,0,P|324:240|320:280,1,85
432,264,5461,2,0,P|464:224|464:180,1,85
448,116,5767,1,0,0:0:0:0:
428,116,5869,1,0,0:0:0:0:
408,116,5971,1,0,0:0:0:0:
388,116,6073,1,0,0:0:0:0:
368,116,6175,2,0,P|316:128|276:204,1,127.5
164,308,6685,6,0,P|208:280|224:248,1,85
364,312,7093,2,0,P|324:272|284:260,1,85
228,180,7501,2,0,P|176:172|144:152,1,85
88,204,7808,2,0,P|76:136|128:84,1,127.5
224,100,8318,6,0,P|264:112|300:148,1,85
228,180,8624,1,0,0:0:0:0:
228,180,8726,2,0,P|292:168|348:196,1,127.5
404,144,9134,2,0,P|448:160|492:156,1,85
480,232,9440,2,0,B|448:236|420:228|420:228|428:264|408:304,1,127.5
340,268,9848,1,0,0:0:0:0:
340,268,9950,6,0,P|292:280|264:304,1,85
228,180,10359,2,0,P|276:168|304:144,1,85
376,44,10767,1,0,0:0:0:0:
444,152,10971,1,0,0:0:0:0:
444,152,11073,2,0,P|464:200|460:240,1,85
492,304,11379,2,0,P|440:304|404:276,1,85
316,340,11787,5,0,0:0:0:0:
316,340,11889,1,0,0:0:0:0:
316,340,11991,2,0,P|276:304|268:248,1,85
344,268,12297,1,0,0:0:0:0:
344,268,12399,1,0,0:0:0:0:
236,160,12603,1,0,0:0:0:0:
216,164,12706,1,0,0:0:0:0:
196,176,12808,1,0,0:0:0:0:
184,192,12910,1,0,0:0:0:0:
176,212,13012,1,0,0:0:0:0:
176,232,13114,1,0,0:0:0:0:
180,252,13216,6,0,P|132:232|88:240,1,85
236,160,13624,2,0,P|284:180|328:172,1,85
384,140,13930,1,0,0:0:0:0:
384,140,14032,2,0,P|436:140|472:168,1,85
412,212,14338,2,0,P|420:256|408:304,1,85
344,256,14644,1,0,0:0:0:0:
192,268,14848,6,0,P|132:268|96:284,1,85
48,324,15154,1,0,0:0:0:0:
48,324,15257,2,0,B|20:272|52:228|52:228|72:192|56:156,1,170
72,52,15869,1,0,0:0:0:0:
72,52,15971,2,0,P|136:40|172:52,1,85
164,64,16277,1,0,0:0:0:0:
176,84,16379,1,0,0:0:0:0:
188,104,16481,6,0,P|248:120|300:112,1,85
396,172,16889,2,0,P|364:172|313:186,1,85
300,204,17195,1,0,0:0:0:0:
288,224,17297,1,0,0:0:0:0:
184,184,17501,1,0,0:0:0:0:
184,184,17603,2,0,B|160:236|212:256|176:320,1,127.5
