osu file format v12

[General]
AudioFilename: uguuuu.mp3
AudioLeadIn: 2000
PreviewTime: 32808
Countdown: 1
SampleSet: Normal
StackLeniency: 0.3
Mode: 1
LetterboxInBreaks: 1

[Editor]
Bookmarks: 107884
DistanceSpacing: 1.1
BeatDivisor: 4
GridSize: 4

[Metadata]
Title:The Bridge People No Longer Cross
TitleUnicode:渡る者の途絶えた橋
Artist:ZUN
ArtistUnicode:ZUN
Creator:BCI
Version:argh
Source:Touhou
Tags:東方地霊殿 th11 subterranean animism Parsee Mizuhashi Leyko Leader Flask
BeatmapID:240442
BeatmapSetID:88156

[Difficulty]
HPDrainRate:4
CircleSize:4
OverallDifficulty:4
ApproachRate:5
SliderMultiplier:1.4
SliderTickRate:1

[Events]
//Background and Video events
0,0,"bg.png",0,100
//Break Periods
//Storyboard Layer 0 (Background)
//Storyboard Layer 1 (Fail)
//Storyboard Layer 2 (Pass)
//Storyboard Layer 3 (Foreground)
//Storyboard Sound Samples
//Background Colour Transformations
3,100,163,162,255

[TimingPoints]
155,408.163265306122,4,1,0,60,1,0
68726,-100,4,1,0,60,0,1
94848,-100,4,1,0,60,0,0

[Colours]
Combo1 : 35,139,139
Combo2 : 0,210,27
Combo3 : 33,82,84

[HitObjects]
256,188,155,1,0,0:0:0:0:
256,188,359,1,8,0:0:0:0:
256,188,563,1,0,0:0:0:0:
256,188,767,1,8,0:0:0:0:
256,188,971,1,0,0:0:0:0:
256,188,1175,1,8,0:0:0:0:
256,188,1277,1,0,0:0:0:0:
256,188,1583,1,8,0:0:0:0:
256,188,1787,1,0,0:0:0:0:
256,188,1991,1,8,0:0:0:0:
256,188,2195,1,8,0:0:0:0:
256,188,2399,1,0,0:0:0:0:
256,188,2501,1,0,0:0:0:0:
256,188,2603,1,0,0:0:0:0:
256,188,2808,1,8,0:0:0:0:
256,188,2910,1,0,0:0:0:0:
256,188,3216,1,8,0:0:0:0:
256,188,3420,1,0,0:0:0:0:
256,188,3624,1,8,0:0:0:0:
256,188,3828,1,0,0:0:0:0:
256,188,4032,1,8,0:0:0:0:
256,188,4236,1,0,0:0:0:0:
256,188,4440,1,8,0:0:0:0:
256,188,4542,1,0,0:0:0:0:
256,188,4848,1,8,0:0:0:0:
256,188,5052,1,0,0:0:0:0:
256,188,5256,1,8,0:0:0:0:
256,188,5460,1,8,0:0:0:0:
256,188,5664,1,0,0:0:0:0:
256,188,5766,1,0,0:0:0:0:
256,188,5868,1,0,0:0:0:0:
256,188,6073,1,8,0:0:0:0:
256,188,6175,1,0,0:0:0:0:
256,188,6481,1,8,0:0:0:0:
256,188,6685,1,4,0:0:0:0:
256,188,7093,1,8,0:0:0:0:
256,188,7297,1,8,0:0:0:0:
256,188,7501,1,0,0:0:0:0:
256,188,7808,1,8,0:0:0:0:
256,188,8114,1,8,0:0:0:0:
256,188,8318,1,0,0:0:0:0:
256,188,8522,1,0,0:0:0:0:
256,188,8726,1,8,0:0:0:0:
256,188,8930,1,8,0:0:0:0:
256,188,9134,1,0,0:0:0:0:
256,188,9440,1,8,0:0:0:0:
256,188,9746,1,8,0:0:0:0:
256,188,9950,1,4,0:0:0:0:
256,188,10359,1,8,0:0:0:0:
256,188,10563,1,8,0:0:0:0:
256,188,10767,1,0,0:0:0:0:
256,188,11074,1,8,0:0:0:0:
256,188,11380,1,8,0:0:0:0:
256,188,11584,1,0,0:0:0:0:
256,188,11788,1,0,0:0:0:0:
256,188,11992,1,8,0:0:0:0:
256,188,12196,1,8,0:0:0:0:
256,188,12400,1,0,0:0:0:0:
256,188,12706,1,8,0:0:0:0:
256,188,13012,1,8,0:0:0:0:
256,188,13216,1,4,0:0:0:0:
256,188,13624,1,8,0:0:0:0:
256,188,13828,1,8,0:0:0:0:
256,188,14032,1,0,0:0:0:0:
256,188,14339,1,8,0:0:0:0:
256,188,14645,1,8,0:0:0:0:
256,188,14849,1,0,0:0:0:0:
256,188,15053,1,0,0:0:0:0:
256,188,15257,1,8,0:0:0:0:
256,188,15461,1,8,0:0:0:0:
256,188,15665,1,0,0:0:0:0:
256,188,15971,1,8,0:0:0:0:
256,188,16277,1,8,0:0:0:0:
256,188,16481,1,4,0:0:0:0:
256,188,16890,1,8,0:0:0:0:
256,188,17094,1,8,0:0:0:0:
256,188,17298,1,0,0:0:0:0:
256,188,17605,1,8,0:0:0:0:
256,188,17911,1,8,0:0:0:0:
256,188,18115,1,0,0:0:0:0:
256,188,18319,1,0,0:0:0:0:
256,188,18523,1,8,0:0:0:0:
256,188,18727,1,8,0:0:0:0:
256,188,18931,1,0,0:0:0:0:
256,188,19135,1,8,0:0:0:0:
256,188,19236,1,8,0:0:0:0:
256,188,19338,1,8,0:0:0:0:
256,188,19542,1,8,0:0:0:0:
256,188,19746,1,12,0:0:0:0:
256,188,20154,1,0,0:0:0:0:
256,188,20563,1,8,0:0:0:0:
256,188,21175,1,0,0:0:0:0:
256,188,21379,1,0,0:0:0:0:
256,188,21787,1,0,0:0:0:0:
256,188,21991,1,0,0:0:0:0:
256,188,22195,1,8,0:0:0:0:
256,188,22808,1,0,0:0:0:0:
256,188,23012,1,8,0:0:0:0:
256,188,23420,1,8,0:0:0:0:
256,188,23624,1,0,0:0:0:0:
256,188,23828,1,8,0:0:0:0:
256,188,24440,1,0,0:0:0:0:
256,188,24644,1,0,0:0:0:0:
256,188,25052,1,8,0:0:0:0:
256,188,25257,1,0,0:0:0:0:
256,188,25461,1,8,0:0:0:0:
256,188,25563,1,8,0:0:0:0:
256,188,25665,1,8,0:0:0:0:
256,188,25869,1,8,0:0:0:0:
256,188,26073,1,0,0:0:0:0:
256,188,26277,1,8,0:0:0:0:
256,188,26685,1,0,0:0:0:0:
256,188,26889,1,0,0:0:0:0:
256,188,27093,1,8,0:0:0:0:
256,188,27501,1,8,0:0:0:0:
256,188,27706,1,0,0:0:0:0:
256,188,27910,1,8,0:0:0:0:
256,188,28318,1,8,0:0:0:0:
256,188,28726,1,0,0:0:0:0:
256,188,29134,1,8,0:0:0:0:
256,188,29542,1,0,0:0:0:0:
256,188,29746,1,0,0:0:0:0:
256,188,29950,1,8,0:0:0:0:
256,188,30154,1,8,0:0:0:0:
256,188,30359,1,0,0:0:0:0:
256,188,30665,1,8,0:0:0:0:
256,188,30971,1,8,0:0:0:0:
256,188,31175,1,0,0:0:0:0:
256,188,31379,1,0,0:0:0:0:
256,188,31583,1,8,0:0:0:0:
256,188,31787,1,8,0:0:0:0:
256,188,31991,1,0,0:0:0:0:
256,188,32297,1,8,0:0:0:0:
256,188,32603,1,8,0:0:0:0:
256,188,32808,1,12,0:0:0:0:
256,188,33216,1,0,0:0:0:0:
256,188,33625,1,8,0:0:0:0:
256,188,34237,1,0,0:0:0:0:
256,188,34441,1,0,0:0:0:0:
256,188,34849,1,0,0:0:0:0:
256,188,35053,1,0,0:0:0:0:
256,188,35257,1,8,0:0:0:0:
256,188,35665,1,8,0:0:0:0:
256,188,35870,1,0,0:0:0:0:
256,188,36074,1,8,0:0:0:0:
256,188,36482,1,8,0:0:0:0:
256,188,36686,1,0,0:0:0:0:
256,188,36890,1,8,0:0:0:0:
256,188,37502,1,0,0:0:0:0:
256,188,37706,1,0,0:0:0:0:
256,188,38114,1,8,0:0:0:0:
256,188,38319,1,0,0:0:0:0:
256,188,38523,1,8,0:0:0:0:
256,188,38625,1,8,0:0:0:0:
256,188,38727,1,8,0:0:0:0:
256,188,38931,1,8,0:0:0:0:
256,188,39135,1,0,0:0:0:0:
256,188,39339,1,8,0:0:0:0:
256,188,39746,1,8,0:0:0:0:
256,188,39950,1,0,0:0:0:0:
256,188,40154,1,0,0:0:0:0:
256,188,40563,1,0,0:0:0:0:
256,188,40767,1,0,0:0:0:0:
256,188,40971,1,4,0:0:0:0:
256,188,41379,1,8,0:0:0:0:
256,188,41787,1,12,0:0:0:0:
256,188,42195,1,0,0:0:0:0:
256,188,42603,1,4,0:0:0:0:
256,188,43012,1,8,0:0:0:0:
256,188,43216,1,0,0:0:0:0:
256,188,43420,1,8,0:0:0:0:
256,188,43624,1,0,0:0:0:0:
256,188,43726,1,8,0:0:0:0:
256,188,44032,1,0,0:0:0:0:
256,188,44236,1,8,0:0:0:0:
256,188,44644,1,8,0:0:0:0:
256,188,44848,1,0,0:0:0:0:
256,188,45052,1,8,0:0:0:0:
256,192,45257,1,0,0:0:0:0:
256,192,45359,1,8,0:0:0:0:
256,188,45665,1,0,0:0:0:0:
256,188,45869,1,4,0:0:0:0:
256,188,46278,1,8,0:0:0:0:
256,188,46482,1,0,0:0:0:0:
256,188,46686,1,8,0:0:0:0:
256,188,46890,1,0,0:0:0:0:
256,188,46992,1,8,0:0:0:0:
256,188,47298,1,0,0:0:0:0:
256,188,47502,1,8,0:0:0:0:
256,188,47910,1,8,0:0:0:0:
256,188,48114,1,0,0:0:0:0:
256,188,48318,1,8,0:0:0:0:
256,192,48523,1,0,0:0:0:0:
256,192,48625,1,8,0:0:0:0:
256,188,48931,1,0,0:0:0:0:
256,188,49134,1,12,0:0:0:0:
256,188,49338,1,0,0:0:0:0:
256,188,49542,1,8,0:0:0:0:
256,188,49746,1,0,0:0:0:0:
256,192,49950,1,0,0:0:0:0:
256,188,50257,1,8,0:0:0:0:
256,188,50563,1,8,0:0:0:0:
256,188,50767,1,0,0:0:0:0:
256,188,50971,1,0,0:0:0:0:
256,188,51175,1,8,0:0:0:0:
256,192,51379,1,8,0:0:0:0:
256,192,51583,1,0,0:0:0:0:
256,188,51889,1,8,0:0:0:0:
256,188,52195,1,8,0:0:0:0:
256,188,52399,1,12,0:0:0:0:
256,188,52603,1,0,0:0:0:0:
256,192,52808,1,8,0:0:0:0:
256,192,53012,1,0,0:0:0:0:
256,188,53216,1,8,0:0:0:0:
256,188,53522,1,8,0:0:0:0:
256,188,53828,1,0,0:0:0:0:
256,188,54032,1,8,0:0:0:0:
256,192,54236,1,0,0:0:0:0:
256,192,54440,1,8,0:0:0:0:
256,188,54644,1,8,0:0:0:0:
256,188,54848,1,0,0:0:0:0:
256,188,54950,1,0,0:0:0:0:
256,188,55052,1,0,0:0:0:0:
256,188,55257,1,8,0:0:0:0:
256,188,55359,1,8,0:0:0:0:
256,188,55461,1,8,0:0:0:0:
256,192,55665,1,4,0:0:0:0:
256,188,56889,1,8,0:0:0:0:
256,192,57093,1,0,0:0:0:0:
256,188,57297,1,0,0:0:0:0:
256,188,58114,1,0,0:0:0:0:
256,188,58522,1,8,0:0:0:0:
256,188,58930,1,0,0:0:0:0:
256,188,59746,1,0,0:0:0:0:
256,188,59848,1,0,0:0:0:0:
256,188,59950,1,0,0:0:0:0:
256,188,60154,1,8,0:0:0:0:
256,188,60563,1,0,0:0:0:0:
256,188,61379,1,0,0:0:0:0:
256,188,61583,1,0,0:0:0:0:
256,188,61787,1,8,0:0:0:0:
256,188,61889,1,8,0:0:0:0:
256,188,61991,1,8,0:0:0:0:
256,188,62195,1,0,0:0:0:0:
256,188,62399,1,8,0:0:0:0:
256,188,62603,1,8,0:0:0:0:
256,188,62808,1,0,0:0:0:0:
256,188,63012,1,8,0:0:0:0:
256,188,63318,1,8,0:0:0:0:
256,188,63522,1,0,0:0:0:0:
256,188,63624,1,8,0:0:0:0:
256,188,63828,1,0,0:0:0:0:
256,188,64032,1,8,0:0:0:0:
256,188,64236,1,8,0:0:0:0:
256,188,64440,1,0,0:0:0:0:
256,188,64644,1,8,0:0:0:0:
256,188,64950,1,8,0:0:0:0:
256,188,65154,1,0,0:0:0:0:
256,188,65257,1,8,0:0:0:0:
256,188,65461,1,0,0:0:0:0:
256,188,65665,1,8,0:0:0:0:
256,188,65869,1,8,0:0:0:0:
256,188,66073,1,0,0:0:0:0:
256,188,66175,1,0,0:0:0:0:
256,188,66277,1,0,0:0:0:0:
256,188,66481,1,8,0:0:0:0:
256,188,66685,1,8,0:0:0:0:
256,188,66889,1,0,0:0:0:0:
256,188,67093,1,8,0:0:0:0:
256,188,67399,1,8,0:0:0:0:
256,188,67603,1,0,0:0:0:0:
256,188,67706,1,8,0:0:0:0:
256,188,67910,1,0,0:0:0:0:
256,188,68114,1,8,0:0:0:0:
256,188,68318,1,8,0:0:0:0:
256,188,68420,1,8,0:0:0:0:
256,188,68522,1,8,0:0:0:0:
256,188,68726,1,4,0:0:0:0:
256,188,69134,1,8,0:0:0:0:
256,188,69338,1,0,0:0:0:0:
256,188,69542,1,8,0:0:0:0:
256,188,69848,1,8,0:0:0:0:
256,188,70052,1,0,0:0:0:0:
256,188,70154,1,8,0:0:0:0:
256,188,70359,1,0,0:0:0:0:
256,188,70563,1,0,0:0:0:0:
256,188,70767,1,8,0:0:0:0:
256,188,70971,1,0,0:0:0:0:
256,188,71175,1,8,0:0:0:0:
256,188,71481,1,8,0:0:0:0:
256,188,71685,1,0,0:0:0:0:
256,188,71787,1,8,0:0:0:0:
256,188,71991,1,0,0:0:0:0:
256,188,72399,1,8,0:0:0:0:
256,188,72603,1,0,0:0:0:0:
256,188,72808,1,8,0:0:0:0:
256,188,73114,1,8,0:0:0:0:
256,188,73318,1,0,0:0:0:0:
256,188,73420,1,8,0:0:0:0:
256,188,73624,1,0,0:0:0:0:
256,188,73726,1,0,0:0:0:0:
256,188,73828,1,0,0:0:0:0:
256,188,74032,1,8,0:0:0:0:
256,188,74236,1,0,0:0:0:0:
256,188,74440,1,8,0:0:0:0:
256,188,74746,1,8,0:0:0:0:
256,188,74950,1,0,0:0:0:0:
256,188,75052,1,8,0:0:0:0:
256,188,75257,1,0,0:0:0:0:
256,188,75665,1,8,0:0:0:0:
256,188,75869,1,0,0:0:0:0:
256,188,76073,1,8,0:0:0:0:
256,188,76277,1,0,0:0:0:0:
256,188,76379,1,0,0:0:0:0:
256,188,76481,1,0,0:0:0:0:
256,188,76685,1,0,0:0:0:0:
256,188,76889,1,4,0:0:0:0:
256,188,77297,1,8,0:0:0:0:
256,188,77706,1,12,0:0:0:0:
256,188,78114,1,0,0:0:0:0:
256,188,78522,1,4,0:0:0:0:
256,188,78930,1,8,0:0:0:0:
256,188,79134,1,0,0:0:0:0:
256,188,79338,1,8,0:0:0:0:
256,188,79542,1,0,0:0:0:0:
256,188,79644,1,8,0:0:0:0:
256,188,79950,1,0,0:0:0:0:
256,188,80154,1,8,0:0:0:0:
256,188,80359,1,8,0:0:0:0:
256,188,80563,1,0,0:0:0:0:
256,188,80767,1,0,0:0:0:0:
256,188,80971,1,8,0:0:0:0:
256,188,81175,1,0,0:0:0:0:
256,188,81277,1,8,0:0:0:0:
256,188,81583,1,0,0:0:0:0:
256,188,81787,1,4,0:0:0:0:
256,188,82195,1,8,0:0:0:0:
256,188,82399,1,0,0:0:0:0:
256,188,82603,1,8,0:0:0:0:
256,188,82909,1,8,0:0:0:0:
256,188,83113,1,0,0:0:0:0:
256,188,83215,1,8,0:0:0:0:
256,188,83420,1,0,0:0:0:0:
256,188,83624,1,0,0:0:0:0:
256,188,83828,1,8,0:0:0:0:
256,188,84032,1,0,0:0:0:0:
256,188,84236,1,8,0:0:0:0:
256,188,84542,1,8,0:0:0:0:
256,188,84746,1,0,0:0:0:0:
256,188,84848,1,8,0:0:0:0:
256,188,85052,1,0,0:0:0:0:
256,188,85460,1,8,0:0:0:0:
256,188,85664,1,0,0:0:0:0:
256,188,85869,1,8,0:0:0:0:
256,188,86175,1,8,0:0:0:0:
256,188,86379,1,0,0:0:0:0:
256,188,86481,1,8,0:0:0:0:
256,188,86685,1,0,0:0:0:0:
256,188,86787,1,0,0:0:0:0:
256,188,86889,1,0,0:0:0:0:
256,188,87093,1,8,0:0:0:0:
256,188,87297,1,0,0:0:0:0:
256,188,87501,1,8,0:0:0:0:
256,188,87807,1,8,0:0:0:0:
256,188,88011,1,0,0:0:0:0:
256,188,88113,1,8,0:0:0:0:
256,188,88318,1,0,0:0:0:0:
256,188,88726,1,8,0:0:0:0:
256,188,88930,1,0,0:0:0:0:
256,188,89134,1,8,0:0:0:0:
256,188,89338,1,0,0:0:0:0:
256,188,89440,1,0,0:0:0:0:
256,188,89542,1,0,0:0:0:0:
256,188,89746,1,0,0:0:0:0:
256,188,89950,1,4,0:0:0:0:
256,188,90358,1,8,0:0:0:0:
256,188,90767,1,12,0:0:0:0:
256,188,91175,1,0,0:0:0:0:
256,188,91583,1,4,0:0:0:0:
256,188,91991,1,8,0:0:0:0:
256,188,92195,1,0,0:0:0:0:
256,188,92399,1,8,0:0:0:0:
256,188,92603,1,0,0:0:0:0:
256,188,92706,1,8,0:0:0:0:
256,188,93012,1,0,0:0:0:0:
256,188,93216,1,8,0:0:0:0:
256,188,93420,1,8,0:0:0:0:
256,188,93624,1,0,0:0:0:0:
256,188,93828,1,0,0:0:0:0:
256,188,94032,1,8,0:0:0:0:
256,188,94236,1,8,0:0:0:0:
256,188,94338,1,8,0:0:0:0:
256,188,94440,1,8,0:0:0:0:
256,188,94644,1,0,0:0:0:0:
256,188,94848,1,4,0:0:0:0:
256,188,95461,1,0,0:0:0:0:
256,188,95665,1,0,0:0:0:0:
256,188,96073,1,8,0:0:0:0:
256,188,96481,1,0,0:0:0:0:
256,188,97297,1,8,0:0:0:0:
256,188,98114,1,0,0:0:0:0:
256,188,98726,1,0,0:0:0:0:
256,188,98930,1,0,0:0:0:0:
256,188,99338,1,8,0:0:0:0:
256,188,99746,1,0,0:0:0:0:
256,188,100563,1,8,0:0:0:0:
256,188,100971,1,0,0:0:0:0:
256,188,101175,1,0,0:0:0:0:
256,188,101379,1,8,0:0:0:0:
256,188,101787,1,8,0:0:0:0:
256,188,101991,1,0,0:0:0:0:
256,188,102195,1,0,0:0:0:0:
256,188,102603,1,8,0:0:0:0:
256,188,102808,1,0,0:0:0:0:
256,188,103012,1,8,0:0:0:0:
256,188,103420,1,0,0:0:0:0:
256,188,103828,1,8,0:0:0:0:
256,188,104236,1,0,0:0:0:0:
256,188,104644,1,4,0:0:0:0:
256,192,104848,12,0,107910,0:0:0:0:
