osu file format v7

[General]
AudioFilename: ZUN - Taketorihisyou ~ Lunatic Princess.mp3
AudioLeadIn: 2000
PreviewTime: 95497
Countdown: 0
SampleSet: Soft
StackLeniency: 0.6
Mode: 0
LetterboxInBreaks: 1

[Editor]
Bookmarks: 1955,16284,28832,40910,53767,69352,82636,95497,108128,120760,133391,146023
DistanceSpacing: 0.800000011920929
BeatDivisor: 4
GridSize: 8

[Metadata]
Title:Taketorihisyou ~ Lunatic Princess
Artist:ZUN
Creator:no-7
Version:Normal
Source:Touhou
Tags:Imperishable Night Houraisan Kaguya Flight of the Bamboo Cutter samipale 0989596108

[Difficulty]
HPDrainRate:2
CircleSize:4
OverallDifficulty:3
SliderMultiplier:1.1
SliderTickRate:1

[Events]
//Background and Video events
0,0,"BG.jpg"
//Break Periods
2,56695,67912
2,120960,125635
//Storyboard Layer 0 (Background)
//Storyboard Layer 1 (Fail)
//Storyboard Layer 2 (Pass)
//Storyboard Layer 3 (Foreground)
//Storyboard Sound Samples
//Background Colour Transformations
3,100,163,162,255

[TimingPoints]
1017,468.75,4,2,1,70,1,0
7580,454.545454545455,4,2,1,70,1,0
9398,447.761194029851,4,2,1,70,1,0
11189,437.956204379562,4,2,1,70,1,0
12928,421.052631578947,4,2,1,70,1,0
16085,-100,4,2,1,85,0,0
16284,394.736842105263,4,2,1,85,1,0
22599,389.61038961039,4,2,1,85,1,0
28637,-100,4,2,1,100,0,0
33313,-100,4,2,1,80,0,0
33702,-100,4,2,1,90,0,0
34092,-100,4,2,1,100,0,0
39741,-200,4,2,1,100,0,0
40910,-100,4,2,1,100,0,0
45780,-100,4,2,1,80,0,0
46170,-100,4,2,1,90,0,0
46560,-100,4,2,1,100,0,0
52209,-200,4,2,1,100,0,0
52988,-100,4,2,1,100,0,0
82404,-100,4,2,1,100,0,0
82624,402.414486921529,4,2,1,100,1,0
95300,-100,4,2,1,100,0,0
95497,394.736842105263,4,2,1,100,1,1
106549,-200,4,2,1,100,0,1
107733,-100,4,2,1,100,0,1
108029,-100,4,2,1,100,0,0
120562,-100,4,2,1,85,0,0
126779,-100,4,2,1,85,0,0
133194,-100,4,2,1,100,0,1
146023,-100,4,2,1,100,0,0

[Colours]
Combo1 : 252,48,48
Combo2 : 30,142,255
Combo3 : 255,128,255
Combo4 : 235,245,35

[HitObjects]
80,192,1017,2,0,B|134:163|188:193,2,110,0|0|4
224,88,2892,2,0,B|364:88|364:222,1,220
256,296,4532,1,2
256,296,4767,1,2
168,296,5235,6,0,B|112:296,2,55,2|0|0
216,224,6173,2,0,B|216:112,2,110,2|0|2
288,168,7580,1,4
376,168,8034,1,2
464,168,8489,1,0
419,243,8943,5,2
329,243,9398,2,0,B|257:328|257:328|144:329,2,220,4|0|0
335,111,11845,1,2
335,111,12064,1,2
248,112,12502,2,0,B|248:48,2,55,2|0|0
160,112,13349,5,2
112,40,13770,1,0
64,112,14191,1,2
60,199,14612,2,0,B|112:228|172:196,3,110,0|2|0|2
216,120,16284,6,0,B|328:120,1,110,4|2
264,184,17073,2,0,B|376:184,1,110,0|2
376,272,17862,2,0,B|264:272,1,110,0|2
328,336,18652,2,0,B|216:336,1,110,0|2
216,248,19441,6,0,B|216:136,1,110,4|2
280,200,20231,2,0,B|280:88,1,110,0|2
368,88,21020,2,0,B|368:200,1,110,0|2
432,136,21810,2,0,B|432:248,1,110,0|2
344,248,22599,6,0,B|344:304,2,55,4|0|2
256,248,23378,1,0
168,248,23767,1,2
80,248,24157,6,0,B|24:248,2,55,0|0|2
80,160,24936,1,0
80,72,25326,1,2
168,72,25715,6,0,B|277:22|384:74,1,220,4|0
380,72,26689,1,0
380,72,26884,1,2
381,160,27274,2,0,B|272:210|165:158,1,220,4|0
168,160,28248,1,0
168,160,28443,1,2
80,160,28832,6,0,B|80:328|80:328|248:328,1,330,0|2
328,328,30391,2,0,B|328:160,1,165
328,120,31170,1,2
239,120,31560,6,0,B|120:120,1,110,2|0
40,120,32339,2,0,B|8:168|8:232,2,110,2|0|2
80,200,33508,2,0,B|91:256|136:301,2,110,2|0|0
160,232,34676,1,2
248,232,35066,6,0,B|416:232|416:232|416:64,1,330,4|2
327,69,36624,2,0,B|159:69,1,165
119,69,37404,1,2
56,128,37793,6,0,B|16:168,2,55,2|0|0
120,192,38573,1,2
184,128,38962,1,0
248,192,39352,1,2
312,128,39741,2,0,B|496:128,1,165
480,216,41300,6,0,B|440:256|384:272,1,110,4|2
320,216,42079,2,0,B|266:231|226:271,1,110,0|2
171,339,42858,2,0,B|86:310|58:222,1,165
51,182,43637,1,2
50,93,44027,6,0,B|152:48,1,110,2|0
225,95,44806,2,0,B|327:50,1,110,2|0
402,94,45586,1,2
478,138,45975,2,0,B|478:26,2,110,0|2|0
461,224,47144,1,2
412,297,47534,6,0,B|318:335|194:335,1,220,4|0
115,300,48702,1,2
68,225,49092,2,0,B|102:140|163:87,1,165
192,60,49871,1,2
280,60,50261,6,0,B|280:118,2,55,2|0|0
346,114,51040,2,0,B|452:66,2,110,2|0|2
392,188,52209,2,0,B|342:224|288:186,1,110
218,135,53378,1,2
256,192,53767,12,4,56495
88,288,69352,6,0,B|88:232,2,55,4|0|8
176,264,70131,1,0
264,264,70521,1,8
264,176,70910,2,0,B|264:120,2,55,4|0|8
352,152,71689,1,0
440,152,72079,1,8
396,228,72469,6,0,B|368:280|304:296,1,110,4|0
225,309,73248,2,0,B|166:315|116:290,1,110,8|0
78,270,73832,1,8
68,182,74222,5,0
72,139,74417,2,0,B|131:40|272:45,1,220,8|8
346,42,75586,5,4
408,104,75975,1,8
345,166,76365,1,0
281,105,76754,1,8
221,170,77144,5,4
283,232,77533,1,8
220,294,77923,1,0
156,233,78312,1,8
256,192,78702,12,4,81819
56,96,82624,5,4
231,98,83428,1,0
399,58,84233,2,0,B|457:-3|554:29|572:133|486:212|402:174|380:91,1,330,4|2
335,194,85843,5,4
159,194,86648,1,0
71,194,87050,2,0,B|71:130,1,55,2|0
71,98,87452,2,0,B|125:69|177:101,3,110,0|2|0|2
263,106,89062,6,0,B|263:218,1,110,4|2
327,162,89867,2,0,B|327:274,1,110,0|2
399,322,90672,1,0
399,234,91074,1,2
399,146,91477,2,0,B|399:90,2,55,0|0|2
311,146,92281,6,0,B|215:202,1,110,4|2
151,146,93086,2,0,B|55:202,1,110,0|2
55,290,93891,1,0
143,290,94294,1,2
231,290,94696,1,0
263,266,94897,1,0
303,290,95098,1,2
376,240,95497,6,0,B|432:144,1,110,4|8
344,168,96286,2,0,B|400:72,1,110,0|8
312,96,97075,2,8,B|344:48,2,55,0|0|8
264,176,97865,2,0,B|232:224,2,55,0|0|8
221,99,98654,6,0,B|168:73|109:100,2,110,4|8|0
168,168,99839,1,8
168,256,100233,2,0,B|168:320,4,55,0|0|8|0|0
168,168,101418,1,8
256,168,101812,6,0,B|320:272,1,110,4|8
336,176,102602,2,0,B|400:280,1,110,0|8
416,184,103391,2,0,B|448:232,2,55,0|0|8
360,112,104181,2,0,B|328:64,2,55,0|0|8
272,112,104970,5,4
216,176,105365,1,8
152,112,105760,2,0,B|112:152,1,55,0|0
80,184,106154,2,0,B|40:224,1,55,8|0
8,256,106549,2,0,B|80:328|155:256,1,165,4|0
240,256,108128,5,4
384,160,108918,1,0
239,59,109707,2,0,B|215:35|165:20,2,82.5,4|4|4
274,85,110497,2,0,B|295:105|324:116,2,55,0|0|2
206,141,111286,6,0,B|184:198|141:229,1,110,0|2
59,258,112075,2,0,B|81:315|124:346,1,110,0|2
209,326,112865,1,0
288,287,113260,1,2
346,221,113654,1,0
346,221,113852,1,0
346,221,114049,1,2
380,139,114444,5,4
236,37,115233,1,0
92,139,116023,2,0,B|36:139,6,55,0|0|2|0|0|0|2
70,224,117602,6,0,B|103:273|160:294,1,110,4|0
227,242,118391,2,0,B|260:193|317:172,1,110
256,192,119181,12,4,120760
403,187,127075,5,4
256,288,127865,1,0
112,192,128654,1,0
176,136,129049,1,2
259,163,129444,1,0
341,193,129839,1,2
422,226,130233,6,0,B|520:132|420:32,2,220
355,283,132207,1,2
288,224,132602,1,0
223,284,132997,1,2
159,223,133391,6,0,B|120:180|134:117,1,110,4|8
216,150,134181,2,0,B|218:92|273:57,1,110,0|8
317,133,134970,2,0,B|344:101|390:95,2,82.5,4|4|4
287,165,135760,2,0,B|265:194|271:228,2,55,0|0|8
368,197,136549,6,0,B|360:254|314:292,1,110,0|8
228,273,137339,2,0,B|182:307|122:301,1,110,0|8
65,237,138128,1,0
63,148,138523,1,8
63,59,138918,2,0,B|132:59,1,55,8|0
161,59,139312,2,0,B|230:59,1,55,8|0
260,60,139707,6,0,B|318:66|367:95,3,110,4|8|0|8
441,135,141286,2,0,B|413:249|304:299,1,220
305,299,142273,1,0
305,298,142470,1,8
194,298,142865,6,0,B|139:277|120:217,3,110,0|8|0|8
256,192,144444,12,4,146023
