osu file format v10

[General]
AudioFilename: Tabula Rasa ~ Snow White Echo.mp3
AudioLeadIn: 2000
PreviewTime: 39650
Countdown: 0
SampleSet: Normal
StackLeniency: 0.7
Mode: 0
LetterboxInBreaks: 1

[Editor]
DistanceSpacing: 1.5
BeatDivisor: 4
GridSize: 4

[Metadata]
Title:Tabula Rasa ~ Snow White Echo
TitleUnicode:Tabula Rasa ~ Snow White Echo
Artist:ZUN
ArtistUnicode:ZUN
Creator:x847606653
Version:Normal
Source:Touhou
Tags:darkdunskin Phantasmagoria of Dim. Dream Ellen
BeatmapID:167387
BeatmapSetID:54611

[Difficulty]
HPDrainRate:3
CircleSize:4
OverallDifficulty:4
ApproachRate:5
SliderMultiplier:1
SliderTickRate:2

[Events]
//Background and Video events
0,0,"bg.jpg"
//Break Periods
2,80168,84989
//Storyboard Layer 0 (Background)
//Storyboard Layer 1 (Fail)
//Storyboard Layer 2 (Pass)
//Storyboard Layer 3 (Foreground)
//Storyboard Sound Samples
//Background Colour Transformations
3,100,163,162,255

[TimingPoints]
533,408.163265306122,4,1,1,80,1,0
26655,421.774828478236,4,2,1,80,1,0
38464,-100,4,1,1,70,0,0
40151,414.765657403567,4,1,1,80,1,0
79968,-100,4,2,1,50,0,0
86189,-100,4,1,1,50,0,0
106928,-100,4,1,1,60,0,1
133473,-100,4,1,1,50,0,0

[Colours]
Combo1 : 227,114,0
Combo2 : 128,255,255
Combo3 : 128,128,255
Combo4 : 255,0,128

[HitObjects]
104,124,533,2,0,B|160:120|208:152,1,100,0|8,0:0|0:0,0:0:0
256,192,1145,1,8,0:0:0
268,264,1349,2,0,B|328:248|328:184,1,100,0|8,0:0|0:0,0:0:0
196,264,2165,6,0,B|136:280|136:344,1,100,0|8,0:0|0:0,0:0:0
212,336,2777,1,8,0:0:0
284,324,2981,1,0,0:0:0
284,172,3390,1,8,0:0:0
284,24,3798,5,0,0:0:0
284,172,4206,2,0,B|284:222,2,50,8|8|0,0:0|0:0|0:0,0:0:0
284,320,5022,1,8,0:0:0
420,256,5430,5,0,0:0:0
472,120,5839,1,8,0:0:0
424,64,6043,1,8,0:0:0
352,44,6247,2,0,B|300:24|232:36,1,100,0|8,0:0|0:0,0:0:0
120,100,7063,5,0,0:0:0
240,188,7471,1,8,0:0:0
120,276,7879,1,0,0:0:0
240,368,8288,1,8,0:0:0
360,280,8696,6,0,B|384:224|440:216,1,100,0|8,0:0|0:0,0:0:0
440,144,9308,1,8,0:0:0
404,80,9512,1,0,0:0:0
260,40,9920,1,8,0:0:0
144,136,10328,6,0,B|88:128|40:136,1,100,0|8,0:0|0:0,0:0:0
144,248,11145,2,0,B|200:256|248:248,1,100,0|8,0:0|0:0,0:0:0
388,288,11961,2,0,B|428:244|408:188,2,100,0|8|0,0:0|0:0|0:0,0:0:0
244,244,13186,5,8,0:0:0
244,244,13390,1,8,0:0:0
244,244,13594,2,0,B|136:244,1,100,0|8,0:0|0:0,0:0:0
72,112,14410,2,0,B|172:112,1,100,0|8,0:0|0:0,0:0:0
320,104,15226,6,0,B|376:120|384:184,1,100,0|8,0:0|0:0,0:0:0
308,180,15839,1,8,0:0:0
308,180,16043,2,0,B|336:236|280:288,1,100,0|8,0:0|0:0,0:0:0
244,216,16655,1,8,0:0:0
244,216,16859,2,0,B|204:272|144:252,1,100,0|8,0:0|0:0,0:0:0
172,184,17471,1,8,0:0:0
104,152,17675,6,0,B|144:96|204:116,2,100,0|8|0,0:0|0:0|0:0,0:0:0
60,212,18696,1,0,0:0:0
40,284,18900,1,8,0:0:0
172,344,19308,2,0,B|228:344,1,50
264,280,19716,5,8,0:0:0
264,280,19920,1,8,0:0:0
264,280,20124,2,0,B|252:216|300:176,1,100,0|8,0:0|0:0,0:0:0
348,144,20737,1,8,0:0:0
300,88,20941,2,0,B|252:64|196:76,1,100,0|8,0:0|0:0,0:0:0
61,125,21757,6,0,B|71:174|47:222,1,100,0|8,0:0|0:0,0:0:0
19,291,22369,1,8,0:0:0
76,338,22573,1,0,0:0:0
228,328,22981,1,8,0:0:0
228,328,23186,1,8,0:0:0
152,324,23390,6,0,B|160:260|228:248,1,100,0|8,0:0|0:0,0:0:0
284,236,24002,1,8,0:0:0
356,212,24206,2,0,B|408:200|415:139,1,100,0|8,0:0|0:0,0:0:0
276,88,25022,6,0,B|232:64,1,50,8|8,0:0|0:0,0:0:0
180,120,25430,2,0,B|224:144,2,50,0|0|8,0:0|0:0|0:0,0:0:0
120,256,26247,2,0,B|76:232,1,50,8|8,0:0|0:0,0:0:0
12,192,26655,5,4,0:0:0
460,100,27920,2,0,B|416:76,1,50
348,40,28342,1,4,0:0:0
112,320,29607,6,0,B|88:364,1,50
40,304,30029,2,0,B|120:176,1,150,4|0,0:0|0:0,0:0:0
188,144,30872,2,0,B|160:92|96:100,2,100,2|0|4,0:0|0:0|0:0,0:0:0
316,64,32138,2,0,B|428:64,1,100,0|2,0:0|0:0,0:0:0
492,196,32981,5,0,0:0:0
460,268,33192,1,0,0:0:0
416,332,33403,2,0,B|376:372|308:356,1,100,2|0,0:0|0:0,0:0:0
252,340,34036,1,0,0:0:0
252,264,34246,2,0,B|216:268|184:288|176:340,1,100,2|0,0:0|0:0,0:0:0
108,340,34879,1,0,0:0:0
108,264,35090,6,0,B|104:208|40:192,1,100,2|0,0:0|0:0,0:0:0
48,120,35723,1,0,0:0:0
92,60,35934,1,2,0:0:0
244,56,36355,6,0,B|304:72,1,50
252,132,36777,2,0,B|203:119,2,50,2|0|0,0:0|0:0|0:0,0:0:0
400,156,37621,2,0,B|449:143,2,50,2|0|0,0:0|0:0|0:0,0:0:0
420,304,38464,6,0,B|364:324,1,50,0|0,0:0|0:0,0:0:0
308,280,38886,2,0,B|252:300,1,50,8|0,0:0|0:0,0:0:0
184,316,39308,1,8,0:0:0
100,192,39730,5,8,0:0:0
100,192,39940,1,8,0:0:0
100,192,40151,2,0,B|196:136,1,100,4|8,0:0|0:0,0:0:0
248,184,40773,1,8,0:0:0
308,228,40980,2,0,B|404:172,1,100,0|8,0:0|0:0,0:0:0
372,104,41602,1,8,0:0:0
372,104,41810,5,0,0:0:0
232,52,42224,1,8,0:0:0
232,204,42639,1,0,0:0:0
96,136,43054,1,8,0:0:0
180,260,43469,6,0,B|224:296|280:268,1,100,0|8,0:0|0:0,0:0:0
364,148,44298,2,0,B|389:197|353:241,1,100,0|8,0:0|0:0,0:0:0
288,108,45128,2,0,B|324:56|384:64,2,100,0|8|0,0:0|0:0|0:0,0:0:0
148,52,46372,5,8,0:0:0
196,108,46579,1,8,0:0:0
124,124,46787,2,0,B|112:152|64:160|64:160|88:192|60:240,1,150,0|8,0:0|0:0,0:0:0
28,300,47616,1,0,0:0:0
172,344,48031,5,8,0:0:0
227,293,48238,1,8,0:0:0
297,268,48446,2,0,B|290:243|262:225|262:225|263:178,2,100,0|8|0,0:0|0:0|0:0,0:0:0
444,232,49690,1,8,0:0:0
436,84,50105,6,0,B|496:48,2,50,0|0|8,0:0|0:0|0:0,0:0:0
288,64,50934,2,0,B|245:89,2,50,0|0|8,0:0|0:0|0:0,0:0:0
386,174,51764,6,0,B|386:294,1,100,0|8,0:0|0:0,0:0:0
312,290,52386,1,8,0:0:0
243,321,52593,2,0,B|271:377|343:361,1,100,0|8,0:0|0:0,0:0:0
238,240,53423,6,0,B|210:184|138:200,1,100,0|8,0:0|0:0,0:0:0
160,272,54045,1,8,0:0:0
160,272,54253,2,0,B|105:285|77:229,1,100,0|8,0:0|0:0,0:0:0
52,160,54875,1,8,0:0:0
52,160,55082,5,0,0:0:0
144,40,55497,1,8,0:0:0
248,148,55912,1,0,0:0:0
336,28,56326,1,8,0:0:0
456,116,56741,6,0,B|460:184,1,50
400,212,57156,2,0,B|404:280,1,50,8|8,0:0|0:0,0:0:0
328,273,57571,2,0,B|332:341,2,50,0|0|8,0:0|0:0|0:0,0:0:0
179,295,58400,2,0,B|147:243|191:195,2,100,0|8|0,0:0|0:0|0:0,0:0:0
67,194,59644,5,8,0:0:0
67,194,59852,1,8,0:0:0
100,124,60059,2,0,B|156:92|208:140,1,100,0|8,0:0|0:0,0:0:0
340,168,60889,2,0,B|376:212|344:264,1,100,0|8,0:0|0:0,0:0:0
284,216,61511,1,8,0:0:0
284,216,61718,6,0,B|220:212|208:152,2,100,0|8|0,0:0|0:0|0:0,0:0:0
436,216,62963,1,8,0:0:0
358,344,63377,6,0,B|298:316,1,50
239,338,63792,2,0,B|179:310,1,50,8|8,0:0|0:0,0:0:0
208,244,64207,2,0,B|253:265,2,50,0|0|8,0:0|0:0|0:0,0:0:0
137,218,64829,2,0,B|77:190,1,50,8|0,0:0|0:0,0:0:0
156,192,66696,6,0,B|156:128|212:96,1,100,0|8,0:0|0:0,0:0:0
340,56,67525,2,0,B|340:120|284:152,1,100,0|8,0:0|0:0,0:0:0
432,208,68355,2,0,B|400:312,1,100,0|8,0:0|0:0,0:0:0
348,356,68977,1,8,0:0:0
284,316,69184,2,0,B|196:264,1,100,0|8,0:0|0:0,0:0:0
76,176,70014,6,0,B|105:80,1,100,0|8,0:0|0:0,0:0:0
248,40,70843,2,0,B|218:135,1,100,0|8,0:0|0:0,0:0:0
360,192,71673,2,0,B|348:256|288:280,1,100,0|8,0:0|0:0,0:0:0
230,271,72295,1,8,0:0:0
156,264,72502,2,0,B|108:244|89:185,1,100,0|8,0:0|0:0,0:0:0
192,76,73332,6,0,B|240:44|300:44,1,100,0|8,0:0|0:0,0:0:0
256,192,74161,2,0,B|208:224|148:224,1,100,0|8,0:0|0:0,0:0:0
76,344,74991,1,0,0:0:0
224,328,75406,1,8,0:0:0
292,300,75613,1,8,0:0:0
324,232,75820,2,0,B|376:256|368:332,1,100,0|8,0:0|0:0,0:0:0
244,232,76650,6,0,B|192:216|164:164,1,100,0|8,0:0|0:0,0:0:0
268,60,77479,2,0,B|320:76|348:128,1,100,0|8,0:0|0:0,0:0:0
480,188,78309,1,0,0:0:0
356,272,78724,1,8,0:0:0
284,284,78931,1,8,0:0:0
232,340,79138,2,0,B|188:288|228:232,1,100,0|8,0:0|0:0,0:0:0
256,100,79968,5,2,0:0:0
80,80,86189,5,8,0:0:0
220,100,86604,2,0,B|264:64|332:76,1,100,0|8,0:0|0:0,0:0:0
364,128,87226,1,8,0:0:0
364,204,87434,2,0,B|320:240|252:228,1,100,0|8,0:0|0:0,0:0:0
212,180,88056,1,8,0:0:0
212,180,88263,5,0,0:0:0
352,132,88678,1,8,0:0:0
352,284,89093,1,0,0:0:0
212,340,89508,1,8,0:0:0
68,292,89922,6,0,B|128:312,1,50
104,232,90337,2,0,B|56:216,1,50,8|8,0:0|0:0,0:0:0
100,156,90752,1,0,0:0:0
220,148,91167,1,8,0:0:0
248,216,91374,1,8,0:0:0
184,252,91581,6,0,B|216:304|284:284,1,100,0|8,0:0|0:0,0:0:0
320,232,92204,1,8,0:0:0
320,232,92411,2,0,B|328:172|268:140,1,100,0|8,0:0|0:0,0:0:0
412,76,93241,1,0,0:0:0
412,76,94070,5,0,0:0:0
412,228,94485,2,0,B|388:164,2,50,8|8|0,0:0|0:0|0:0,0:0:0
264,204,95314,2,0,B|296:92,1,100,8|0,0:0|0:0,0:0:0
172,16,96144,1,8,0:0:0
128,160,96559,6,0,B|100:256,1,100,0|8,0:0|0:0,0:0:0
208,152,97388,2,0,B|240:40,1,100,0|8,0:0|0:0,0:0:0
384,68,98218,1,0,0:0:0
488,176,98632,1,8,0:0:0
384,284,99047,1,0,0:0:0
280,176,99462,5,8,0:0:0
280,176,99669,1,8,0:0:0
260,104,99877,2,0,B|200:128|208:200,1,100,0|8,0:0|0:0,0:0:0
248,244,100499,1,8,0:0:0
320,240,100706,2,0,B|368:200|344:132,1,100,0|8,0:0|0:0,0:0:0
272,32,101536,6,0,B|220:24|152:32,2,100,0|8|0,0:0|0:0|0:0,0:0:0
420,44,102780,1,8,0:0:0
440,192,103195,6,0,B|412:240,1,50
364,292,103610,1,8,0:0:0
224,345,104024,2,0,B|168:325,1,50
128,269,104439,1,8,0:0:0
256,192,104854,12,0,106098,0:0:0
436,128,106928,6,0,B|380:128|352:184|352:184|376:228|332:276,1,200,0|0,0:0|0:0,0:0:0
204,204,108172,1,8,0:0:0
280,216,108379,1,8,0:0:0
252,148,108587,2,0,B|200:112|148:152,2,100,0|8|0,0:0|0:0|0:0,0:0:0
204,288,109831,1,8,0:0:0
352,320,110246,6,0,B|312:352,2,50,0|0|8,0:0|0:0|0:0,0:0:0
388,176,111075,2,0,B|427:144,2,50,0|0|8,0:0|0:0|0:0,0:0:0
254,245,111905,2,0,B|210:238|142:245,2,100,0|8|0,0:0|0:0|0:0,0:0:0
153,356,113149,5,8,0:0:0
81,331,113357,1,8,0:0:0
43,266,113564,2,0,B|3:222|31:170,1,100,0|8,0:0|0:0,0:0:0
176,204,114394,2,0,B|202:155|162:111,1,100,0|8,0:0|0:0,0:0:0
120,255,115223,6,0,B|84:299|116:351,2,100,0|8|0,0:0|0:0|0:0,0:0:0
222,145,116467,1,8,0:0:0
320,260,116882,6,0,B|280:304|316:356,1,100,0|8,0:0|0:0,0:0:0
460,296,117712,2,0,B|500:252|464:200,1,100,0|8,0:0|0:0,0:0:0
328,144,118541,1,0,0:0:0
204,60,118956,1,8,0:0:0
132,40,119163,1,8,0:0:0
60,64,119371,2,0,B|24:108|48:168,1,100,0|8,0:0|0:0,0:0:0
72,308,120200,6,0,B|132:308|152:256|152:256|200:248|252:312,1,200
384,328,121445,1,8,0:0:0
320,292,121652,1,8,0:0:0
384,252,121859,2,0,B|428:228|428:164,1,100,0|8,0:0|0:0,0:0:0
288,112,122689,2,0,B|244:136|244:200,1,100,0|8,0:0|0:0,0:0:0
96,192,123518,5,0,0:0:0
232,254,123933,2,0,B|296:270,1,50,8|8,0:0|0:0,0:0:0
247,333,124348,2,0,B|198:320,2,50,0|0|8,0:0|0:0|0:0,0:0:0
322,334,124970,1,8,0:0:0
380,286,125177,2,0,B|404:314|412:358|376:390,2,100,0|8|0,0:0|0:0|0:0,0:0:0
432,132,126422,6,0,B|380:132,1,50,8|8,0:0|0:0,0:0:0
312,108,126837,2,0,B|248:96|204:124,1,100,0|8,0:0|0:0,0:0:0
180,184,127459,1,8,0:0:0
216,252,127666,2,0,B|268:276|264:340,1,100,0|8,0:0|0:0,0:0:0
188,324,128288,1,8,0:0:0
188,324,128496,5,0,0:0:0
336,292,128910,1,8,0:0:0
420,168,129325,1,0,0:0:0
284,104,129740,1,8,0:0:0
136,120,130155,5,0,0:0:0
38,233,130569,1,8,0:0:0
128,348,130984,2,0,B|188:336,1,50
252,336,131399,2,0,B|312:352,2,50,8|8|0,0:0|0:0|0:0,0:0:0
256,192,131917,12,4,133473,0:0:0
