osu file format v10

[General]
AudioFilename: Tabula Rasa ~ Snow White Echo.mp3
AudioLeadIn: 2000
PreviewTime: 39650
Countdown: 0
SampleSet: Normal
StackLeniency: 0.7
Mode: 0
LetterboxInBreaks: 1

[Editor]
Bookmarks: 57169
DistanceSpacing: 1
BeatDivisor: 4
GridSize: 4

[Metadata]
Title:Tabula Rasa ~ Snow White Echo
TitleUnicode:Tabula Rasa ~ Snow White Echo
Artist:ZUN
ArtistUnicode:ZUN
Creator:x847606653
Version:Hard
Source:Touhou
Tags:darkdunskin Phantasmagoria of Dim. Dream Ellen
BeatmapID:166485
BeatmapSetID:54611

[Difficulty]
HPDrainRate:6
CircleSize:4
OverallDifficulty:7
ApproachRate:8
SliderMultiplier:1.8
SliderTickRate:2

[Events]
//Background and Video events
0,0,"bg.jpg"
//Break Periods
2,80168,85439
//Storyboard Layer 0 (Background)
//Storyboard Layer 1 (Fail)
//Storyboard Layer 2 (Pass)
//Storyboard Layer 3 (Foreground)
//Storyboard Sound Samples
//Background Colour Transformations
3,100,163,162,255

[TimingPoints]
533,408.163265306122,4,1,1,80,1,0
26655,421.774828478236,4,2,1,80,1,0
38464,-100,4,1,1,70,0,0
40151,414.765657403567,4,1,1,80,1,0
79968,-100,4,2,1,50,0,0
86189,-100,4,1,1,40,0,0
106098,-100,4,1,1,45,0,0
106202,-100,4,1,1,50,0,0
106306,-100,4,1,1,55,0,0
106409,-100,4,1,1,60,0,0
106513,-100,4,1,1,65,0,0
106617,-100,4,1,1,70,0,0
106720,-100,4,1,1,75,0,0
106824,-100,4,1,1,80,0,0
106928,-100,4,1,1,80,0,1
133473,-100,4,1,1,50,0,0

[Colours]
Combo1 : 227,114,0
Combo2 : 128,255,255
Combo3 : 128,128,255
Combo4 : 255,0,128

[HitObjects]
60,64,533,1,0,0:0:0
116,136,737,1,0,0:0:0
204,136,941,1,8,0:0:0
260,64,1145,1,0,0:0:0
324,128,1349,1,0,0:0:0
268,200,1553,1,0,0:0:0
240,288,1757,1,8,0:0:0
308,348,1961,1,8,0:0:0
328,340,2063,1,8,0:0:0
348,328,2165,6,0,B|320:308|320:264|356:244,1,90
436,252,2573,1,8,0:0:0
424,164,2777,1,8,0:0:0
408,148,2879,1,8,0:0:0
392,132,2981,1,0,0:0:0
320,80,3186,1,0,0:0:0
232,84,3390,1,8,0:0:0
156,36,3594,1,8,0:0:0
84,104,3798,6,0,B|40:76|52:24,2,90,0|0|8,0:0|0:0|0:0,0:0:0
84,192,4410,1,0,0:0:0
84,280,4614,2,0,B|40:308|52:360,2,90,0|0|8,0:0|0:0|0:0,0:0:0
84,192,5226,1,0,0:0:0
160,144,5430,5,0,0:0:0
83,192,5635,1,0,0:0:0
168,228,5839,1,8,0:0:0
248,184,6043,1,8,0:0:0
312,120,6247,2,0,B|348:72|416:92,2,90,0|0|8,0:0|0:0|0:0,0:0:0
380,184,6859,5,8,0:0:0
400,196,6961,1,8,0:0:0
416,212,7063,2,0,B|448:260|412:312,1,90
248,236,7471,2,0,B|288:236|336:256,1,90,8|0,0:0|0:0,0:0:0
256,328,7879,2,0,B|204:328|152:300,1,90
84,280,8288,1,8,0:0:0
160,228,8492,5,8,0:0:0
176,212,8594,1,8,0:0:0
184,192,8696,2,0,B|132:172|76:196,1,90
8,164,9104,1,8,0:0:0
60,92,9308,1,0,0:0:0
60,92,9512,2,0,B|104:108|156:88,1,90,0|0,0:0|0:0,0:0:0
224,40,9920,1,8,0:0:0
264,116,10124,5,8,0:0:0
288,116,10226,1,8,0:0:0
312,116,10328,2,0,B|364:116|380:168,1,90,0|0,0:0|0:0,0:0:0
480,164,10737,2,0,B|496:232|416:252,1,90,8|0,0:0|0:0,0:0:0
360,248,11145,2,0,B|308:248|296:312,1,90,0|0,0:0|0:0,0:0:0
216,300,11553,2,0,B|212:372|288:384,1,90,8|0,0:0|0:0,0:0:0
216,224,11961,2,0,B|220:152|144:140,2,90,0|0|8,0:0|0:0|0:0,0:0:0
128,224,12573,1,0,0:0:0
40,224,12777,2,0,B|36:156|112:140,1,90,0|0,0:0|0:0,0:0:0
128,72,13186,5,8,0:0:0
128,224,13390,1,0,0:0:0
196,72,13594,2,0,B|256:108|256:192|192:232,1,180,0|8,0:0|0:0,0:0:0
128,224,14206,2,0,B|84:264|128:300,1,90
208,340,14614,1,0,0:0:0
208,340,14716,1,0,0:0:0
208,340,14818,2,0,B|252:300|208:264,1,90,8|0,0:0|0:0,0:0:0
304,300,15226,6,0,B|352:352,2,45
396,300,15635,1,8,0:0:0
476,340,15839,2,0,B|508:296|476:256,1,90
476,257,16247,1,0,0:0:0
368,108,16451,2,0,B|340:148|368:192,1,90,8|0,0:0|0:0,0:0:0
444,148,16859,6,0,B|264:148,1,180,0|8,0:0|0:0,0:0:0
176,148,17471,1,0,0:0:0
176,148,17675,1,0,0:0:0
104,200,17879,1,0,0:0:0
176,256,18084,1,8,0:0:0
104,308,18288,1,0,0:0:0
44,240,18492,6,0,B|8:196|44:160,1,90,0|0,0:0|0:0,0:0:0
88,80,18900,2,0,B|132:44|168:80,1,90,8|0,0:0|0:0,0:0:0
212,160,19308,2,0,B|248:204|212:240,1,90,0|0,0:0|0:0,0:0:0
304,200,19716,5,8,0:0:0
456,200,19920,1,0,0:0:0
304,124,20124,2,0,B|336:68|436:64|460:136,1,180,0|8,0:0|0:0,0:0:0
384,192,20737,2,0,B|384:296,1,90
312,348,21145,1,0,0:0:0
288,348,21247,1,0,0:0:0
264,348,21349,2,0,B|212:348|168:364,1,90,8|0,0:0|0:0,0:0:0
220,276,21757,6,0,B|280:260,2,45,0|0|0,0:0|0:0|0:0,0:0:0
112,296,22165,1,8,0:0:0
112,296,22369,2,0,B|36:296|20:268,2,90
28,84,22981,5,8,0:0:0
80,160,23186,1,0,0:0:0
132,232,23390,2,0,B|192:192|192:192|244:236|304:196,1,180,0|8,0:0|0:0,0:0:0
252,120,24002,1,0,0:0:0
208,40,24206,2,0,B|256:7|312:44|312:44|384:4,1,180,0|8,0:0|0:0,0:0:0
420,184,25022,5,0,0:0:0
263,99,25226,1,0,0:0:0
341,257,25430,1,8,0:0:0
371,84,25635,1,0,0:0:0
243,208,25839,1,8,0:0:0
64,216,26247,2,0,B|80:156|148:152,1,90,8|8,0:0|0:0,0:0:0
124,155,26655,1,4,0:0:0
256,280,27076,5,0,0:0:0
344,300,27287,1,0,0:0:0
424,340,27498,1,2,0:0:0
344,214,27920,2,0,B|344:124,1,90
344,214,28342,1,4,0:0:0
436,280,28763,1,0,0:0:0
344,300,28974,1,0,0:0:0
264,340,29185,1,2,0:0:0
84,332,29607,5,0,0:0:0
84,180,29818,1,0,0:0:0
156,332,30029,2,0,B|196:296|212:252|196:204|152:176,1,180,4|0,0:0|0:0,0:0:0
128,88,30661,1,0,0:0:0
128,88,30872,2,0,B|180:88|224:112,1,90,2|0,0:0|0:0,0:0:0
304,128,31294,1,0,0:0:0
393,140,31505,1,0,0:0:0
337,211,31716,2,0,B|380:264|452:276|452:276|380:292|336:360,1,270,4|0,0:0|0:0,0:0:0
342,350,32559,1,2,0:0:0
172,288,32981,5,0,0:0:0
172,200,33192,1,0,0:0:0
92,144,33403,2,0,B|128:92|216:92|248:144,1,180,2|0,0:0|0:0,0:0:0
312,204,34036,1,0,0:0:0
376,264,34246,2,0,B|384:312|448:332,2,90,2|0|0,0:0|0:0|0:0,0:0:0
384,180,34879,1,2,0:0:0
304,140,35090,5,2,0:0:0
224,180,35301,1,0,0:0:0
152,128,35512,1,0,0:0:0
68,160,35723,1,0,0:0:0
4,96,35934,1,2,0:0:0
68,264,36355,5,0,0:0:0
144,312,36566,1,0,0:0:0
228,276,36777,2,0,B|240:336|304:344,2,90,2|0|0,0:0|0:0|0:0,0:0:0
228,276,37410,1,2,0:0:0
316,252,37621,2,0,B|312:196|236:180,2,90,2|0|0,0:0|0:0|0:0,0:0:0
316,252,38253,1,2,0:0:0
440,204,38464,5,0,0:0:0
348,304,38675,1,0,0:0:0
304,176,38886,1,8,0:0:0
212,272,39097,1,0,0:0:0
160,148,39308,1,8,0:0:0
316,60,39730,6,0,B|256:44|216:92,1,90,8|0,0:0|0:0,0:0:0
288,148,40151,2,0,B|392:148|432:244,1,180,4|8,0:0|0:0,0:0:0
429,239,40773,1,0,0:0:0
476,316,40980,2,0,B|432:344|388:316,1,90
429,239,41395,1,8,0:0:0
391,317,41602,1,0,0:0:0
316,264,41810,2,0,B|272:220|200:220|152:264,2,180,0|8|0,0:0|0:0|0:0,0:0:0
316,264,43054,1,8,0:0:0
256,140,43469,5,0,0:0:0
336,96,43676,1,0,0:0:0
424,112,43883,1,8,0:0:0
464,192,44091,1,0,0:0:0
256,140,44298,5,0,0:0:0
176,96,44506,1,0,0:0:0
88,112,44713,1,8,0:0:0
48,192,44920,1,0,0:0:0
176,208,45128,6,0,B|224:256|288:256|336:208,2,180,0|8|0,0:0|0:0|0:0,0:0:0
176,208,46165,1,0,0:0:0
384,136,46372,1,8,0:0:0
128,136,46579,1,8,0:0:0
336,64,46787,6,0,B|288:16|224:16|176:64,1,180,0|8,0:0|0:0,0:0:0
256,124,47409,1,0,0:0:0
256,124,47616,2,0,B|256:220,1,90
216,296,48031,2,0,B|256:324|300:296,1,90,8|0,0:0|0:0,0:0:0
384,312,48446,5,0,0:0:0
120,184,48861,1,8,0:0:0
380,184,49275,1,0,0:0:0
120,312,49690,1,8,0:0:0
256,108,50105,5,0,0:0:0
252,282,50312,1,0,0:0:0
341,197,50520,1,8,0:0:0
170,190,50727,1,0,0:0:0
312,255,50934,5,0,0:0:0
196,129,51142,1,0,0:0:0
189,252,51349,1,8,0:0:0
315,132,51557,1,0,0:0:0
260,60,51764,5,0,0:0:0
176,28,51971,1,0,0:0:0
88,36,52179,1,8,0:0:0
36,108,52386,1,0,0:0:0
36,196,52593,2,0,B|36:264|72:312,1,90
68,308,52905,1,0,0:0:0
80,328,53008,2,0,B|128:304|192:336,1,90,8|0,0:0|0:0,0:0:0
260,324,53423,6,0,B|288:248|380:260|380:260|352:208,1,180,0|8,0:0|0:0,0:0:0
316,156,54045,1,0,0:0:0
316,156,54253,2,0,B|256:84,1,90
168,92,54667,2,0,B|225:161,1,90,8|0,0:0|0:0,0:0:0
140,192,55082,5,0,0:0:0
372,192,55497,1,8,0:0:0
140,240,55912,1,0,0:0:0
372,144,56326,1,8,0:0:0
372,324,56741,6,0,B|372:228,1,90
140,60,57156,2,0,B|140:150,1,90,8|0,0:0|0:0,0:0:0
140,240,57571,1,0,0:0:0
212,188,57778,1,0,0:0:0
256,268,57985,1,8,0:0:0
324,208,58193,1,0,0:0:0
328,120,58400,2,0,B|396:128|436:204|384:272,2,180,0|8|0,0:0|0:0|0:0,0:0:0
244,84,59437,5,0,0:0:0
244,84,59644,2,0,B|200:112|148:112,1,90,8|0,0:0|0:0,0:0:0
84,160,60059,2,0,B|104:216|96:280,1,90
98,248,60474,1,8,0:0:0
168,308,60681,1,0,0:0:0
192,220,60889,2,0,B|288:220,1,90,0|0,0:0|0:0,0:0:0
340,308,61304,6,0,B|224:308,1,90,8|0,0:0|0:0,0:0:0
168,308,61718,1,0,0:0:0
340,308,62133,1,8,0:0:0
456,180,62548,1,0,0:0:0
276,180,62963,1,8,0:0:0
148,52,63377,5,0,0:0:0
236,36,63585,1,0,0:0:0
148,52,63792,2,0,B|92:60|72:144,1,90,8|0,0:0|0:0,0:0:0
172,136,64207,1,0,0:0:0
240,192,64414,1,0,0:0:0
172,136,64622,2,0,B|204:88|280:108,1,90,8|0,0:0|0:0,0:0:0
240,192,65036,1,0,0:0:0
256,192,65140,12,0,65866,0:0:0
164,192,66696,6,0,B|80:192|68:172,2,90,0|0|8,0:0|0:0|0:0,0:0:0
256,192,67318,1,0,0:0:0
348,192,67525,2,0,B|432:192|444:212,2,90,0|0|8,0:0|0:0|0:0,0:0:0
256,192,68147,1,0,0:0:0
256,284,68355,1,0,0:0:0
256,192,68562,5,0,0:0:0
256,168,68666,1,0,0:0:0
256,144,68769,2,0,B|256:48,1,90,8|0,0:0|0:0,0:0:0
168,44,69184,1,0,0:0:0
344,116,69391,1,0,0:0:0
168,116,69599,1,8,0:0:0
344,44,69806,1,0,0:0:0
436,44,70014,6,0,B|424:96|460:148,1,90
489,304,70428,2,0,B|508:260|472:220,1,90,8|0,0:0|0:0,0:0:0
412,276,70843,1,0,0:0:0
328,304,71051,1,0,0:0:0
328,304,71258,2,0,B|276:320|232:320,1,90,8|0,0:0|0:0,0:0:0
260,232,71673,6,0,B|312:216|356:216,1,90
352,128,72087,2,0,B|408:120|444:204,1,90,8|0,0:0|0:0,0:0:0
256,104,72502,1,0,0:0:0
168,132,72710,1,0,0:0:0
152,148,72813,1,0,0:0:0
136,164,72917,2,0,B|96:212|48:212,1,90,8|0,0:0|0:0,0:0:0
116,284,73332,6,0,B|188:284|224:328,1,90
224,220,73747,2,0,B|276:232|292:296,1,90,8|0,0:0|0:0,0:0:0
352,220,74161,2,0,B|392:252|372:316,2,90,0|0|8,0:0|0:0|0:0,0:0:0
352,220,74783,1,0,0:0:0
348,128,74991,6,0,B|288:128|264:188,1,90
236,88,75406,2,0,B|180:108|184:188,1,90,8|8,0:0|0:0,0:0:0
184,180,75717,1,8,0:0:0
184,204,75820,2,0,B|188:256|128:288,1,90
68,328,76235,2,0,B|92:372|164:364,1,90,8|0,0:0|0:0,0:0:0
68,328,76650,5,0,0:0:0
32,244,76857,1,0,0:0:0
112,204,77065,2,0,B|88:152|28:156,2,90,8|0|0,0:0|0:0|0:0,0:0:0
204,204,77687,1,0,0:0:0
204,204,77790,1,0,0:0:0
204,204,77894,1,8,0:0:0
284,164,78102,1,0,0:0:0
372,144,78309,5,0,0:0:0
422,69,78516,1,0,0:0:0
456,202,78724,1,8,0:0:0
344,280,78931,1,0,0:0:0
264,96,79138,5,0,0:0:0
180,280,79346,1,0,0:0:0
100,96,79553,1,8,0:0:0
20,280,79761,1,0,0:0:0
20,280,79968,1,2,0:0:0
160,192,86189,5,8,0:0:0
252,192,86397,1,0,0:0:0
304,116,86604,2,0,B|356:148|356:232|304:272,1,180,0|8,0:0|0:0,0:0:0
204,192,87226,1,0,0:0:0
360,116,87434,2,0,B|412:148|412:232|360:272,1,180,0|8,0:0|0:0,0:0:0
128,192,88056,1,0,0:0:0
316,192,88263,5,0,0:0:0
296,192,88678,1,8,0:0:0
276,192,89093,1,0,0:0:0
256,192,89508,1,8,0:0:0
104,96,89922,6,0,B|140:60|208:60,1,90
272,84,90337,1,8,0:0:0
204,144,90545,1,0,0:0:0
164,232,90752,2,0,B|128:272|164:312,1,90
254,312,91167,2,0,B|290:272|254:232,1,90,8|0,0:0|0:0,0:0:0
340,204,91581,6,0,B|408:144,1,90
376,60,91996,2,0,B|308:120,1,90,8|0,0:0|0:0,0:0:0
228,80,92411,1,0,0:0:0
140,88,92618,1,0,0:0:0
120,96,92722,1,0,0:0:0
100,104,92826,1,8,0:0:0
172,156,93033,1,0,0:0:0
172,156,93241,6,0,B|140:208|56:208|16:156,1,180,0|8,0:0|0:0,0:0:0
16,157,93863,1,0,0:0:0
172,212,94070,2,0,B|140:264|56:264|16:212,1,180,0|8,0:0|0:0,0:0:0
16,213,94692,1,0,0:0:0
96,168,94900,5,0,0:0:0
96,152,95314,1,8,0:0:0
96,136,95729,1,0,0:0:0
96,120,96144,1,8,0:0:0
272,84,96559,6,0,B|336:64|376:64,1,90
328,148,96973,2,0,B|264:168|224:168,1,90,8|0,0:0|0:0,0:0:0
156,196,97388,1,0,0:0:0
236,240,97596,1,0,0:0:0
156,284,97803,1,8,0:0:0
236,324,98010,1,0,0:0:0
316,284,98218,5,0,0:0:0
332,272,98632,1,8,0:0:0
348,260,99047,1,0,0:0:0
364,248,99462,2,0,B|444:188,1,90,8|0,0:0|0:0,0:0:0
432,104,99877,6,0,B|416:48|328:48,1,90
300,116,100292,2,0,B|256:92|212:116,1,90,8|0,0:0|0:0,0:0:0
213,114,100706,1,0,0:0:0
256,184,100914,1,0,0:0:0
256,184,101017,1,0,0:0:0
256,184,101121,2,0,B|256:284,1,90,8|0,0:0|0:0,0:0:0
176,316,101536,2,0,B|220:368|292:368|332:316,2,180,0|8|0,0:0|0:0|0:0,0:0:0
356,292,102780,1,8,0:0:0
356,292,103195,6,0,B|392:208,2,90,0|0|8,0:0|0:0|0:0,0:0:0
391,209,103817,1,8,0:0:0
392,208,104024,2,0,B|484:236,2,90,0|0|8,0:0|0:0|0:0,0:0:0
412,120,104647,1,8,0:0:0
372,40,104854,5,0,0:0:0
372,40,105061,1,8,0:0:0
280,32,105269,1,0,0:0:0
280,32,105476,1,8,0:0:0
192,48,105683,1,8,0:0:0
108,80,105891,1,8,0:0:0
44,140,106098,5,8,0:0:0
27,154,106201,1,0,0:0:0
14,173,106305,1,8,0:0:0
6,194,106409,1,0,0:0:0
3,216,106512,1,8,0:0:0
6,239,106616,1,0,0:0:0
14,259,106720,1,8,0:0:0
27,278,106823,1,0,0:0:0
44,292,106928,6,0,B|84:340|156:352|224:300,1,180,0|8,0:0|0:0,0:0:0
207,311,107550,1,0,0:0:0
288,268,107757,1,0,0:0:0
304,180,107965,1,0,0:0:0
304,180,108068,1,0,0:0:0
304,180,108172,2,0,B|368:184|376:252,1,90,8|0,0:0|0:0,0:0:0
220,224,108587,2,0,B|188:164|232:76|328:80,2,180,0|8|0,0:0|0:0|0:0,0:0:0
289,83,109831,1,8,0:0:0
476,172,110246,6,0,B|468:116|420:96,1,90
384,184,110661,2,0,B|392:240|444:260,1,90,8|0,0:0|0:0,0:0:0
364,312,111075,2,0,B|320:348|256:320,1,90
219,253,111490,2,0,B|256:224|304:236,1,90,8|0,0:0|0:0,0:0:0
164,184,111905,5,0,0:0:0
300,64,112320,1,8,0:0:0
480,76,112734,1,0,0:0:0
412,204,112942,1,0,0:0:0
412,204,113046,1,0,0:0:0
412,204,113149,2,0,B|412:256|376:304,1,90,8|0,0:0|0:0,0:0:0
312,344,113564,5,0,0:0:0
236,292,113771,1,0,0:0:0
164,240,113979,2,0,B|80:180,1,90,8|0,0:0|0:0,0:0:0
160,132,114394,1,0,0:0:0
256,112,114601,1,0,0:0:0
256,112,114705,1,0,0:0:0
256,112,114808,2,0,B|329:164,1,90,8|0,0:0|0:0,0:0:0
404,212,115223,5,0,0:0:0
420,224,115638,1,8,0:0:0
436,236,116053,1,0,0:0:0
452,248,116467,1,8,0:0:0
330,155,116882,5,0,0:0:0
173,227,117090,1,0,0:0:0
288,270,117297,1,8,0:0:0
219,113,117504,1,0,0:0:0
222,269,117712,5,0,0:0:0
285,110,117919,1,0,0:0:0
171,157,118126,1,8,0:0:0
335,217,118334,1,0,0:0:0
424,208,118541,6,0,B|436:260|376:304,1,90
88,176,118956,2,0,B|76:124|136:80,1,90,8|0,0:0|0:0,0:0:0
256,192,119371,2,0,B|256:280,1,90
256,304,119682,1,0,0:0:0
256,328,119786,1,8,0:0:0
328,164,119993,1,0,0:0:0
328,164,120200,6,0,B|300:104|208:104|180:168,1,180,0|8,0:0|0:0,0:0:0
180,256,120822,1,0,0:0:0
180,256,121030,2,0,B|208:316|300:316|328:252,1,180,0|8,0:0|0:0,0:0:0
328,164,121652,1,0,0:0:0
412,192,121859,5,0,0:0:0
96,192,122274,1,8,0:0:0
412,260,122689,1,0,0:0:0
96,124,123104,1,8,0:0:0
256,116,123518,6,0,B|316:128|340:192,1,90
256,268,123933,2,0,B|196:256|172:192,1,90,8|0,0:0|0:0,0:0:0
172,136,124348,1,0,0:0:0
336,256,124555,1,0,0:0:0
228,184,124763,1,8,0:0:0
396,300,124970,1,0,0:0:0
444,220,125177,5,0,0:0:0
444,200,125592,1,8,0:0:0
444,180,126007,1,0,0:0:0
444,74,126214,5,0,0:0:0
444,74,126318,1,0,0:0:0
444,74,126422,2,0,B|444:164,1,90,8|0,0:0|0:0,0:0:0
360,44,126837,2,0,B|288:32|244:40,1,90
212,108,127251,2,0,B|284:120|328:112,1,90,8|0,0:0|0:0,0:0:0
270,37,127666,1,0,0:0:0
212,108,127873,5,0,0:0:0
212,108,127977,1,0,0:0:0
212,108,128081,2,0,B|183:176|160:192,1,90,8|0,0:0|0:0,0:0:0
118,264,128496,2,0,B|160:242|204:266,1,90,8|0,0:0|0:0,0:0:0
394,264,128910,2,0,B|352:242|308:266,1,90,8|0,0:0|0:0,0:0:0
256,344,129325,1,0,0:0:0
256,192,129532,1,0,0:0:0
256,192,129636,1,0,0:0:0
256,192,129740,1,8,0:0:0
308,116,129947,1,0,0:0:0
372,56,130155,6,0,B|424:84|428:132,1,90
424,260,130569,2,0,B|416:312|360:332,1,90,8|0,0:0|0:0,0:0:0
140,328,130984,2,0,B|88:300|84:252,1,90,0|0,0:0|0:0,0:0:0
88,124,131399,2,0,B|96:72|152:52,1,90,8|0,0:0|0:0,0:0:0
256,192,131814,1,0,0:0:0
256,192,131917,12,4,133473,0:0:0
