osu file format v12

[General]
AudioFilename: [07] Meiji Juushichinen no Shanghai Alice.mp3
AudioLeadIn: 0
PreviewTime: 39166
Countdown: 1
SampleSet: None
StackLeniency: 0.7
Mode: 0
LetterboxInBreaks: 1
WidescreenStoryboard: 1

[Editor]
DistanceSpacing: 1
BeatDivisor: 1
GridSize: 32
TimelineZoom: 1

[Metadata]
Title:Shanghai Alice of Meiji 17
TitleUnicode:Shanghai Alice of Meiji 17
Artist:ZUN
ArtistUnicode:ZUN
Creator:Otousan
Version:Extreme Color Typhoon
Source:
Tags:Touhou ZUN
BeatmapID:412626
BeatmapSetID:170440

[Difficulty]
HPDrainRate:3
CircleSize:4
OverallDifficulty:4
ApproachRate:3
SliderMultiplier:0.800000005960464
SliderTickRate:1

[Events]
//Background and Video events
0,0,"Hong.Meiling.full.1566013.jpg",0,0
//Break Periods
2,8950,13560
2,37283,38560
2,73532,75226
//Storyboard Layer 0 (Background)
//Storyboard Layer 1 (Fail)
//Storyboard Layer 2 (Pass)
//Storyboard Layer 3 (Foreground)
//Storyboard Sound Samples
//Background Colour Transformations
3,100,163,162,255

[TimingPoints]
0,416.666666666667,4,1,0,100,1,0
66666,-100,4,1,0,100,0,1
80000,-100,4,1,0,100,0,0

[HitObjects]
352,96,1250,5,0,0:0:0:0:
448,192,2500,1,0,0:0:0:0:
352,256,3125,1,0,0:0:0:0:
256,192,3750,1,0,0:0:0:0:
64,32,5000,5,0,0:0:0:0:
256,128,6250,1,0,0:0:0:0:
96,256,7500,1,0,0:0:0:0:
192,320,8125,1,0,0:0:0:0:
288,256,8750,1,0,0:0:0:0:
160,128,15000,5,0,0:0:0:0:
256,64,15625,1,0,0:0:0:0:
352,128,16250,1,0,0:0:0:0:
288,224,16875,1,0,0:0:0:0:
416,256,17500,1,0,0:0:0:0:
288,224,18125,1,0,0:0:0:0:
192,288,18750,1,0,0:0:0:0:
96,128,20000,6,0,L|384:224,1,240.000001788139
416,224,21666,1,0,0:0:0:0:
384,128,22083,1,0,0:0:0:0:
224,96,22916,5,0,0:0:0:0:
96,32,23750,1,0,0:0:0:0:
32,96,24166,1,0,0:0:0:0:
96,160,24583,1,0,0:0:0:0:
192,160,25000,6,0,P|224:352|256:384,1,240.000001788139
320,352,26666,1,0,0:0:0:0:
384,288,27083,1,0,0:0:0:0:
448,224,27500,1,0,0:0:0:0:
96,64,28750,6,0,L|256:224,1,160.000001192093
209,177,30000,1,0,0:0:0:0:
288,160,30416,5,0,0:0:0:0:
416,96,31250,1,0,0:0:0:0:
448,160,31666,1,0,0:0:0:0:
416,224,32083,1,0,0:0:0:0:
256,160,32916,5,0,0:0:0:0:
192,96,33333,1,0,0:0:0:0:
128,160,33750,1,0,0:0:0:0:
192,224,34166,2,0,L|256:224,4,40.0000002980232
192,320,35416,5,0,0:0:0:0:
320,160,36041,1,0,0:0:0:0:
416,224,36666,1,0,0:0:0:0:
352,288,37083,1,0,0:0:0:0:
224,160,40000,5,0,0:0:0:0:
288,320,40833,1,0,0:0:0:0:
384,96,41666,1,0,0:0:0:0:
352,160,42083,1,0,0:0:0:0:
320,224,42500,1,0,0:0:0:0:
192,160,43333,5,0,0:0:0:0:
224,320,44166,1,0,0:0:0:0:
96,256,45000,1,0,0:0:0:0:
64,96,45833,5,0,0:0:0:0:
128,160,46250,1,0,0:0:0:0:
192,96,46666,1,0,0:0:0:0:
128,160,47500,5,0,0:0:0:0:
192,320,48333,1,0,0:0:0:0:
256,256,48750,1,0,0:0:0:0:
320,320,49166,1,0,0:0:0:0:
384,96,50000,5,0,0:0:0:0:
224,96,50833,1,0,0:0:0:0:
96,192,51666,1,0,0:0:0:0:
160,256,52083,1,0,0:0:0:0:
96,320,52500,2,0,L|128:352,4,40.0000002980232
256,192,53750,5,0,0:0:0:0:
320,128,54166,1,0,0:0:0:0:
384,192,54583,1,0,0:0:0:0:
448,256,55000,1,0,0:0:0:0:
384,320,55416,1,0,0:0:0:0:
320,256,55833,1,0,0:0:0:0:
128,128,56666,6,0,L|224:128,1,80.0000005960464
192,224,57500,2,0,L|320:224,1,80.0000005960464
320,160,58333,1,0,0:0:0:0:
448,64,59166,1,0,0:0:0:0:
352,64,59583,2,0,L|288:64,2,40.0000002980232
224,96,60416,5,0,0:0:0:0:
128,96,60833,1,0,0:0:0:0:
96,224,61666,1,0,0:0:0:0:
160,288,62083,1,0,0:0:0:0:
224,224,62500,1,0,0:0:0:0:
320,96,63333,5,0,0:0:0:0:
384,224,64166,1,0,0:0:0:0:
224,160,65000,1,0,0:0:0:0:
224,256,65416,1,0,0:0:0:0:
128,224,65833,1,0,0:0:0:0:
64,160,66250,2,0,L|128:128,2,40.0000002980232,0|0|4,0:0|0:0|0:0,0:0:0:0:
128,96,67083,5,8,0:0:0:0:
192,32,67500,1,0,0:0:0:0:
256,96,67916,1,8,0:0:0:0:
352,96,68333,1,0,0:0:0:0:
416,160,68750,1,8,0:0:0:0:
384,192,68958,1,0,0:0:0:0:
352,224,69166,1,0,0:0:0:0:
224,96,70000,5,0,0:0:0:0:
64,160,70833,1,0,0:0:0:0:
160,288,71666,1,0,0:0:0:0:
320,288,72500,1,0,0:0:0:0:
256,224,72916,2,0,L|192:224,2,40.0000002980232,8|0|4,0:0|0:0|0:0,0:0:0:0:
256,192,76666,12,4,80000,0:0:0:0:
