osu file format v14

[General]
AudioFilename: audio.mp3
AudioLeadIn: 0
PreviewTime: -1
Countdown: 1
SampleSet: Normal
StackLeniency: 0.7
Mode: 0
LetterboxInBreaks: 0
WidescreenStoryboard: 0

[Editor]
DistanceSpacing: 0.6
BeatDivisor: 6
GridSize: 8
TimelineZoom: 3.099999

[Metadata]
Title:Shanghai Alice of Meiji 17
TitleUnicode:Shanghai Alice of Meiji 17
Artist:ZUN
ArtistUnicode:ZUN
Creator:Eraqus
Version:Lunatic
Source:Touhou
Tags:zun hong meiling
BeatmapID:980974
BeatmapSetID:457809

[Difficulty]
HPDrainRate:6
CircleSize:4
OverallDifficulty:7.5
ApproachRate:9
SliderMultiplier:1.6
SliderTickRate:4

[Events]
//Background and Video events
0,0,"Hong.Meiling.full.59014.jpg",0,0
//Break Periods
//Storyboard Layer 0 (Background)
//Storyboard Layer 1 (Fail)
//Storyboard Layer 2 (Pass)
//Storyboard Layer 3 (Foreground)
//Storyboard Sound Samples

[TimingPoints]
2089.7950389931,416.696470588235,4,1,0,100,1,0

[HitObjects]
64,56,2506,5,0,0:0:0:0:
104,72,2610,1,0,0:0:0:0:
144,96,2714,1,0,0:0:0:0:
184,128,2819,1,0,0:0:0:0:
216,168,2923,1,0,0:0:0:0:
304,232,3131,1,0,0:0:0:0:
336,264,3235,1,0,0:0:0:0:
368,296,3340,1,0,0:0:0:0:
408,320,3444,1,0,0:0:0:0:
448,328,3548,1,0,0:0:0:0:
368,64,3756,5,0,0:0:0:0:
336,96,3860,1,0,0:0:0:0:
304,128,3964,1,0,0:0:0:0:
272,160,4069,1,0,0:0:0:0:
240,192,4173,1,0,0:0:0:0:
208,224,4277,1,0,0:0:0:0:
192,256,4381,1,0,0:0:0:0:
192,256,4485,1,0,0:0:0:0:
160,288,4589,1,0,0:0:0:0:
160,288,4694,1,0,0:0:0:0:
160,288,4798,1,0,0:0:0:0:
416,56,5006,5,0,0:0:0:0:
408,104,5110,1,0,0:0:0:0:
384,152,5215,1,0,0:0:0:0:
336,168,5319,1,0,0:0:0:0:
288,152,5423,1,0,0:0:0:0:
88,320,5631,1,0,0:0:0:0:
104,272,5735,1,0,0:0:0:0:
136,232,5840,1,0,0:0:0:0:
184,216,5944,1,0,0:0:0:0:
232,232,6048,1,0,0:0:0:0:
240,160,6256,5,0,0:0:0:0:
240,160,6360,1,0,0:0:0:0:
240,160,6465,1,0,0:0:0:0:
240,160,6569,1,0,0:0:0:0:
240,160,6673,1,0,0:0:0:0:
240,160,6777,1,0,0:0:0:0:
240,160,6881,1,0,0:0:0:0:
248,192,6985,1,0,0:0:0:0:
248,192,7090,1,0,0:0:0:0:
248,192,7194,1,0,0:0:0:0:
248,192,7298,1,0,0:0:0:0:
408,304,7506,5,0,0:0:0:0:
408,304,7611,1,0,0:0:0:0:
408,304,7715,1,0,0:0:0:0:
192,272,7923,1,0,0:0:0:0:
192,272,8027,1,0,0:0:0:0:
192,272,8131,1,0,0:0:0:0:
128,112,8340,1,0,0:0:0:0:
368,224,8756,5,0,0:0:0:0:
288,64,8965,1,0,0:0:0:0:
256,216,9173,1,0,0:0:0:0:
208,264,9278,1,0,0:0:0:0:
256,312,9382,1,0,0:0:0:0:
256,56,10007,1,0,0:0:0:0:
128,288,10632,1,0,0:0:0:0:
384,88,10840,1,0,0:0:0:0:
256,192,10944,12,0,12403,0:0:0:0:
256,192,12507,5,0,0:0:0:0:
256,320,12715,1,0,0:0:0:0:
120,136,12923,1,0,0:0:0:0:
336,272,13132,1,0,0:0:0:0:
392,136,13340,1,0,0:0:0:0:
176,272,13548,1,0,0:0:0:0:
256,192,13757,1,0,0:0:0:0:
256,336,13965,1,0,0:0:0:0:
160,64,14173,1,0,0:0:0:0:
216,64,14278,1,0,0:0:0:0:
272,64,14382,1,0,0:0:0:0:
272,112,14486,1,0,0:0:0:0:
328,112,14590,1,0,0:0:0:0:
256,224,14799,5,0,0:0:0:0:
256,264,14903,1,0,0:0:0:0:
256,224,15007,1,0,0:0:0:0:
256,112,15215,1,0,0:0:0:0:
400,112,15424,1,0,0:0:0:0:
160,304,15632,1,0,0:0:0:0:
392,192,15840,1,0,0:0:0:0:
144,192,16049,1,0,0:0:0:0:
368,192,16257,1,0,0:0:0:0:
256,208,16465,1,0,0:0:0:0:
176,192,16674,1,0,0:0:0:0:
176,248,16778,1,0,0:0:0:0:
176,304,16882,1,0,0:0:0:0:
256,192,17090,1,0,0:0:0:0:
256,192,17299,1,0,0:0:0:0:
256,192,17403,12,0,22091,0:0:0:0:
48,240,22299,5,0,0:0:0:0:
88,296,22403,1,0,0:0:0:0:
128,240,22507,1,0,0:0:0:0:
256,336,22716,1,0,0:0:0:0:
328,248,22924,1,0,0:0:0:0:
256,160,23133,1,0,0:0:0:0:
184,72,23341,1,0,0:0:0:0:
328,72,23549,1,0,0:0:0:0:
416,320,23966,5,0,0:0:0:0:
344,320,24070,1,0,0:0:0:0:
344,248,24174,1,0,0:0:0:0:
256,96,24383,1,0,0:0:0:0:
168,192,24591,1,0,0:0:0:0:
288,192,24799,1,0,0:0:0:0:
120,112,25216,5,0,0:0:0:0:
120,192,25320,1,0,0:0:0:0:
168,256,25424,1,0,0:0:0:0:
256,104,25633,1,0,0:0:0:0:
288,272,25841,1,0,0:0:0:0:
408,104,26049,1,0,0:0:0:0:
408,280,26258,1,0,0:0:0:0:
72,192,26466,1,0,0:0:0:0:
424,192,26674,1,0,0:0:0:0:
144,192,26883,1,0,0:0:0:0:
256,192,26987,8,0,27508,0:0:0:0:
184,296,27716,5,0,0:0:0:0:
328,296,27924,1,0,0:0:0:0:
376,184,28133,1,0,0:0:0:0:
256,88,28342,1,0,0:0:0:0:
136,184,28550,1,0,0:0:0:0:
168,192,28966,1,0,0:0:0:0:
336,144,29175,1,0,0:0:0:0:
160,312,29383,1,0,0:0:0:0:
336,256,29591,1,0,0:0:0:0:
168,312,29800,1,0,0:0:0:0:
104,64,30216,5,0,0:0:0:0:
376,288,30425,1,0,0:0:0:0:
424,96,30633,1,0,0:0:0:0:
128,280,30841,1,0,0:0:0:0:
256,72,31050,1,0,0:0:0:0:
256,104,31154,1,0,0:0:0:0:
256,144,31258,2,0,P|256:272|368:312,1,240
336,312,32091,1,0,0:0:0:0:
351,325,32196,1,0,0:0:0:0:
351,325,32300,1,0,0:0:0:0:
351,325,32404,1,0,0:0:0:0:
351,325,32508,1,0,0:0:0:0:
160,200,32716,5,0,0:0:0:0:
240,72,32925,1,0,0:0:0:0:
352,168,33133,1,0,0:0:0:0:
272,288,33342,1,0,0:0:0:0:
160,200,33550,1,0,0:0:0:0:
248,72,33967,1,0,0:0:0:0:
424,320,34175,1,0,0:0:0:0:
360,56,34383,1,0,0:0:0:0:
208,320,34592,1,0,0:0:0:0:
144,72,34800,1,0,0:0:0:0:
144,72,34904,1,0,0:0:0:0:
144,72,35008,1,0,0:0:0:0:
360,96,35217,5,0,0:0:0:0:
408,296,35425,1,0,0:0:0:0:
152,96,35634,1,0,0:0:0:0:
104,296,35842,1,0,0:0:0:0:
280,72,36050,1,0,0:0:0:0:
88,192,36258,1,0,0:0:0:0:
392,192,36467,1,0,0:0:0:0:
280,320,36675,1,0,0:0:0:0:
280,48,36883,1,0,0:0:0:0:
256,192,36988,12,0,37508,0:0:0:0:
112,80,37717,5,0,0:0:0:0:
104,120,37821,1,0,0:0:0:0:
112,160,37925,1,0,0:0:0:0:
104,200,38029,1,0,0:0:0:0:
112,240,38134,1,0,0:0:0:0:
288,56,38342,1,0,0:0:0:0:
424,320,38550,1,0,0:0:0:0:
72,192,38967,1,0,0:0:0:0:
184,192,39175,5,0,0:0:0:0:
224,192,39279,1,0,0:0:0:0:
264,192,39384,1,0,0:0:0:0:
304,192,39488,1,0,0:0:0:0:
344,192,39592,1,0,0:0:0:0:
384,192,39696,1,0,0:0:0:0:
424,192,39800,1,0,0:0:0:0:
176,320,40217,5,0,0:0:0:0:
424,176,40425,1,0,0:0:0:0:
88,176,40634,1,0,0:0:0:0:
336,320,40842,1,0,0:0:0:0:
384,112,41050,1,0,0:0:0:0:
368,152,41155,1,0,0:0:0:0:
384,192,41259,2,0,L|280:192,2,80
224,56,41884,5,0,0:0:0:0:
256,328,42092,1,0,0:0:0:0:
256,304,42196,1,0,0:0:0:0:
256,272,42301,1,0,0:0:0:0:
256,248,42405,1,0,0:0:0:0:
256,224,42509,1,0,0:0:0:0:
80,192,42717,1,0,0:0:0:0:
280,200,42926,1,0,0:0:0:0:
320,200,43030,1,0,0:0:0:0:
360,200,43134,1,0,0:0:0:0:
400,200,43238,1,0,0:0:0:0:
440,200,43342,1,0,0:0:0:0:
96,312,43759,5,0,0:0:0:0:
384,80,44176,1,0,0:0:0:0:
104,176,44592,1,0,0:0:0:0:
256,176,44801,1,0,0:0:0:0:
416,176,45009,2,0,P|416:240|392:272,2,80
168,272,45634,1,0,0:0:0:0:
256,80,45842,1,0,0:0:0:0:
344,272,46051,1,0,0:0:0:0:
256,80,46259,1,0,0:0:0:0:
152,72,46676,5,0,0:0:0:0:
392,104,46884,1,0,0:0:0:0:
248,280,47093,1,0,0:0:0:0:
96,72,47509,1,0,0:0:0:0:
344,320,47718,1,0,0:0:0:0:
344,320,47822,1,0,0:0:0:0:
344,320,47926,1,0,0:0:0:0:
344,320,48030,1,0,0:0:0:0:
344,320,48134,1,0,0:0:0:0:
344,320,48238,1,0,0:0:0:0:
344,320,48343,1,0,0:0:0:0:
232,48,48760,5,0,0:0:0:0:
232,96,48864,1,0,0:0:0:0:
232,144,48968,1,0,0:0:0:0:
232,192,49073,1,0,0:0:0:0:
232,240,49177,1,0,0:0:0:0:
104,312,49384,1,0,0:0:0:0:
256,312,49593,1,0,0:0:0:0:
400,312,49801,1,0,0:0:0:0:
304,64,50009,2,0,P|352:80|400:80,2,80
424,168,50634,5,0,0:0:0:0:
80,128,50843,1,0,0:0:0:0:
120,96,50947,1,0,0:0:0:0:
160,128,51051,1,0,0:0:0:0:
200,96,51155,1,0,0:0:0:0:
240,128,51259,1,0,0:0:0:0:
400,328,51468,1,0,0:0:0:0:
400,296,51572,1,0,0:0:0:0:
400,264,51676,1,0,0:0:0:0:
80,64,52093,1,0,0:0:0:0:
80,104,52197,1,0,0:0:0:0:
80,144,52301,1,0,0:0:0:0:
216,328,52510,5,0,0:0:0:0:
216,296,52614,1,0,0:0:0:0:
216,264,52718,1,0,0:0:0:0:
216,232,52822,1,0,0:0:0:0:
216,200,52926,1,0,0:0:0:0:
216,168,53030,1,0,0:0:0:0:
216,136,53135,1,0,0:0:0:0:
216,104,53239,1,0,0:0:0:0:
216,72,53343,1,0,0:0:0:0:
216,40,53447,1,0,0:0:0:0:
264,40,53551,1,0,0:0:0:0:
312,40,53655,1,0,0:0:0:0:
312,88,53760,5,0,0:0:0:0:
312,136,53864,1,0,0:0:0:0:
312,184,53968,1,0,0:0:0:0:
312,232,54072,1,0,0:0:0:0:
72,192,54385,1,0,0:0:0:0:
168,192,54593,1,0,0:0:0:0:
200,192,54697,1,0,0:0:0:0:
232,192,54801,1,0,0:0:0:0:
264,192,54905,1,0,0:0:0:0:
296,192,55010,1,0,0:0:0:0:
424,192,55218,5,0,0:0:0:0:
408,320,55426,1,0,0:0:0:0:
320,64,55635,5,0,0:0:0:0:
112,320,55843,1,0,0:0:0:0:
112,320,55947,1,0,0:0:0:0:
112,320,56051,1,0,0:0:0:0:
112,320,56156,1,0,0:0:0:0:
112,320,56260,1,0,0:0:0:0:
120,128,56468,1,0,0:0:0:0:
56,64,56677,1,0,0:0:0:0:
256,128,57093,5,0,0:0:0:0:
256,256,57302,1,0,0:0:0:0:
256,280,57406,1,0,0:0:0:0:
256,312,57510,1,0,0:0:0:0:
104,208,57927,1,0,0:0:0:0:
400,208,58135,1,0,0:0:0:0:
256,56,58343,2,0,P|256:216|264:224,1,160
368,192,59177,5,0,0:0:0:0:
120,304,59385,1,0,0:0:0:0:
120,96,59593,1,0,0:0:0:0:
384,88,60010,1,0,0:0:0:0:
128,264,60218,1,0,0:0:0:0:
392,312,60427,1,0,0:0:0:0:
176,312,60843,1,0,0:0:0:0:
256,64,61052,1,0,0:0:0:0:
336,312,61260,1,0,0:0:0:0:
120,144,61469,1,0,0:0:0:0:
392,144,61677,1,0,0:0:0:0:
240,176,62094,5,0,0:0:0:0:
272,176,62198,1,0,0:0:0:0:
272,208,62302,1,0,0:0:0:0:
240,208,62406,1,0,0:0:0:0:
256,192,62510,1,0,0:0:0:0:
256,192,62719,1,0,0:0:0:0:
336,56,62927,1,0,0:0:0:0:
288,304,63135,1,0,0:0:0:0:
168,56,63344,1,0,0:0:0:0:
80,64,63760,1,0,0:0:0:0:
80,160,63969,5,0,0:0:0:0:
80,192,64073,1,0,0:0:0:0:
80,224,64177,1,0,0:0:0:0:
80,256,64281,1,0,0:0:0:0:
80,288,64385,1,0,0:0:0:0:
96,320,64490,1,0,0:0:0:0:
136,320,64594,1,0,0:0:0:0:
240,320,64802,1,0,0:0:0:0:
352,320,65010,1,0,0:0:0:0:
240,320,65219,1,0,0:0:0:0:
96,80,65427,5,0,0:0:0:0:
96,112,65531,1,0,0:0:0:0:
96,144,65635,1,0,0:0:0:0:
368,224,65844,1,0,0:0:0:0:
341,202,65948,1,0,0:0:0:0:
315,180,66052,1,0,0:0:0:0:
289,159,66156,1,0,0:0:0:0:
262,137,66260,1,0,0:0:0:0:
236,116,66364,1,0,0:0:0:0:
209,96,66469,1,0,0:0:0:0:
181,76,66573,5,0,0:0:0:0:
153,57,66677,1,0,0:0:0:0:
152,96,66781,1,0,0:0:0:0:
152,128,66885,1,0,0:0:0:0:
152,168,66989,1,0,0:0:0:0:
152,208,67094,1,0,0:0:0:0:
152,248,67198,1,0,0:0:0:0:
152,288,67302,1,0,0:0:0:0:
152,328,67406,1,0,0:0:0:0:
296,320,67614,5,0,0:0:0:0:
344,320,67718,1,0,0:0:0:0:
392,320,67823,1,0,0:0:0:0:
392,272,67927,1,0,0:0:0:0:
392,224,68032,1,0,0:0:0:0:
392,176,68136,1,0,0:0:0:0:
392,128,68240,1,0,0:0:0:0:
392,160,68344,1,0,0:0:0:0:
392,200,68448,1,0,0:0:0:0:
392,240,68552,1,0,0:0:0:0:
392,272,68657,5,0,0:0:0:0:
352,272,68761,1,0,0:0:0:0:
312,272,68865,1,0,0:0:0:0:
272,272,68969,1,0,0:0:0:0:
232,272,69073,1,0,0:0:0:0:
192,272,69177,1,0,0:0:0:0:
120,72,69386,1,0,0:0:0:0:
240,168,69594,1,0,0:0:0:0:
88,216,69802,1,0,0:0:0:0:
152,152,70011,1,0,0:0:0:0:
408,72,70427,5,0,0:0:0:0:
96,304,70844,1,0,0:0:0:0:
80,64,71261,1,0,0:0:0:0:
256,192,71469,1,0,0:0:0:0:
424,312,71677,1,0,0:0:0:0:
304,96,71886,2,0,L|384:144,2,80
208,312,72511,2,0,L|96:168|96:168,2,160
240,64,73553,5,0,0:0:0:0:
400,144,73761,1,0,0:0:0:0:
176,200,74178,1,0,0:0:0:0:
400,256,74386,1,0,0:0:0:0:
128,96,74594,1,0,0:0:0:0:
216,320,74803,1,0,0:0:0:0:
344,72,75011,1,0,0:0:0:0:
256,320,75428,5,0,0:0:0:0:
256,288,75532,1,0,0:0:0:0:
256,256,75636,1,0,0:0:0:0:
256,224,75740,1,0,0:0:0:0:
256,192,75844,1,0,0:0:0:0:
168,280,76053,1,0,0:0:0:0:
312,96,76261,1,0,0:0:0:0:
344,280,76470,1,0,0:0:0:0:
200,96,76678,1,0,0:0:0:0:
200,96,76886,1,0,0:0:0:0:
72,224,77095,5,0,0:0:0:0:
112,224,77199,1,0,0:0:0:0:
152,224,77304,1,0,0:0:0:0:
192,224,77408,1,0,0:0:0:0:
232,224,77512,1,0,0:0:0:0:
272,224,77616,1,0,0:0:0:0:
312,224,77720,1,0,0:0:0:0:
352,224,77824,1,0,0:0:0:0:
392,224,77928,1,0,0:0:0:0:
392,136,78136,1,0,0:0:0:0:
392,320,78345,1,0,0:0:0:0:
392,72,78553,5,0,0:0:0:0:
344,144,78692,1,0,0:0:0:0:
392,208,78831,1,0,0:0:0:0:
344,272,78970,1,0,0:0:0:0:
80,56,79178,1,0,0:0:0:0:
80,88,79282,1,0,0:0:0:0:
80,120,79386,1,0,0:0:0:0:
80,152,79491,1,0,0:0:0:0:
80,184,79595,1,0,0:0:0:0:
80,216,79699,1,0,0:0:0:0:
112,272,79803,5,0,0:0:0:0:
160,272,79907,1,0,0:0:0:0:
208,272,80012,1,0,0:0:0:0:
256,272,80116,1,0,0:0:0:0:
304,272,80220,1,0,0:0:0:0:
352,272,80324,1,0,0:0:0:0:
400,272,80428,1,0,0:0:0:0:
432,240,80532,1,0,0:0:0:0:
432,192,80637,1,0,0:0:0:0:
432,144,80741,1,0,0:0:0:0:
256,320,80949,5,0,0:0:0:0:
256,288,81053,1,0,0:0:0:0:
256,248,81157,1,0,0:0:0:0:
256,216,81262,1,0,0:0:0:0:
256,176,81366,1,0,0:0:0:0:
256,136,81470,1,0,0:0:0:0:
256,96,81574,1,0,0:0:0:0:
256,56,81678,1,0,0:0:0:0:
256,104,81782,1,0,0:0:0:0:
256,144,81887,1,0,0:0:0:0:
256,176,81991,5,0,0:0:0:0:
256,216,82095,1,0,0:0:0:0:
256,248,82199,1,0,0:0:0:0:
256,288,82303,1,0,0:0:0:0:
256,320,82408,1,0,0:0:0:0:
320,320,82512,1,0,0:0:0:0:
256,192,82616,12,0,83762,0:0:0:0:
