osu file format v14

[General]
AudioFilename: remiliasong.mp3
AudioLeadIn: 1000
PreviewTime: 42831
Countdown: 0
SampleSet: Soft
StackLeniency: 0.7
Mode: 0
LetterboxInBreaks: 0
WidescreenStoryboard: 0

[Editor]
Bookmarks: 69497,123664
DistanceSpacing: 1.2
BeatDivisor: 4
GridSize: 4
TimelineZoom: 1.5

[Metadata]
Title:Septette for the Dead Princess
TitleUnicode:亡き王女の為のセプテット
Artist:ZUN
ArtistUnicode:ZUN
Creator:Pereira006
Version:Normal
Source:東方Project
Tags:レミリアのテーマ 東方紅魔郷 Naki Oujo no Tameno Seputetto Koumakyou The Embodiment of Scarlet Devil Remilia Touhou theme final boss TH06 DarkDunskin
BeatmapID:769112
BeatmapSetID:348342

[Difficulty]
HPDrainRate:3
CircleSize:3
OverallDifficulty:3
ApproachRate:4
SliderMultiplier:1.4
SliderTickRate:1

[Events]
//Background and Video events
0,0,"BG.jpg",0,0
//Break Periods
//Storyboard Layer 0 (Background)
//Storyboard Layer 1 (Fail)
//Storyboard Layer 2 (Pass)
//Storyboard Layer 3 (Foreground)
//Storyboard Sound Samples

[TimingPoints]
2416,413.793103448276,4,2,0,50,1,0
14829,428.571428571429,4,1,0,25,1,0
15686,428.571428571429,4,2,0,60,1,0
27686,422.535211267606,4,1,0,50,1,0
29376,413.793103448276,4,2,0,50,1,0
35376,-100,4,2,0,60,0,0
40962,483.870967741935,4,1,0,60,1,0
41929,451.127819548872,4,1,0,40,1,0
42831,416.666666666667,4,2,0,60,1,0
69497,-100,4,2,0,80,0,0
81164,-100,4,2,0,60,0,0
83664,416.666666666667,4,2,0,70,1,1
96893,-100,4,2,0,70,0,0
96997,-100,4,2,0,70,0,1
109497,-100,4,2,0,50,0,1
110330,-100,4,2,0,70,0,0
136997,413.793103448276,4,1,0,60,1,0

[Colours]
Combo1 : 81,81,255
Combo2 : 178,0,255
Combo3 : 255,125,255

[HitObjects]
256,56,2415,5,4,0:0:0:0:
416,104,2829,2,0,L|480:68,2,70,2|0|2,0:0|0:0|0:0,0:0:0:0:
416,280,3657,2,0,L|480:316,2,70,2|0|2,0:0|0:0|0:0,0:0:0:0:
248,280,4484,2,0,L|184:316,2,70,2|0|2,0:0|0:0|0:0,0:0:0:0:
136,156,5312,2,0,L|72:120,2,70,2|0|2,0:0|0:0|0:0,0:0:0:0:
252,36,6140,6,0,L|324:16,2,70,2|0|2,0:0|0:0|0:0,0:0:0:0:
256,204,6967,2,0,L|328:236,2,70,2|0|2,0:0|0:0|0:0,0:0:0:0:
100,264,7795,2,0,P|108:296|132:328,1,70,2|0,0:0|0:0,0:0:0:0:
376,308,8622,1,0,1:0:0:0:
436,248,8829,1,0,1:0:0:0:
444,164,9036,5,0,1:0:0:0:
320,52,9450,2,0,P|356:40|392:40,2,70,2|0|2,0:0|0:0|0:0,0:0:0:0:
168,124,10278,2,0,P|132:112|96:112,2,70,2|0|2,0:0|0:0|0:0,0:0:0:0:
324,180,11105,2,0,P|360:168|396:168,2,70,2|0|2,0:0|0:0|0:0,0:0:0:0:
168,244,11933,2,0,P|132:232|96:232,2,70,2|0|2,0:0|0:0|0:0,0:0:0:0:
300,348,12760,6,0,P|336:360|372:360,2,70,2|0|2,0:0|0:0|0:0,0:0:0:0:
396,208,13588,2,0,P|432:196|468:196,2,70,2|0|2,0:0|0:0|0:0,0:0:0:0:
72,192,14829,2,0,P|80:288|176:360,1,210,2|0,2:0|1:0,0:0:0:0:
240,328,15686,6,0,P|328:280|436:280,1,210,4|0,0:0|0:0,0:0:0:0:
436,196,16543,2,0,P|344:147|240:147,1,210,0|0,1:0|0:0,0:0:0:0:
156,148,17400,2,0,P|40:204|128:364,1,350,0|0,1:0|0:0,0:0:0:0:
208,352,18686,1,2,0:0:0:0:
268,296,18900,1,0,0:0:0:0:
268,212,19114,6,0,P|268:108|340:32,1,210,0|0,1:0|0:0,0:0:0:0:
420,32,19971,2,0,P|489:107|488:210,1,210,0|0,1:0|0:0,0:0:0:0:
448,284,20828,2,0,P|284:344|128:280,1,350,0|0,1:0|0:0,0:0:0:0:
80,212,22114,1,2,0:0:0:0:
56,132,22328,1,0,0:0:0:0:
132,92,22543,6,0,P|76:48|12:56,2,140,0|2|0,1:0|0:0|1:0,0:0:0:0:
176,164,23614,1,0,0:0:0:0:
256,188,23828,1,2,0:0:0:0:
336,164,24043,1,0,0:0:0:0:
368,240,24257,2,0,P|417:180|406:120,2,140,0|2|0,1:0|0:0|1:0,0:0:0:0:
292,280,25328,1,0,0:0:0:0:
212,308,25543,1,2,0:0:0:0:
136,276,25757,1,0,0:0:0:0:
112,196,25971,6,0,P|128:92|212:36,1,210,0|0,1:0|0:0,0:0:0:0:
296,36,26828,2,0,P|379:94|393:195,1,210,0|0,1:0|0:0,0:0:0:0:
396,280,27686,2,0,P|340:324|268:320,1,140
192,300,28319,1,0,1:0:0:0:
116,260,28531,2,0,P|84:160|104:60,1,210,0|0,1:0|1:0,0:0:0:0:
184,24,29376,5,4,1:0:0:0:
348,52,29789,2,0,P|388:108|408:176,1,140,0|0,0:0|1:0,0:0:0:0:
324,320,30617,2,0,P|256:336|188:320,1,140,0|0,0:0|1:0,0:0:0:0:
104,175,31444,2,0,P|123:108|164:52,1,140,0|0,0:0|1:0,0:0:0:0:
332,36,32272,6,0,P|404:36|472:56,1,140,0|0,0:0|1:0,0:0:0:0:
472,224,33100,2,0,P|404:242|335:242,1,140,0|0,0:0|1:0,0:0:0:0:
176,244,33927,2,0,P|106:244|39:225,1,140,0|0,0:0|1:0,0:0:0:0:
40,56,34755,2,0,P|107:37|176:37,1,140,0|0,0:0|1:0,0:0:0:0:
332,104,35582,1,0,1:0:0:0:
488,40,35996,6,0,P|512:100|504:180,1,140,4|0,0:0|1:0,0:0:0:0:
476,340,36824,2,0,P|409:360|339:361,1,140,2|0,0:0|1:0,0:0:0:0:
172,361,37651,2,0,P|102:360|36:340,1,140,2|0,0:0|1:0,0:0:0:0:
5,173,38479,2,0,P|0:104|24:40,1,140,0|0,0:0|1:0,0:0:0:0:
256,192,39307,12,4,40962,0:0:0:0:
464,160,42154,6,0,L|488:92,2,70
460,252,42831,6,0,P|392:336|296:352,1,210,4|0,1:0|0:0,0:0:0:0:
212,352,43664,2,0,P|111:333|47:252,1,210,2|0,0:0|0:0,0:0:0:0:
28,172,44497,2,0,P|92:60|256:144,1,350,2|0,0:0|0:0,0:0:0:0:
212,216,45747,1,0,1:0:0:0:
279,274,45956,1,0,0:0:0:0:
332,340,46164,6,0,P|428:292|464:200,1,210,2|0,0:0|0:0,0:0:0:0:
411,136,46997,2,0,P|318:180|279:275,1,210,2|0,0:0|0:0,0:0:0:0:
216,332,47831,2,0,P|108:344|76:148,1,350,2|0,0:0|0:0,0:0:0:0:
148,104,49081,1,0,1:0:0:0:
232,100,49289,1,0,0:0:0:0:
316,108,49497,6,0,P|296:40|232:16,2,140,2|0|2,0:0|1:0|0:0,0:0:0:0:
400,128,50539,1,0,0:0:0:0:
456,192,50747,1,0,1:0:0:0:
400,256,50956,1,0,0:0:0:0:
316,248,51164,2,0,P|333:313|395:340,2,140,2|0|2,0:0|1:0|0:0,0:0:0:0:
280,172,52206,1,0,0:0:0:0:
204,140,52414,1,0,1:0:0:0:
124,168,52622,1,0,0:0:0:0:
72,236,52831,6,0,P|120:332|212:364,1,210,2|0,0:0|0:0,0:0:0:0:
296,364,53664,2,0,P|392:328|436:236,1,210,2|0,0:0|0:0,0:0:0:0:
432,152,54497,2,0,P|328:64|120:48,1,350,2|0,0:0|0:0,0:0:0:0:
48,88,55747,1,0,1:0:0:0:
12,164,55956,1,0,0:0:0:0:
16,248,56164,6,0,P|128:252|204:196,1,210,4|0,1:0|0:0,0:0:0:0:
232,116,56997,2,0,P|316:57|419:64,1,210,2|0,0:0|0:0,0:0:0:0:
476,124,57831,2,0,P|444:296|288:344,1,350,2|0,0:0|0:0,0:0:0:0:
216,308,59081,1,0,1:0:0:0:
144,264,59289,1,0,0:0:0:0:
72,224,59497,6,0,P|52:120|132:48,1,210,2|0,0:0|0:0,0:0:0:0:
184,104,60331,2,0,P|288:140|392:144,1,210,2|0,0:0|0:0,0:0:0:0:
468,116,61164,2,0,P|480:260|308:320,1,350,2|0,0:0|0:0,0:0:0:0:
324,236,62414,1,0,1:0:0:0:
304,156,62622,1,0,0:0:0:0:
252,88,62831,6,0,P|328:72|376:112,2,140,2|0|2,0:0|1:0|0:0,0:0:0:0:
208,160,63872,1,0,0:0:0:0:
128,188,64081,1,0,1:0:0:0:
116,272,64289,1,0,0:0:0:0:
132,352,64497,2,0,P|60:340|32:284,2,140,2|0|2,0:0|1:0|0:0,0:0:0:0:
200,304,65539,1,0,0:0:0:0:
284,304,65747,1,0,1:0:0:0:
356,256,65956,1,0,0:0:0:0:
392,180,66164,6,0,P|352:92|248:48,1,210,2|0,0:0|0:0,0:0:0:0:
168,48,66997,2,0,P|73:87|28:179,1,210,2|0,0:0|0:0,0:0:0:0:
40,264,67831,2,0,P|192:332|380:272,1,350,2|0,0:0|0:0,0:0:0:0:
388,204,69081,1,0,1:0:0:0:
392,120,69289,1,0,1:0:0:0:
360,44,69497,6,0,L|288:72,1,70,4|0,0:0|0:0,0:0:0:0:
212,68,69914,2,0,L|144:48,1,70,2|0,0:0|0:0,0:0:0:0:
60,36,70331,2,0,P|24:96|16:180,1,140,2|0,0:0|0:0,0:0:0:0:
84,316,71164,2,0,L|140:268,1,70,2|0,0:0|0:0,0:0:0:0:
220,272,71581,2,0,L|273:317,1,70,2|0,0:0|0:0,0:0:0:0:
356,316,71997,2,0,P|420:288|452:228,1,140,2|0,0:0|0:0,0:0:0:0:
364,88,72831,6,0,P|400:56|468:52,2,105,2|2|2,0:0|0:0|0:0,0:0:0:0:
280,88,73664,2,0,P|240:54|189:48,2,105,2|2|2,0:0|0:0|0:0,0:0:0:0:
328,160,74497,2,0,P|224:304|24:232,1,420,2|2,0:0|0:0,0:0:0:0:
52,64,76164,6,0,L|124:88,1,70,4|0,0:0|0:0,0:0:0:0:
172,148,76581,2,0,L|192:216,1,70,2|0,0:0|0:0,0:0:0:0:
232,288,76997,2,0,P|292:328|360:328,1,140,2|0,0:0|0:0,0:0:0:0:
440,180,77831,2,0,L|424:108,1,70,2|0,0:0|0:0,0:0:0:0:
360,60,78247,2,0,L|288:44,1,70,2|0,0:0|0:0,0:0:0:0:
208,44,78664,2,0,P|132:52|76:84,1,140,2|0,0:0|0:0,0:0:0:0:
112,248,79497,6,0,P|64:264|8:248,2,105,2|2|2,0:0|0:0|0:0,0:0:0:0:
196,236,80331,2,0,P|212:284|196:340,2,105,2|2|2,0:0|0:0|0:0,0:0:0:0:
240,164,81164,2,0,P|344:176|432:232,2,210,4|4|4,1:0|1:0|1:0,0:0:0:0:
188,100,82622,1,4,1:0:0:0:
44,308,83247,1,0,1:0:0:0:
120,344,83456,1,0,0:0:0:0:
204,356,83664,6,0,P|308:344|396:288,1,210,4|0,0:0|0:0,0:0:0:0:
408,204,84497,2,0,L|396:136,1,70,2|0,0:0|0:0,0:0:0:0:
336,76,84914,2,0,L|268:44,1,70,8|0,0:0|0:0,0:0:0:0:
188,44,85330,2,0,P|48:152|164:320,1,420,2|8,0:0|0:0,0:0:0:0:
256,180,86997,6,0,P|360:148|464:168,1,210,2|0,0:0|0:0,0:0:0:0:
484,244,87830,2,0,P|476:284|456:308,1,70,2|0,0:0|0:0,0:0:0:0:
384,348,88247,2,0,P|348:352|304:344,1,70,8|0,0:0|0:0,0:0:0:0:
232,336,88664,2,0,P|88:216|216:72,1,420,2|8,0:0|0:0,0:0:0:0:
280,224,90330,6,0,P|392:192|444:104,1,210,2|0,0:0|0:0,0:0:0:0:
384,52,91164,2,0,L|312:28,1,70,2|0,0:0|0:0,0:0:0:0:
244,72,91580,2,0,L|172:96,1,70,8|0,0:0|0:0,0:0:0:0:
108,144,91997,2,0,P|108:320|316:344,1,420,2|8,0:0|0:0,0:0:0:0:
412,208,93664,5,2,0:0:0:0:
376,132,93872,1,0,0:0:0:0:
312,76,94080,1,8,0:0:0:0:
240,32,94289,2,0,P|96:52|8:152,1,280,2|0,0:0|0:0,0:0:0:0:
8,232,95330,2,0,P|102:331|238:347,1,280,4|0,0:0|0:0,0:0:0:0:
380,256,96580,1,8,0:0:0:0:
404,176,96789,1,0,0:0:0:0:
424,96,96997,6,0,P|320:52|224:56,1,210,4|0,0:0|0:0,0:0:0:0:
140,60,97830,2,0,P|101:72|75:93,1,70,2|0,0:0|0:0,0:0:0:0:
60,172,98247,2,0,P|92:184|128:183,1,70,8|0,0:0|0:0,0:0:0:0:
212,184,98664,2,0,P|384:180|320:352,1,420,2|8,0:0|0:0,0:0:0:0:
152,376,100330,6,0,P|52:340|4:248,1,210,2|0,0:0|0:0,0:0:0:0:
4,168,101164,2,0,P|4:132|21:102,1,70,2|0,0:0|0:0,0:0:0:0:
104,96,101580,2,0,P|131:116|147:147,1,70,8|0,0:0|0:0,0:0:0:0:
180,224,101997,2,0,P|336:328|448:168,1,420,2|8,0:0|0:0,0:0:0:0:
332,48,103664,6,0,P|228:40|120:56,1,210,2|0,0:0|0:0,0:0:0:0:
68,120,104497,2,0,L|24:176,1,70,2|0,0:0|0:0,0:0:0:0:
84,232,104914,2,0,L|128:288,1,70,8|0,0:0|0:0,0:0:0:0:
184,348,105330,2,0,P|360:332|464:128,1,420,2|8,0:0|0:0,0:0:0:0:
332,28,106997,5,2,0:0:0:0:
308,108,107205,1,0,0:0:0:0:
224,116,107414,1,8,0:0:0:0:
152,76,107622,2,0,P|32:164|28:288,1,280,2|0,0:0|0:0,0:0:0:0:
99,325,108664,2,0,P|219:237|223:113,1,280,4|0,0:0|0:0,0:0:0:0:
380,48,109914,1,0,1:0:0:0:
484,180,110330,5,4,0:0:0:0:
436,252,110539,1,0,0:0:0:0:
360,288,110747,2,0,P|320:300|292:300,1,70,2|0,0:0|0:0,0:0:0:0:
208,300,111164,2,0,P|104:268|48:188,1,210,2|0,0:0|0:0,0:0:0:0:
40,104,111997,2,0,P|140:64|240:72,1,210,2|0,0:0|0:0,0:0:0:0:
208,148,112830,2,0,P|308:188|408:180,1,210,2|0,0:0|0:0,0:0:0:0:
488,148,113664,6,0,P|504:216|492:288,1,140,2|2,0:0|0:0,0:0:0:0:
336,348,114497,1,2,0:0:0:0:
268,296,114705,1,0,0:0:0:0:
188,328,114914,1,2,0:0:0:0:
96,192,115330,2,0,P|96:120|136:68,1,140,2|2,0:0|0:0,0:0:0:0:
304,68,116164,2,2,P|345:123|343:191,1,140
252,332,116997,6,0,P|112:328|72:204,1,280,2|2,0:0|0:0,0:0:0:0:
176,80,118247,1,2,0:0:0:0:
344,64,118664,2,0,P|412:88|468:140,1,140,2|2,0:0|0:0,0:0:0:0:
464,300,119497,2,0,P|411:345|345:368,1,140,2|2,0:0|0:0,0:0:0:0:
176,368,120330,6,0,P|110:345|57:299,1,140,2|2,0:0|0:0,0:0:0:0:
56,132,121164,2,0,P|108:86|174:63,1,140,2|2,0:0|0:0,0:0:0:0:
340,48,121997,2,0,P|460:180|328:340,1,420,2|2,0:0|0:0,0:0:0:0:
164,320,123664,5,4,0:0:0:0:
92,276,123872,1,0,0:0:0:0:
64,196,124080,2,0,P|64:156|76:128,1,70,2|0,0:0|0:0,0:0:0:0:
124,60,124497,2,0,P|232:60|328:100,1,210,2|0,0:0|0:0,0:0:0:0:
344,180,125330,2,0,P|328:284|248:356,1,210,2|0,0:0|0:0,0:0:0:0:
168,352,126164,2,0,P|93:280|78:178,1,210,2|0,0:0|0:0,0:0:0:0:
164,176,126997,6,0,P|240:168|300:148,1,140,2|2,0:0|0:0,0:0:0:0:
444,60,127830,1,2,0:0:0:0:
480,136,128039,1,0,0:0:0:0:
468,220,128247,1,2,0:0:0:0:
336,332,128664,2,0,P|268:348|192:328,1,140,2|2,0:0|0:0,0:0:0:0:
48,260,129497,2,0,P|32:192|48:124,1,140,2|2,0:0|0:0,0:0:0:0:
200,51,130330,6,0,P|344:56|464:124,1,280,2|2,0:0|0:0,0:0:0:0:
492,288,131580,1,2,0:0:0:0:
336,356,131997,2,0,P|264:360|192:352,1,140,2|2,0:0|0:0,0:0:0:0:
276,204,132830,2,0,P|206:199|136:207,1,140,2|2,0:0|0:0,0:0:0:0:
24,80,133664,6,0,P|96:64|164:64,1,140,2|2,0:0|0:0,0:0:0:0:
332,64,134497,2,0,P|401:64|469:80,1,140,2|2,0:0|0:0,0:0:0:0:
256,192,135330,12,4,136997,0:0:0:0:
