osu file format v3

[General]
AudioFilename: th08_18-月まで届け、不死の煙.mp3
AudioLeadIn: 0
AudioHash: failSystem.IO.FileNotFoundException: Could not find file 'C:\Documents and Settings\Kyle\Desktop\Osu\songs\Reach for the moon immortal smoke\th08_18-月まで届け、不死の煙.mp3'. File name: 'C:\Documents and Settings\Kyle\Desktop\Osu\songs\Reach for the moon immortal smoke\th08_18-月まで届け、不死の煙.mp3' at System.IO.__Error.WinIOError(Int32 errorCode, String maybeFullPath) at System.IO.FileStream.Init(String path, FileMode mode, FileAccess access, Int32 rights, Boolean useRights, FileShare share, Int32 bufferSize, FileOptions options, SECURITY_ATTRIBUTES secAttrs, String msgPath, Boolean bFromProxy) at System.IO.FileStream..ctor(String path, FileMode mode, FileAccess access, FileShare share) at osu.GameBase.GetMd5(String path)
PreviewTime: -1
SampleSet: Normal

[Metadata]
Title:Reach for the Moon, Immortal Smoke
Artist:ZUN
Creator:Wafflenator
Version:

[Difficulty]
HPDrainRate:7
CircleSize:6
OverallDifficulty:6
SliderMultiplier: 1.4
SliderTickRate: 0.5

[Events]
0,0,"mokou004-1.jpg"
3,0,163,162,255

[TimingPoints]
6750,60000

[HitObjects]
256,192,1445,5,0,
32,192,2936,1,0,
96,288,4461,5,0,
192,288,5202,1,0,
288,288,5985,1,0,
384,288,6768,1,0,
384,192,7518,1,0,
288,192,8302,1,0,
288,192,8468,1,0,
288,192,8652,1,0,
224,192,9035,1,0,
128,192,9768,1,0,
128,256,10567,1,0,
128,256,10734,1,0,
192,256,10926,1,0,
256,256,11092,1,0,
320,256,11284,1,0,
352,256,11509,1,0,
384,256,11709,1,0,
416,256,11884,1,0,
448,256,12050,1,0,
480,256,12234,1,0,
480,256,12425,1,0,
480,224,12625,1,0,
480,192,12817,1,0,
256,192,13212,12,0,25020
256,192,25504,5,0,
128,192,26987,1,0,
128,320,28537,1,0,
256,320,29328,1,0,
384,320,30078,1,0,
384,320,30278,1,0,
384,320,30470,1,0,
384,320,30653,1,0,
416,192,31611,1,0,
384,192,32361,1,0,
352,192,32569,1,0,
320,192,32760,1,0,
288,192,33152,1,0,
192,192,33902,1,0,
160,192,34676,5,0,
192,192,34851,1,0,
224,192,35101,1,0,
224,192,35293,1,0,
256,192,35509,1,0,
256,192,35676,1,0,
256,192,35843,1,0,
256,192,36043,1,0,
288,192,36218,1,0,
288,192,36426,1,0,
320,192,36609,1,0,
320,192,36817,1,0,
352,192,37017,1,0,
160,256,37766,1,0,
384,192,38547,1,0,
352,192,38714,1,0,
320,192,38905,1,0,
288,192,39264,1,0,
96,288,40180,1,0,
192,288,40372,1,0,
256,288,40771,1,0,
320,288,41505,1,0,
384,288,42263,1,0,
384,192,42641,5,0,
384,192,42832,1,0,
384,192,43015,1,0,
256,192,43774,1,0,
224,192,44515,1,0,
192,192,44682,1,0,
160,192,44873,1,0,
128,192,45256,1,0,
128,320,46031,1,0,
160,320,46778,1,0,
192,320,46954,1,0,
224,320,47127,1,0,
288,320,47518,1,0,
320,320,47710,1,0,
352,320,47885,1,0,
416,320,48260,1,0,
448,320,48468,1,0,
480,320,48643,1,0,
480,288,48788,1,0,
480,256,48988,1,0,
160,192,50190,5,0,
288,192,50881,1,0,
160,192,51598,1,0,
288,192,52314,1,0,
288,192,53056,5,0,
160,192,53805,1,0,
288,192,54522,1,0,
160,192,55238,1,0,
160,320,55980,1,0,
288,192,56722,1,0,
288,320,57438,1,0,
160,192,58129,1,0,
288,192,58961,5,0,
288,320,59661,1,0,
160,192,60352,1,0,
160,320,61127,1,0,
288,192,61843,1,0,
256,192,62249,12,0,73349
256,192,74829,1,0,
224,192,74987,1,0,
192,192,75188,1,0,
160,192,75387,1,0,
128,192,75570,1,0,
96,192,75746,1,0,
64,192,75928,1,0,
288,224,76299,5,0,
320,224,76499,1,0,
352,224,76666,1,0,
384,224,76857,1,0,
416,224,77032,1,0,
448,224,77223,1,0,
480,224,77398,1,0,
256,256,77755,5,0,
224,256,77928,1,0,
192,256,78120,1,0,
160,256,78286,1,0,
128,256,78461,1,0,
96,256,78653,1,0,
64,256,78819,1,0,
256,288,79222,5,0,
288,288,79401,1,0,
320,288,79572,1,0,
352,288,79747,1,0,
384,288,79943,1,0,
416,288,80114,1,0,
448,288,80293,1,0,
288,320,80502,5,0,
256,288,80677,1,0,
256,256,80860,1,0,
256,224,81040,1,0,
288,192,81227,1,0,
320,160,81423,1,0,
352,160,81606,1,0,
384,160,81772,1,0,
416,160,81960,1,0,
448,160,82143,1,0,
480,192,82322,1,0,
480,224,82497,1,0,
480,256,82672,1,0,
480,288,82860,1,0,
448,320,83055,1,0,
416,320,83243,1,0,
384,320,83426,1,0,
352,320,83610,1,0,
320,320,83782,5,0,
288,320,83965,1,0,
256,320,84174,1,0,
224,320,84356,1,0,
192,320,84548,1,0,
160,320,84723,1,0,
160,288,84931,1,0,
160,256,85089,1,0,
160,224,85264,1,0,
160,192,85439,1,0,
160,160,85631,1,0,
160,128,86508,5,0,
192,128,86683,1,0,
192,160,86868,1,0,
224,160,87075,1,0,
224,192,87250,1,0,
256,192,87458,1,0,
256,224,87633,1,0,
224,224,87999,1,0,
192,224,88191,1,0,
192,192,88383,1,0,
160,192,88549,1,0,
160,160,88724,1,0,
128,160,88908,1,0,
128,128,89083,1,0,
256,128,89477,5,0,
288,128,89660,1,0,
320,128,89822,1,0,
352,128,90014,1,0,
384,128,90197,1,0,
416,128,90372,1,0,
448,128,90551,1,0,
480,128,90710,1,0,
448,160,90936,1,0,
416,192,91127,1,0,
416,224,91303,1,0,
384,256,91477,1,0,
352,256,91669,1,0,
320,288,91852,1,0,
320,320,92044,1,0,
288,320,92227,5,0,
256,320,92418,1,0,
224,320,92585,1,0,
192,320,92769,1,0,
160,320,92952,1,0,
128,320,93135,1,0,
96,320,93310,1,0,
64,320,93493,1,0,
64,288,93676,1,0,
64,256,93851,1,0,
64,224,94035,1,0,
64,192,94218,1,0,
96,192,94393,1,0,
96,224,94593,1,0,
96,256,94776,1,0,
96,288,94951,1,0,
128,288,95118,1,0,
128,256,95301,1,0,
128,224,95484,1,0,
128,192,95684,1,0,
160,192,95849,5,0,
160,224,96041,1,0,
160,256,96224,1,0,
160,288,96399,1,0,
128,288,96624,1,0,
96,288,96799,1,0,
96,320,96938,1,0,
128,320,97146,1,0,
160,320,97329,1,0,
256,320,98073,5,0,
256,256,98806,1,0,
256,256,98981,1,0,
256,256,99164,1,0,
256,192,99522,1,0,
320,192,100447,1,0,
320,192,100605,1,0,
320,192,100814,1,0,
320,256,100997,1,0,
320,256,101364,1,0,
320,320,101713,1,0,
320,320,102072,1,0,
384,320,102480,1,0,
384,320,102646,1,0,
384,320,102806,1,0,
384,256,103180,1,0,
384,256,103346,1,0,
384,256,103530,1,0,
384,192,103888,1,0,
256,192,104654,1,0,
256,192,104821,1,0,
256,192,104971,1,0,
256,256,105438,5,0,
256,288,106105,1,0,
256,320,106855,1,0,
224,320,107023,1,0,
192,320,107188,1,0,
160,320,107379,1,0,
128,320,107563,1,0,
96,320,107729,1,0,
96,320,107929,1,0,
64,320,108121,1,0,
64,288,108304,1,0,
64,256,108487,1,0,
64,224,108671,1,0,
64,224,108845,1,0,
64,192,109047,1,0,
64,96,109748,5,0,
96,96,109923,1,0,
128,96,110106,1,0,
160,96,110281,1,0,
192,96,110465,1,0,
224,96,110682,1,0,
256,96,110848,1,0,
288,96,111031,1,0,
320,96,111231,1,0,
352,96,111406,1,0,
384,96,111606,1,0,
416,96,111764,1,0,
448,96,111964,1,0,
448,96,112131,1,0,
480,96,112322,1,0,
480,128,112690,5,0,
480,160,112890,1,0,
480,192,113057,1,0,
480,224,113256,1,0,
480,256,113440,1,0,
480,288,113615,1,0,
480,320,113783,1,0,
480,352,113948,1,0,
448,352,114148,1,0,
416,352,114348,1,0,
384,352,114539,1,0,
352,352,114725,1,0,
320,352,114889,1,0,
320,352,115056,1,0,
288,352,115272,1,0,
288,192,115616,5,0,
256,192,116357,1,0,
224,192,116542,1,0,
192,192,116724,1,0,
128,192,117074,1,0,
128,288,117807,1,0,
224,288,118548,1,0,
256,288,118740,1,0,
288,288,118923,1,0,
320,288,119106,1,0,
320,256,119306,1,0,
288,256,119481,1,0,
256,256,119665,1,0,
224,256,119817,1,0,
224,288,119989,1,0,
256,288,120172,1,0,
288,288,120356,1,0,
320,288,120531,1,0,
320,320,120714,1,0,
256,224,121959,5,0,
384,128,122984,1,0,
288,128,123700,1,0,
256,128,123885,1,0,
224,128,124075,1,0,
128,128,124458,1,0,
128,256,125417,5,0,
128,256,125608,1,0,
128,256,125958,1,0,
192,256,126377,1,0,
256,256,126699,1,0,
320,256,127116,1,0,
416,256,127483,1,0,
320,256,127865,1,0,
224,256,128273,1,0,
128,256,128648,1,0,
128,160,129073,1,0,
224,160,129756,1,0,
256,160,129940,1,0,
288,160,130115,1,0,
384,160,130525,1,0,
384,256,131298,1,0,
256,256,132016,5,0,
256,224,132242,1,0,
224,224,132416,1,0,
224,256,132616,1,0,
256,256,132824,1,0,
288,256,132999,1,0,
288,224,133208,1,0,
256,224,133391,1,0,
224,224,133557,1,0,
224,256,133749,1,0,
256,256,133932,1,0,
288,256,134108,1,0,
320,256,134300,1,0,
320,224,135099,1,0,
288,224,135873,1,0,
256,224,136050,1,0,
224,224,136242,1,0,
224,256,136607,1,0,
256,256,136980,5,0,
256,256,137355,1,0,
256,192,138130,1,0,
256,128,138503,1,0,
256,64,138878,1,0,
192,64,139245,1,0,
192,128,139645,1,0,
192,192,139995,1,0,
256,192,140362,1,0,
320,192,140795,1,0,
384,192,141178,1,0,
448,192,141946,5,0,
416,192,142130,1,0,
384,192,142305,1,0,
384,256,142688,1,0,
384,320,143438,1,0,
480,352,144187,1,0,
480,320,144397,1,0,
480,288,144589,1,0,
480,256,144754,1,0,
480,256,144954,1,0,
480,224,145129,1,0,
480,192,145337,1,0,
480,192,145513,1,0,
480,160,145737,1,0,
480,160,145912,1,0,
480,128,146095,1,0,
480,96,146295,1,0,
480,64,146503,1,0,
448,64,147445,5,0,
416,64,147637,1,0,
384,64,147803,1,0,
352,64,148003,1,0,
320,64,148187,1,0,
288,64,148362,1,0,
256,64,148528,1,0,
224,64,148703,1,0,
192,64,148886,1,0,
160,64,149070,1,0,
128,64,149261,1,0,
96,64,149445,1,0,
64,64,149619,1,0,
32,64,149795,1,0,
32,96,149991,5,0,
64,96,150174,1,0,
64,128,150357,1,0,
32,128,150557,1,0,
32,160,150774,1,0,
64,160,150924,1,0,
64,192,151100,1,0,
32,192,151274,1,0,
32,224,151473,1,0,
64,224,151640,1,0,
64,256,151810,1,0,
32,256,151998,1,0,
32,288,152173,1,0,
64,288,152357,1,0,
32,320,152515,1,0,
64,320,152730,1,0,
96,320,152926,1,0,
160,288,153337,5,0,
192,288,153845,1,0,
224,288,154020,1,0,
256,288,154204,1,0,
288,224,154570,1,0,
256,224,155295,1,0,
256,128,156028,1,0,
256,160,156195,1,0,
288,160,156361,1,0,
288,128,156603,1,0,
256,128,156769,1,0,
256,160,156936,1,0,
288,160,157111,1,0,
288,128,157320,1,0,
256,128,157494,1,0,
256,160,157661,1,0,
288,160,157861,1,0,
288,128,158053,1,0,
256,128,158244,1,0,
256,224,158948,5,0,
256,320,159705,1,0,
256,320,159863,1,0,
256,320,160046,1,0,
256,224,160413,1,0,
256,224,160596,1,0,
256,224,160788,1,0,
256,160,161163,1,0,
256,160,161321,1,0,
256,160,161538,1,0,
256,64,161855,1,0,
192,64,162246,1,0,
128,64,162604,1,0,
64,64,162962,1,0,
64,128,163320,1,0,
128,128,163695,1,0,
192,128,164071,1,0,
256,128,164420,1,0,
256,288,164835,5,0,
192,192,165522,1,0,
160,192,165722,1,0,
160,192,165931,1,0,
160,192,166264,1,0,
160,128,167005,1,0,
224,128,167714,1,0,
256,128,167905,1,0,
288,128,168072,1,0,
288,160,168255,1,0,
256,160,168455,1,0,
256,192,168638,1,0,
288,192,168847,1,0,
288,224,168996,1,0,
256,224,169191,1,0,
256,256,169400,1,0,
288,256,169574,1,0,
288,288,169733,1,0,
256,288,169941,1,0,
160,192,170682,5,0,
256,192,171416,1,0,
256,192,171607,1,0,
256,192,171807,1,0,
256,256,172182,1,0,
256,256,172340,1,0,
256,256,172540,1,0,
256,256,172707,1,0,
320,192,173673,1,0,
320,256,174054,1,0,
256,256,174395,1,0,
192,256,174820,1,0,
192,192,175203,1,0,
256,192,175578,1,0,
320,192,175961,1,0,
320,192,176361,1,0,
320,256,176737,5,0,
192,256,177495,1,0,
192,256,177655,1,0,
192,256,177862,1,0,
192,192,178237,1,0,
192,128,179020,1,0,
256,128,179724,1,0,
288,160,179932,1,0,
288,160,180099,1,0,
288,160,180324,1,0,
320,192,180524,1,0,
320,192,180715,1,0,
320,192,180924,1,0,
320,192,181098,1,0,
352,224,181315,1,0,
352,224,181465,1,0,
384,256,181657,1,0,
384,256,181824,1,0,
416,288,182048,1,0,
256,192,182779,5,0,
192,192,183142,1,0,
128,192,183496,1,0,
64,192,183854,1,0,
0,192,184233,1,0,
0,256,184579,1,0,
64,256,184950,1,0,
128,256,185325,1,0,
192,256,185683,1,0,
256,256,186049,1,0,
320,256,186421,1,0,
384,256,186787,1,0,
448,256,187162,1,0,
448,192,187529,1,0,
384,192,187891,1,0,
256,192,188251,5,0,
256,128,188626,1,0,
256,64,188989,1,0,
192,64,189347,1,0,
192,128,189713,1,0,
192,192,190092,1,0,
256,192,190455,1,0,
288,224,190821,1,0,
320,256,191184,1,0,
352,288,191538,1,0,
384,320,191913,1,0,
384,256,192283,1,0,
384,192,192679,1,0,
384,128,193029,1,0,
384,64,193483,1,0,
256,96,194497,5,0,
224,96,194714,1,0,
192,192,195447,1,0,
224,192,195638,1,0,
256,192,195830,1,0,
256,320,196213,1,0,
160,288,196586,1,0,
160,288,196786,1,0,
160,288,196986,1,0,
320,192,197746,1,0,
352,192,198146,1,0,
352,224,198521,1,0,
320,224,198914,1,0,
320,128,199271,1,0,
416,128,200062,1,0,
320,320,200854,5,0,
256,288,201591,1,0,
256,288,201758,1,0,
224,288,201974,1,0,
192,288,202367,1,0,
192,192,203157,1,0,
256,192,203901,1,0,
288,192,204101,1,0,
320,192,204284,1,0,
352,192,204451,1,0,
384,192,204685,1,0,
416,192,204876,1,0,
416,160,205059,1,0,
416,128,205259,1,0,
416,96,205435,1,0,
416,64,205627,1,0,
416,32,205809,1,0,
384,32,206009,1,0,
352,32,206200,1,0,
256,96,206981,5,0,
224,32,207769,1,0,
192,32,207946,1,0,
160,32,208111,1,0,
160,128,208502,1,0,
256,128,209252,1,0,
256,224,209994,1,0,
192,224,210360,1,0,
128,224,210720,1,0,
128,160,211103,1,0,
192,160,211485,1,0,
256,160,212226,1,0,
256,224,212976,1,0,
320,224,213751,1,0,
352,224,213917,1,0,
384,224,214109,1,0,
384,128,214492,1,0,
320,128,215234,1,0,
256,192,216008,5,0,
256,224,216203,1,0,
256,256,216362,1,0,
256,288,216539,1,0,
256,320,216720,1,0,
288,320,216903,1,0,
288,320,217095,1,0,
320,320,217295,1,0,
352,320,217495,1,0,
352,320,217661,1,0,
384,320,217869,1,0,
384,320,218044,1,0,
416,320,218244,1,0,
416,256,218973,5,0,
416,224,219153,1,0,
416,192,219340,1,0,
416,160,219523,1,0,
416,128,219715,1,0,
416,96,219885,1,0,
416,64,220077,1,0,
416,32,220269,1,0,
384,32,220443,1,0,
384,64,220618,1,0,
384,96,220810,1,0,
384,128,220985,1,0,
416,128,221152,1,0,
416,96,221352,1,0,
448,96,221535,1,0,
448,128,221727,1,0,
448,160,221908,5,0,
416,160,222087,1,0,
384,160,222262,1,0,
352,160,222466,1,0,
320,160,222637,1,0,
320,128,222828,1,0,
320,96,223003,1,0,
288,64,223187,1,0,
256,32,223370,1,0,
224,32,223541,1,0,
192,32,223732,1,0,
160,32,223920,1,0,
128,32,224099,1,0,
96,32,224291,1,0,
64,32,224486,1,0,
64,64,224650,5,0,
96,64,224829,1,0,
128,64,225024,1,0,
128,96,225199,1,0,
96,96,225383,1,0,
64,96,225562,1,0,
96,128,225741,1,0,
128,160,225928,1,0,
160,192,226107,1,0,
192,224,226295,1,0,
224,224,226491,1,0,
256,224,226661,1,0,
288,192,226845,1,0,
320,160,227024,1,0,
352,128,227202,5,0,
320,128,227385,1,0,
288,128,227577,1,0,
288,160,227752,1,0,
320,160,227943,1,0,
320,192,228122,1,0,
320,224,228297,1,0,
320,256,228476,1,0,
288,288,228676,1,0,
256,320,228855,1,0,
224,352,229064,1,0,
192,352,229230,1,0,
160,352,229405,1,0,
128,320,229584,1,0,
96,288,229759,1,0,
64,256,229943,1,0,
64,224,230135,5,0,
96,224,230315,1,0,
96,192,230498,1,0,
128,160,230685,1,0,
160,128,230873,1,0,
192,96,231052,1,0,
224,64,231252,1,0,
256,64,231422,1,0,
288,64,231631,1,0,
320,64,231789,1,0,
352,64,231985,1,0,
384,64,232151,1,0,
416,96,232331,1,0,
448,128,232510,1,0,
480,160,232685,1,0,
480,192,232894,1,0,
480,224,233064,1,0,
480,256,233243,1,0,
448,288,233451,1,0,
416,320,233640,1,0,
384,320,233816,5,0,
352,320,233991,1,0,
320,320,234166,1,0,
288,320,234353,1,0,
256,320,234532,1,0,
224,320,234707,1,0,
192,320,234865,1,0,
160,320,235085,1,0,
128,320,235276,1,0,
96,320,235455,1,0,
64,320,235618,1,0,
64,288,235797,1,0,
64,256,236001,1,0,
64,224,236167,1,0,
64,192,236359,1,0,
256,192,236575,12,0,242542
256,192,244021,5,0,
224,192,244196,1,0,
192,192,244389,1,0,
160,192,244571,1,0,
128,192,244762,1,0,
96,192,244946,1,0,
64,192,245130,1,0,
64,224,245320,1,0,
96,224,245520,1,0,
128,224,245695,1,0,
160,224,245879,1,0,
192,224,246062,1,0,
224,224,246237,1,0,
256,224,246429,1,0,
288,224,246620,1,0,
288,160,246992,5,0,
320,160,247159,1,0,
352,160,247325,1,0,
384,160,247525,1,0,
416,160,247700,1,0,
448,160,247875,1,0,
480,160,248058,1,0,
480,192,248225,1,0,
448,192,248417,1,0,
416,192,248608,1,0,
384,192,248800,1,0,
352,192,248983,1,0,
320,192,249183,1,0,
288,192,249368,1,0,
256,192,249542,1,0,
256,224,249757,5,0,
256,256,249932,1,0,
256,288,250090,1,0,
256,320,250265,1,0,
256,352,250448,1,0,
224,352,250623,1,0,
224,320,250815,1,0,
224,288,250990,1,0,
224,256,251181,1,0,
224,224,251356,1,0,
224,192,251548,1,0,
224,160,251706,1,0,
224,128,251898,1,0,
224,96,252081,1,0,
224,64,252273,1,0,
224,32,252448,1,0,
256,32,252622,5,0,
288,64,252805,1,0,
320,96,252997,1,0,
352,128,253188,1,0,
384,160,253373,5,0,
416,192,253565,1,0,
448,224,253748,1,0,
480,256,253927,1,0,
448,288,254131,1,0,
416,320,254294,1,0,
384,352,254481,1,0,
352,320,254652,1,0,
320,288,254823,1,0,
288,256,255014,1,0,
256,224,255185,1,0,
224,192,255393,1,0,
256,160,255565,5,0,
288,128,255753,1,0,
320,96,255924,1,0,
352,96,256115,1,0,
352,128,256307,1,0,
352,160,256490,1,0,
352,192,256678,1,0,
352,224,256852,1,0,
352,256,257024,1,0,
352,288,257207,1,0,
352,320,257386,1,0,
320,320,257577,1,0,
288,320,257756,1,0,
256,288,257940,1,0,
224,256,258140,1,0,
192,224,258310,1,0,
256,192,258496,12,0,267278
256,192,267973,5,0,
224,192,268173,1,0,
192,192,268373,1,0,
192,96,268756,1,0,
288,96,269481,1,0,
352,160,270197,1,0,
256,160,270930,1,0,
160,160,271605,1,0,
160,256,272397,1,0,
256,256,273114,1,0,
352,256,273830,1,0,
352,192,274538,1,0,
256,192,275329,1,0,
256,288,276040,5,0,
256,256,276214,1,0,
256,224,276406,1,0,
256,160,276756,1,0,
256,128,276956,1,0,
256,96,277155,1,0,
192,64,277505,1,0,
160,64,277672,1,0,
128,64,277881,1,0,
96,64,278055,1,0,
64,64,278247,1,0,
256,192,278976,5,0,
128,192,279717,1,0,
128,192,279900,1,0,
128,192,280093,1,0,
128,192,280450,1,0,
256,192,281175,1,0,
256,288,281891,1,0,
128,288,282641,1,0,
192,224,283391,1,0,
192,352,284099,1,0,
256,288,284849,1,0,
352,288,285582,1,0,
352,288,285757,1,0,
352,288,285957,1,0,
352,192,286357,1,0,
256,192,287050,5,0,
160,192,287767,1,0,
160,192,287950,1,0,
160,192,288108,1,0,
160,192,288300,1,0,
160,192,288483,1,0,
160,192,288658,1,0,
160,192,288825,1,0,
160,192,289043,1,0,
160,192,289208,1,0,
160,192,289408,1,0,
160,192,289584,1,0,
160,192,289766,1,0,
160,128,289968,1,0,
256,192,290178,12,0,303707
480,352,304312,5,0,
416,352,304645,1,0,
352,352,305070,1,0,
288,352,305429,1,0,
224,352,305813,1,0,
160,352,306189,1,0,
96,352,306586,1,0,
96,192,307371,1,0,
96,192,307736,1,0,
96,192,308069,1,0,
96,192,308486,1,0,
32,192,308844,1,0,
32,96,309652,1,0,
32,32,310389,5,0,
64,32,310730,1,0,
96,32,311122,1,0,
128,32,311505,1,0,
160,32,311863,1,0,
192,32,312230,1,0,
224,32,312622,1,0,
256,32,313030,1,0,
288,32,313421,1,0,
320,32,313779,1,0,
352,32,314163,1,0,
384,32,314546,1,0,
416,32,314912,1,0,
448,32,315321,1,0,
480,32,315679,1,0,
480,64,316459,5,0,
480,96,316647,1,0,
480,128,316842,1,0,
480,160,317030,1,0,
480,192,317201,1,0,
480,224,317380,1,0,
480,256,317563,1,0,
480,288,317742,1,0,
480,320,317904,1,0,
448,320,318109,1,0,
416,320,318292,1,0,
384,320,318463,1,0,
352,320,318650,1,0,
320,320,318838,1,0,
288,320,319025,1,0,
256,320,319188,1,0,
224,320,319391,5,0,
192,320,319582,1,0,
160,320,319765,1,0,
128,320,319932,1,0,
96,320,320120,1,0,
64,320,320299,1,0,
32,320,320474,1,0,
32,288,320657,1,0,
32,256,320832,1,0,
32,224,321032,1,0,
32,192,321198,1,0,
32,160,321386,1,0,
32,128,321566,1,0,
32,96,321752,1,0,
32,64,321927,1,0,
32,32,322123,1,0,
64,64,322312,5,0,
96,96,322503,1,0,
128,128,322674,1,0,
160,160,322878,1,0,
192,192,323049,1,0,
224,224,323237,1,0,
256,256,323407,1,0,
288,288,323591,1,0,
320,320,323766,1,0,
352,352,323949,1,0,
384,352,324144,1,0,
416,352,324319,1,0,
448,352,324507,1,0,
480,352,324695,1,0,
480,320,324861,1,0,
480,288,325057,1,0,
480,256,325236,1,0,
480,224,325406,5,0,
480,192,325585,1,0,
480,160,325773,1,0,
480,128,325952,1,0,
480,96,326143,1,0,
480,64,326327,1,0,
480,32,326502,1,0,
448,64,326689,1,0,
416,96,326869,1,0,
384,128,327043,1,0,
352,160,327215,1,0,
320,192,327418,1,0,
288,224,327614,1,0,
256,256,327802,1,0,
224,288,327989,1,0,
192,320,328172,1,0,
160,320,328338,5,0,
128,288,328521,1,0,
96,256,328704,1,0,
64,224,328900,1,0,
32,192,329075,1,0,
64,160,329237,1,0,
96,128,329417,1,0,
128,96,329612,1,0,
160,64,329795,1,0,
192,96,329975,1,0,
224,128,330145,1,0,
256,160,330345,1,0,
288,192,330524,1,0,
256,224,330720,1,0,
224,256,330920,1,0,
192,288,331091,1,0,
160,320,331278,1,0,
256,320,331448,5,0,
352,320,331831,1,0,
352,256,332198,1,0,
352,192,332560,1,0,
352,128,332927,1,0,
352,128,333102,1,0,
352,128,333289,1,0,
352,128,333473,1,0,
352,128,333660,1,0,
352,128,333848,1,0,
288,128,334022,5,0,
256,128,334197,1,0,
224,160,334380,1,0,
192,192,334556,1,0,
192,224,334756,1,0,
192,256,334956,1,0,
192,288,335122,1,0,
224,288,335289,1,0,
256,288,335493,1,0,
288,288,335676,1,0,
320,288,335843,1,0,
352,256,336022,1,0,
384,224,336193,1,0,
416,192,336397,1,0,
384,160,336572,1,0,
352,128,336759,1,0,
320,96,336938,1,0,
288,96,337113,1,0,
256,96,337313,1,0,
224,96,337480,1,0,
192,128,337670,5,0,
160,160,337858,1,0,
128,192,338024,1,0,
96,224,338216,1,0,
64,256,338412,1,0,
96,256,338583,1,0,
128,256,338762,1,0,
160,256,338949,1,0,
192,256,339133,1,0,
224,256,339328,1,0,
256,256,339512,1,0,
288,256,339687,1,4,
