osu file format v5

[General]
AudioFilename: th07_04.mp3
AudioLeadIn: 0
PreviewTime: -1
Countdown: 0
SampleSet: Soft
StackLeniency: 0.7
Mode: 0
LetterboxInBreaks: 1
EditorBookmarks: 22124,54572,83402,97019,109679,122977

[Metadata]
Title:Rakonto de Sonorado Pejzago
Artist:ZUN
Creator:EVA-X
Version:Hard
Source:Perfect Cherry Blossom
Tags:

[Difficulty]
HPDrainRate:6
CircleSize:5
OverallDifficulty:7
SliderMultiplier:1.6
SliderTickRate:2

[Events]
//Background and Video events
0,0,"1168843392965.jpg"
//Break Periods
2,96847,109736
//Storyboard Layer 0 (Background)
//Storyboard Layer 1 (Failing)
//Storyboard Layer 2 (Passing)
//Storyboard Layer 3 (Foreground)
//Storyboard Sound Samples
//Background Colour Transformations
3,100,163,162,255

[TimingPoints]
1699,851.063829787234,4,2,0,100,1
22126,425.531914893617,4,2,0,100,1
131062,851.063829787234,4,2,0,100,1
131594,425.531914893617,4,2,0,100,1
132764,851.063829787234,4,2,0,100,1
133399,425.531914893617,4,2,0,100,1
136162,212.765957446809,4,2,0,100,1

[Colours]
Combo1 : 64,128,128
Combo2 : 255,0,0
Combo3 : 255,255,0
Combo4 : 183,216,253

[HitObjects]
80,80,1699,1,0
80,160,1911,1,0
160,160,2124,1,0
160,80,2337,1,0
240,80,2550,1,0
240,160,2762,1,0
320,160,2975,1,0
320,80,3188,1,0
400,80,3401,6,0,B|400:208,1,120
400,288,4252,1,0
400,288,4677,1,0
256,272,5103,5,0
304,208,5316,1,0
224,208,5528,1,0
272,144,5741,1,0
192,144,5954,1,0
240,208,6167,1,0
192,272,6379,1,0
272,272,6592,1,0
240,192,6805,6,0,B|240:64,1,120
144,96,7656,1,0
112,288,8081,1,0
320,288,8507,6,0,B|448:288,1,120
432,192,9358,1,0
352,192,9571,1,0
272,192,9784,2,0,B|208:120,1,80
136,160,10422,1,0
184,224,10635,1,0
152,296,10847,1,0
232,320,11060,5,2
256,312,11167,1,2
280,296,11273,1,2
304,280,11379,1,2
320,256,11486,1,2
328,232,11592,1,2
336,208,11699,1,2
256,176,11911,5,0
176,176,12124,1,0
176,96,12337,1,0
176,176,12550,1,0
96,176,12762,1,0
176,176,12975,1,0
176,256,13188,1,0
176,176,13401,1,0
256,176,13613,2,0,B|384:176,1,120
368,272,14464,1,0
144,288,14890,5,2
168,256,14996,1,2
200,288,15103,1,2
216,256,15209,1,2
256,272,15316,2,2,B|384:272,1,120
368,160,16167,1,2
160,128,16592,5,2
192,152,16699,1,2
160,184,16805,1,2
192,208,16911,1,2
176,240,17018,2,2,B|304:240,1,120
384,192,17869,1,2
176,192,18294,6,0,B|64:192,1,80,0|0
240,192,19039,1,0
384,192,19358,1,0
304,192,19571,1,0
160,192,19879,1,0
248,192,20137,1,0
256,192,20422,12,0,21699
304,128,22126,5,0
304,128,22232,1,0
304,128,22338,1,0
192,128,22551,1,0
192,128,22657,1,0
192,128,22764,1,0
192,128,22870,2,0,B|192:256,1,120
304,240,23402,2,0,B|352:240,3,40
352,240,23828,6,0,B|352:144,1,80,0|0
352,32,24253,2,0,B|352:128,1,80
480,144,24679,2,0,B|384:144,1,80
304,160,25104,1,0
304,160,25210,1,0
304,160,25316,1,0
304,48,25530,5,0
304,48,25636,1,0
304,48,25743,1,0
192,48,25955,1,0
192,48,26062,1,0
192,48,26168,1,0
192,160,26381,2,0,B|144:160,2,40
192,160,26700,2,0,B|192:224,2,40
192,160,27019,1,0
288,112,27232,2,0,B|336:112,2,40
288,112,27551,2,0,B|288:48,2,40
288,112,27870,1,0
192,128,28083,5,0
192,224,28296,1,0
192,128,28508,5,0
216,128,28615,1,0
240,128,28721,1,0
192,128,28934,6,0,B|258:212|330:162|368:112,1,200
360,120,29572,5,0
352,80,29785,2,0,B|315:7|224:10|192:80,1,200
192,80,30423,5,0
192,128,30636,2,0,B|96:64,1,80
336,128,31062,2,0,B|416:64,1,80
336,272,31487,2,0,B|416:336,1,80
192,272,31913,2,0,B|96:336,1,80
192,128,32338,2,0,B|128:64,1,80
288,64,32764,5,0
192,128,32977,1,0
288,192,33189,1,0
192,256,33402,1,0
288,192,33615,1,0
192,128,33828,1,0
256,192,34040,12,0,35743
176,224,36381,5,0
176,112,36594,1,0
64,112,36806,2,0,B|64:208,1,80
176,224,37232,1,0
160,80,37445,2,0,B|272:80,1,80
400,64,37870,2,0,B|451:95|416:160,1,80
384,288,38296,2,0,B|353:339|288:304,1,80
128,288,38721,2,0,B|76:269|96:192,1,80
144,64,39147,2,0,B|175:13|240:48,1,80
304,112,39572,5,0
352,208,39785,1,0
352,208,39998,1,0
240,208,40211,1,0
192,112,40423,1,0
192,112,40636,2,0,B|112:176,1,80
240,208,41062,2,0,B|320:144,1,80
304,272,41487,5,2
304,272,41594,1,2
192,272,41806,1,2
192,272,41913,1,2
192,272,42019,1,2
192,272,42126,2,2,B|73:307|80:160,2,160
192,160,43189,5,0
304,160,43402,1,0
208,224,43615,2,0,B|320:224,1,80
384,176,44040,1,0
384,288,44253,2,0,B|304:288,1,80
80,256,44679,2,0,B|192:256,1,80
384,224,45104,2,0,B|304:224,1,80
80,192,45530,2,0,B|160:192,1,80
384,160,45955,2,0,B|288:160,1,80,0|0
208,96,46381,5,0
272,192,46594,1,0
160,192,46806,1,0
208,96,47019,1,0
96,96,47232,1,0
160,192,47445,1,0
256,192,47657,12,0,49360
352,80,49998,5,0
432,160,50211,1,0
352,240,50423,2,0,B|448:240,1,80
352,160,50849,1,0
272,240,51062,1,0
128,160,51487,5,0
152,160,51594,1,0
176,160,51700,1,0
288,160,51913,5,0
264,160,52019,1,0
240,160,52126,1,0
208,80,52338,5,0
208,104,52445,1,0
208,128,52551,1,0
208,240,52764,5,0
208,216,52870,1,0
208,192,52977,1,0
304,240,53189,5,0
384,160,53402,1,0
304,240,53615,1,0
224,160,53828,1,0
304,80,54040,1,0
224,160,54253,1,0
160,304,54891,6,2,B|256:304,1,80
128,256,55317,1,2
128,256,55423,1,2
128,256,55530,1,2
16,208,55743,2,2,B|112:208,1,80
208,208,56168,2,0,B|216:97|283:216|304:96,1,160
416,112,56806,5,0
416,112,57019,1,0
416,224,57232,1,2
416,224,57338,1,2
416,224,57445,1,2
304,224,57657,1,0
304,224,57870,1,0
192,224,58083,1,0
192,224,58296,1,0
192,112,58508,6,2,B|192:64,2,40
304,112,58934,1,0
304,112,59147,1,0
304,224,59360,1,0
304,224,59572,1,0
224,304,59785,1,2
224,304,59891,1,2
224,304,59998,1,2
144,224,60211,2,0,B|89:194|128:128,1,80
224,160,60636,1,0
288,64,60849,2,0,B|352:96|336:144,1,80
336,240,61274,5,0
224,240,61487,1,0
224,128,61700,1,0
112,128,61913,1,0
112,240,62126,2,0,B|240:240,1,120
240,192,62551,2,0,B|104:192,1,120,0|0
112,192,62977,5,0
112,96,63189,1,2
112,96,63295,1,2
112,96,63401,1,2
224,96,63615,1,0
224,96,63828,2,0,B|320:96,2,80
224,208,64466,1,0
224,208,64679,1,0
336,208,64891,1,2
336,208,64998,1,2
336,208,65104,1,2
224,208,65317,6,0,B|224:304,1,80
160,192,65743,2,0,B|160:96,1,80
160,240,66168,1,0
224,144,66381,2,0,B|320:144,2,80
320,80,67019,5,0
400,144,67232,1,0
320,208,67445,1,0
224,144,67657,1,0
128,80,67870,1,0
48,144,68083,2,0,B|48:212|112:208,1,80
192,208,68508,2,0,B|192:144|144:144,1,80
64,80,68934,1,2
88,104,69040,1,2
112,80,69147,1,2
136,104,69253,1,2
160,80,69360,2,0,B|336:80,2,160
160,192,70423,5,0
48,192,70636,1,0
120,280,70849,1,2
120,280,70955,1,2
120,280,71062,1,2
232,280,71274,2,0,B|276:242|224:184,1,80
160,128,71700,2,0,B|127:162|171:200,1,80
256,128,72126,2,2,B|304:128,2,40
368,128,72551,5,0
440,208,72764,1,0
368,296,72977,1,0
440,208,73189,1,0
328,208,73402,1,2
328,208,73508,1,2
328,208,73615,1,2
216,200,73828,2,0,B|188:138|120:176,1,80
152,272,74253,1,0
264,272,74466,2,0,B|326:290|352:216,1,80
440,208,74891,5,0
328,176,75104,2,0,B|329:120|416:120,1,80
264,136,75530,1,0
264,136,75743,1,2
264,136,75849,1,2
264,136,75955,1,2
264,136,76168,2,0,B|264:232|160:224,1,120
200,224,76594,5,0
88,224,76806,1,2
88,224,76913,1,2
88,224,77019,1,2
40,120,77232,1,0
136,72,77445,2,0,B|176:40|232:80,2,80
192,168,78083,2,0,B|229:192|272:168,1,80
168,120,78508,1,2
168,120,78615,1,2
168,120,78721,1,2
272,96,78934,6,0,B|324:92|344:160,1,80
232,176,79360,2,0,B|176:197|216:256,1,80
312,248,79785,1,0
408,192,79998,2,0,B|468:185|464:112,2,80
312,248,80636,5,0
200,248,80849,1,0
200,136,81062,1,0
200,248,81274,1,0
200,136,81487,1,0
312,136,81700,2,0,B|354:181|354:181|296:240,1,120
312,224,82126,2,0,B|224:128,1,120,0|0
232,136,82551,2,0,B|188:182|188:182|248:240,1,120
232,224,82977,2,0,B|320:128,1,120,0|0
256,192,83402,12,0,84040
256,192,84253,5,0
304,88,84466,1,2
328,96,84572,1,2
344,112,84679,2,2,B|374:165|304:192,1,80
232,120,85104,1,0
128,176,85317,1,0
184,272,85530,1,0
288,224,85743,2,2,B|320:264,2,40
376,152,86168,1,0
280,80,86381,1,0
192,152,86594,1,0
96,216,86806,5,0
208,216,87019,1,2
232,216,87125,1,2
256,216,87231,1,2
168,144,87445,2,0,B|156:79|232:72,1,80
304,104,87870,1,0
400,168,88083,1,0
296,216,88296,1,0
208,136,88508,6,0,B|206:82|112:88,1,80
88,184,88934,1,0
208,224,89147,2,0,B|200:278|120:272,1,80
88,184,89572,1,0
200,184,89785,2,0,B|312:184,1,80
360,264,90211,6,2,B|344:308|280:328,1,80
304,320,90530,1,2
304,320,90636,2,2,B|250:344|208:304,1,80
232,200,91062,2,0,B|288:200,2,40
232,144,91381,2,0,B|160:144,2,40
232,200,91700,6,0,B|232:304,1,80
112,272,92126,1,2
96,248,92232,1,2
88,224,92338,1,2
64,112,92551,6,0,B|72:160,1,40
128,152,92764,2,0,B|120:96,1,40
176,112,92977,2,0,B|184:160,1,40
240,152,93190,2,0,B|232:96,1,40
288,112,93402,2,0,B|296:160,1,40
256,192,93615,12,0,94253
256,144,94466,5,0
368,144,94679,1,0
368,256,94891,1,0
368,144,95104,1,0
256,144,95317,2,0,B|256:280,1,120
312,264,95743,2,0,B|168:264,1,120
192,208,96168,2,0,B|192:168,7,20
192,208,96647,5,0
80,296,110636,5,8
144,200,110849,1,0
72,112,111062,2,0,B|91:64|152:72,1,80
232,120,111487,1,8
304,208,111700,1,0
224,288,111913,2,0,B|169:290|152:224,1,80
152,136,112338,5,8
232,56,112551,1,0
344,64,112764,2,0,B|407:62|408:144,1,80
448,208,113189,1,8
368,288,113402,1,2
344,280,113508,1,2
320,272,113615,2,2,B|272:240|296:192,1,80
376,128,114040,5,8
432,224,114253,1,0
360,312,114466,2,0,B|327:354|264:296,1,80
232,216,114891,1,8
344,216,115104,1,0
336,104,115317,2,0,B|289:63|240:120,1,80
168,160,115743,5,8
272,208,115955,1,0
168,248,116168,2,0,B|176:307|240:296,1,80
328,296,116594,1,8
352,192,116806,1,2
360,168,116913,1,2
352,144,117019,2,2,B|348:96|272:96,1,80
184,72,117445,5,8
72,96,117657,1,0
184,72,117870,1,0
296,96,118083,1,0
184,72,118296,2,8,B|184:176,1,80
80,192,118721,5,0
184,232,118934,1,0
288,200,119147,1,8
184,232,119360,1,8
80,272,119572,1,0
184,232,119785,1,0
288,272,119998,2,8,B|360:320,3,80
360,208,120849,5,0
256,168,121062,1,0
288,272,121274,1,8
176,248,121487,1,8
256,192,121700,12,0,122977
136,152,123402,5,0
144,128,123508,1,0
160,104,123615,1,0
184,88,123721,1,0
208,80,123828,5,0
232,80,123934,1,0
256,80,124040,1,0
280,88,124147,1,0
304,104,124253,5,0
240,176,124466,5,0
240,176,124572,1,0
240,176,124679,1,0
168,240,124891,5,0
184,256,124998,1,0
208,272,125104,1,0
232,280,125211,1,0
256,280,125317,5,0
280,272,125423,1,0
304,256,125530,2,0,B|336:288,2,40,0|0|0
320,232,125849,5,0
160,80,126274,5,0
184,80,126381,1,0
208,88,126487,1,0
232,104,126594,1,0
240,128,126700,5,0
232,152,126806,1,0
208,160,126913,1,0
184,168,127019,1,0
168,184,127126,5,0
168,208,127232,1,0
184,224,127338,1,0
208,232,127445,1,0
320,232,127657,5,0
320,232,127764,1,0
320,232,127870,1,0
320,232,128083,5,0
320,120,128296,1,0
320,232,128508,1,0
160,72,128934,5,0
136,80,129040,1,0
112,96,129147,1,0
104,120,129253,1,0
104,144,129360,5,0
248,248,129679,5,0
360,104,129998,5,0
256,104,130211,5,0
232,120,130317,1,0
224,144,130423,1,0
240,168,130530,1,0
264,176,130636,5,0
288,168,130743,1,0
304,152,130849,1,0
296,120,130955,1,0
280,104,131062,6,0,B|400:104,1,100
432,104,131700,5,2
136,264,132338,1,0
184,88,132764,6,0,B|64:88,1,100
32,88,133402,5,2
360,160,134037,1,0
152,248,134460,6,0,B|232:176,1,80
256,152,134785,1,2
424,160,135104,1,0
352,64,135311,6,0,B|288:128,1,80
256,152,135607,1,2
88,160,135914,1,0
200,72,136162,6,2,B|108:133|195:225,1,160,0|0
40,256,136587,6,2,B|150:284|192:183,1,160,0|0
304,296,137013,6,2,B|264:207|143:205,1,160,0|0
