osu file format v13

[General]
AudioFilename: 12-Cemetery of Onbashira - Grave of Being.mp3
AudioLeadIn: 0
PreviewTime: 34133
Countdown: 0
SampleSet: Normal
StackLeniency: 0.7
Mode: 1
LetterboxInBreaks: 0
SkinPreference:Default
WidescreenStoryboard: 0

[Editor]
DistanceSpacing: 1
BeatDivisor: 4
GridSize: 16
TimelineZoom: 1.5

[Metadata]
Title:Onbashira no Hakaba ~ Grave of Being
TitleUnicode:御柱の墓場 ~ Grave of Being
Artist:ZUN
ArtistUnicode:ZUN
Creator:Totoro le Pacha
Version:Muzukashii
Source:Touhou
Tags:th10 mof kanako yasaka stage 6 theme kenterz th 10 Mountain of Faith 東方風神録 Fuujinroku 東方プロジェクト team shanghai alice 上海アリス幻樂団 cemetery gengakudan
BeatmapID:308171
BeatmapSetID:120094

[Difficulty]
HPDrainRate:5
CircleSize:3
OverallDifficulty:5
ApproachRate:2
SliderMultiplier:1.4
SliderTickRate:1

[Events]
//Background and Video events
0,0,"Yasaka.Kanako.full.1007803.jpg",0,40
//Break Periods
//Storyboard Layer 0 (Background)
//Storyboard Layer 1 (Fail)
//Storyboard Layer 2 (Pass)
//Storyboard Layer 3 (Foreground)
//Storyboard Sound Samples
//Background Colour Transformations
3,100,163,162,255

[TimingPoints]
1030,344.827586206897,4,1,0,70,1,0
34133,-100,4,1,0,70,0,1
56202,-100,4,1,0,70,0,0
89305,-100,4,1,0,70,0,1
111374,-100,4,1,0,70,0,0

[HitObjects]
256,192,1030,5,4,0:0:0:0:
256,192,1374,1,8,0:0:0:0:
256,192,1892,1,8,0:0:0:0:
256,192,2754,1,0,0:0:0:0:
256,192,3271,1,0,0:0:0:0:
256,192,4133,1,8,0:0:0:0:
256,192,4650,1,8,0:0:0:0:
256,192,4995,1,0,0:0:0:0:
256,192,5081,1,0,0:0:0:0:
256,192,5167,1,0,0:0:0:0:
256,192,5340,1,0,0:0:0:0:
256,192,5512,1,0,0:0:0:0:
256,192,5685,1,8,0:0:0:0:
256,192,6030,1,4,0:0:0:0:
256,192,6374,1,12,0:0:0:0:
256,192,6892,1,8,0:0:0:0:
256,192,7409,1,8,0:0:0:0:
256,192,7926,1,0,0:0:0:0:
256,192,8271,1,0,0:0:0:0:
256,192,8443,1,8,0:0:0:0:
256,192,8961,1,8,0:0:0:0:
256,192,9305,1,0,0:0:0:0:
256,192,9650,1,8,0:0:0:0:
256,192,9995,1,0,0:0:0:0:
256,192,10167,1,8,0:0:0:0:
256,192,10512,1,8,0:0:0:0:
256,192,10685,1,0,0:0:0:0:
256,192,10771,1,0,0:0:0:0:
256,192,10857,1,0,0:0:0:0:
256,192,11030,1,0,0:0:0:0:
256,192,11202,1,8,0:0:0:0:
256,192,11719,1,8,0:0:0:0:
256,192,11892,1,0,0:0:0:0:
256,192,12064,1,8,0:0:0:0:
256,192,12409,1,0,0:0:0:0:
256,192,12581,1,8,0:0:0:0:
256,192,12754,1,0,0:0:0:0:
256,192,13098,1,8,0:0:0:0:
256,192,13443,1,0,0:0:0:0:
256,192,13788,1,0,0:0:0:0:
256,192,13961,1,8,0:0:0:0:
256,192,14047,1,8,0:0:0:0:
256,192,14133,1,8,0:0:0:0:
256,192,14392,1,8,0:0:0:0:
256,192,14650,1,0,0:0:0:0:
256,192,14823,1,8,0:0:0:0:
256,192,15167,1,8,0:0:0:0:
256,192,15857,1,8,0:0:0:0:
256,192,16202,1,0,0:0:0:0:
256,192,16374,1,0,0:0:0:0:
256,192,16547,1,8,0:0:0:0:
256,192,16892,1,0,0:0:0:0:
256,192,17064,1,8,0:0:0:0:
256,192,17236,1,8,0:0:0:0:
256,192,17409,1,0,0:0:0:0:
256,192,17581,1,8,0:0:0:0:
256,192,17926,1,0,0:0:0:0:
256,192,18098,1,8,0:0:0:0:
256,192,18271,1,0,0:0:0:0:
256,192,18616,1,8,0:0:0:0:
256,192,18961,1,0,0:0:0:0:
252,199,19305,1,0,0:0:0:0:
256,192,19478,1,0,0:0:0:0:
256,192,19564,1,0,0:0:0:0:
256,192,19650,1,0,0:0:0:0:
256,192,19909,1,0,0:0:0:0:
256,192,20167,1,0,0:0:0:0:
256,192,20340,1,8,0:0:0:0:
256,192,20685,1,8,0:0:0:0:
256,192,21374,1,8,0:0:0:0:
256,192,21547,1,0,0:0:0:0:
256,192,21633,1,0,0:0:0:0:
256,192,21719,1,0,0:0:0:0:
256,192,21892,1,0,0:0:0:0:
256,192,22064,1,8,0:0:0:0:
256,192,22409,1,0,0:0:0:0:
256,192,22581,1,8,0:0:0:0:
256,192,22754,1,0,0:0:0:0:
256,192,22926,1,8,0:0:0:0:
256,192,23098,1,4,0:0:0:0:
256,192,23616,1,0,0:0:0:0:
256,192,23961,1,0,0:0:0:0:
256,192,24133,1,0,0:0:0:0:
256,192,24305,1,0,0:0:0:0:
256,192,24478,1,12,0:0:0:0:
256,192,24995,1,8,0:0:0:0:
256,192,25340,1,0,0:0:0:0:
256,192,25512,1,0,0:0:0:0:
256,192,25685,1,0,0:0:0:0:
256,192,25857,1,8,0:0:0:0:
256,192,26116,1,0,0:0:0:0:
256,192,26547,1,8,0:0:0:0:
256,192,26805,1,0,0:0:0:0:
256,192,27236,1,8,0:0:0:0:
256,192,28616,1,12,0:0:0:0:
256,192,29133,1,8,0:0:0:0:
256,192,29478,1,0,0:0:0:0:
256,192,29650,1,0,0:0:0:0:
256,192,29823,1,8,0:0:0:0:
256,192,29995,1,12,0:0:0:0:
256,192,30512,1,8,0:0:0:0:
256,192,30857,1,0,0:0:0:0:
256,192,31030,1,8,0:0:0:0:
256,192,31374,1,12,0:0:0:0:
256,192,31633,1,0,0:0:0:0:
256,192,32064,1,12,0:0:0:0:
256,192,32323,1,0,0:0:0:0:
256,192,32754,1,12,0:0:0:0:
256,192,33098,1,8,0:0:0:0:
256,192,33185,1,8,0:0:0:0:
256,192,33271,1,8,0:0:0:0:
256,192,33357,1,8,0:0:0:0:
256,192,33443,1,8,0:0:0:0:
256,192,34133,1,4,0:0:0:0:
256,192,34478,1,0,0:0:0:0:
256,192,34823,1,0,0:0:0:0:
256,192,34995,1,0,0:0:0:0:
256,192,35167,1,8,0:0:0:0:
256,192,35512,1,8,0:0:0:0:
256,192,35771,1,0,0:0:0:0:
256,192,36030,1,0,0:0:0:0:
256,192,36202,1,8,0:0:0:0:
256,192,36547,1,0,0:0:0:0:
256,192,36892,1,8,0:0:0:0:
256,192,37236,1,8,0:0:0:0:
256,192,37581,1,0,0:0:0:0:
256,192,37754,1,8,0:0:0:0:
256,192,37926,1,8,0:0:0:0:
256,192,38271,1,8,0:0:0:0:
256,192,38530,1,8,0:0:0:0:
256,192,38788,1,0,0:0:0:0:
256,192,38961,1,0,0:0:0:0:
256,192,39650,1,0,0:0:0:0:
256,192,39995,1,8,0:0:0:0:
256,192,40340,1,0,0:0:0:0:
256,192,40512,1,0,0:0:0:0:
256,192,40685,1,8,0:0:0:0:
256,192,41030,1,8,0:0:0:0:
256,192,41288,1,0,0:0:0:0:
256,192,41547,1,0,0:0:0:0:
256,192,41719,1,8,0:0:0:0:
256,192,42064,1,0,0:0:0:0:
256,192,42409,1,8,0:0:0:0:
256,192,42754,1,8,0:0:0:0:
256,192,43098,1,0,0:0:0:0:
256,192,43271,1,0,0:0:0:0:
256,192,43443,1,8,0:0:0:0:
256,192,43788,1,4,0:0:0:0:
256,192,44133,1,4,0:0:0:0:
256,192,44478,1,12,0:0:0:0:
256,192,44823,1,12,0:0:0:0:
256,192,45167,1,12,0:0:0:0:
256,192,45857,1,0,0:0:0:0:
256,192,46030,1,0,0:0:0:0:
256,192,46202,1,8,0:0:0:0:
256,192,46547,1,8,0:0:0:0:
256,192,46805,1,0,0:0:0:0:
256,192,47064,1,0,0:0:0:0:
256,192,47236,1,8,0:0:0:0:
256,192,47581,1,0,0:0:0:0:
256,192,47926,1,8,0:0:0:0:
256,192,48271,1,8,0:0:0:0:
256,192,48616,1,0,0:0:0:0:
256,192,48788,1,8,0:0:0:0:
256,192,48961,1,8,0:0:0:0:
256,192,49305,1,8,0:0:0:0:
256,192,49564,1,8,0:0:0:0:
256,192,49823,1,0,0:0:0:0:
256,192,49995,1,0,0:0:0:0:
256,192,50340,1,8,0:0:0:0:
256,192,50685,1,0,0:0:0:0:
256,192,51030,1,8,0:0:0:0:
256,192,51374,1,0,0:0:0:0:
256,192,51547,1,0,0:0:0:0:
256,192,51719,1,8,0:0:0:0:
256,192,52064,1,8,0:0:0:0:
256,192,52323,1,0,0:0:0:0:
256,192,52581,1,0,0:0:0:0:
256,192,52754,1,8,0:0:0:0:
256,192,53098,1,0,0:0:0:0:
256,192,53443,1,8,0:0:0:0:
256,192,53788,1,8,0:0:0:0:
256,192,54133,1,0,0:0:0:0:
256,192,54305,1,0,0:0:0:0:
256,192,54478,1,8,0:0:0:0:
256,192,54823,1,8,0:0:0:0:
256,192,55081,1,0,0:0:0:0:
256,192,55340,1,0,0:0:0:0:
256,192,55512,1,8,0:0:0:0:
256,192,55685,1,0,0:0:0:0:
256,192,55771,1,0,0:0:0:0:
256,192,55857,1,0,0:0:0:0:
256,192,56030,1,0,0:0:0:0:
256,192,56202,1,4,0:0:0:0:
256,192,56547,1,8,0:0:0:0:
256,192,57064,1,8,0:0:0:0:
256,192,57926,1,0,0:0:0:0:
256,192,58443,1,0,0:0:0:0:
256,192,59305,1,8,0:0:0:0:
256,192,59823,1,8,0:0:0:0:
256,192,60167,1,0,0:0:0:0:
256,192,60254,1,0,0:0:0:0:
256,192,60340,1,0,0:0:0:0:
256,192,60512,1,0,0:0:0:0:
256,192,60685,1,0,0:0:0:0:
256,192,60857,1,8,0:0:0:0:
256,192,61202,1,4,0:0:0:0:
256,192,61547,1,12,0:0:0:0:
256,192,62064,1,8,0:0:0:0:
256,192,62581,1,8,0:0:0:0:
256,192,63098,1,0,0:0:0:0:
256,192,63443,1,0,0:0:0:0:
256,192,63616,1,8,0:0:0:0:
256,192,64133,1,8,0:0:0:0:
256,192,64478,1,0,0:0:0:0:
256,192,64823,1,8,0:0:0:0:
256,192,65340,1,8,0:0:0:0:
256,192,65685,1,8,0:0:0:0:
256,192,65857,1,0,0:0:0:0:
256,192,65943,1,0,0:0:0:0:
256,192,66030,1,0,0:0:0:0:
256,192,66202,1,0,0:0:0:0:
256,192,66374,1,8,0:0:0:0:
256,192,66892,1,8,0:0:0:0:
256,192,67064,1,0,0:0:0:0:
256,192,67236,1,8,0:0:0:0:
256,192,67581,1,0,0:0:0:0:
256,192,67754,1,8,0:0:0:0:
256,192,67926,1,0,0:0:0:0:
224,176,68271,1,8,0:0:0:0:
256,192,68616,1,0,0:0:0:0:
256,192,69133,1,0,0:0:0:0:
256,192,69219,1,0,0:0:0:0:
256,192,69305,1,0,0:0:0:0:
256,192,69564,1,0,0:0:0:0:
256,192,69823,1,0,0:0:0:0:
256,192,69995,1,8,0:0:0:0:
256,192,70340,1,8,0:0:0:0:
256,192,71030,1,8,0:0:0:0:
256,192,71374,1,0,0:0:0:0:
256,192,71547,1,8,0:0:0:0:
256,192,71719,1,0,0:0:0:0:
256,192,72064,1,0,0:0:0:0:
256,192,72236,1,0,0:0:0:0:
256,192,72409,1,8,0:0:0:0:
256,192,72581,1,0,0:0:0:0:
256,192,72754,1,8,0:0:0:0:
256,192,73098,1,0,0:0:0:0:
256,192,73271,1,8,0:0:0:0:
256,192,73443,1,0,0:0:0:0:
256,192,73788,1,8,0:0:0:0:
256,192,74133,1,0,0:0:0:0:
256,192,74650,1,0,0:0:0:0:
256,192,74736,1,0,0:0:0:0:
256,192,74823,1,0,0:0:0:0:
256,192,75081,1,8,0:0:0:0:
256,192,75340,1,0,0:0:0:0:
256,192,75512,1,8,0:0:0:0:
256,192,75857,1,8,0:0:0:0:
256,192,76547,1,8,0:0:0:0:
256,192,76719,1,0,0:0:0:0:
256,192,76805,1,0,0:0:0:0:
256,192,76892,1,0,0:0:0:0:
256,192,77064,1,0,0:0:0:0:
256,192,77236,1,8,0:0:0:0:
256,192,77581,1,0,0:0:0:0:
256,192,77754,1,8,0:0:0:0:
256,192,77926,1,0,0:0:0:0:
256,192,78098,1,8,0:0:0:0:
256,192,78271,1,4,0:0:0:0:
256,192,78788,1,0,0:0:0:0:
256,192,79133,1,0,0:0:0:0:
256,192,79305,1,0,0:0:0:0:
256,192,79478,1,0,0:0:0:0:
256,192,79650,1,12,0:0:0:0:
256,192,80167,1,8,0:0:0:0:
256,192,80512,1,0,0:0:0:0:
256,192,80685,1,0,0:0:0:0:
256,192,81030,1,8,0:0:0:0:
256,192,81288,1,0,0:0:0:0:
256,192,81547,1,0,0:0:0:0:
256,192,81719,1,8,0:0:0:0:
256,192,81978,1,0,0:0:0:0:
256,192,82236,1,0,0:0:0:0:
256,192,82409,1,8,0:0:0:0:
256,192,83788,1,12,0:0:0:0:
256,192,84305,1,8,0:0:0:0:
256,192,84650,1,0,0:0:0:0:
256,192,84823,1,8,0:0:0:0:
256,192,85167,1,12,0:0:0:0:
256,192,85685,1,8,0:0:0:0:
256,192,86030,1,0,0:0:0:0:
256,192,86202,1,8,0:0:0:0:
256,192,86547,1,12,0:0:0:0:
256,192,86805,1,0,0:0:0:0:
256,192,87236,1,12,0:0:0:0:
256,192,87495,1,0,0:0:0:0:
256,192,87926,1,12,0:0:0:0:
256,192,88271,1,0,0:0:0:0:
256,192,88443,1,0,0:0:0:0:
256,192,88616,1,8,0:0:0:0:
256,192,89305,1,4,0:0:0:0:
256,192,89650,1,8,0:0:0:0:
256,192,89995,1,0,0:0:0:0:
256,192,90167,1,8,0:0:0:0:
256,192,90340,1,8,0:0:0:0:
256,192,90685,1,8,0:0:0:0:
256,192,90943,1,0,0:0:0:0:
256,192,91202,1,0,0:0:0:0:
256,192,91374,1,8,0:0:0:0:
256,192,91719,1,0,0:0:0:0:
256,192,92064,1,8,0:0:0:0:
256,192,92409,1,8,0:0:0:0:
256,192,92581,1,0,0:0:0:0:
256,192,92754,1,0,0:0:0:0:
256,192,92926,1,8,0:0:0:0:
256,192,93098,1,8,0:0:0:0:
256,192,93443,1,8,0:0:0:0:
256,192,93702,1,8,0:0:0:0:
256,192,93961,1,0,0:0:0:0:
256,192,94133,1,0,0:0:0:0:
256,192,94823,1,0,0:0:0:0:
256,192,95167,1,0,0:0:0:0:
256,192,95512,1,0,0:0:0:0:
256,192,95685,1,8,0:0:0:0:
256,192,95857,1,8,0:0:0:0:
256,192,96202,1,8,0:0:0:0:
256,192,96461,1,0,0:0:0:0:
256,192,96719,1,0,0:0:0:0:
256,192,96892,1,8,0:0:0:0:
256,192,97236,1,0,0:0:0:0:
256,192,97581,1,8,0:0:0:0:
256,192,97926,1,8,0:0:0:0:
256,192,98098,1,0,0:0:0:0:
256,192,98271,1,0,0:0:0:0:
256,192,98443,1,8,0:0:0:0:
256,192,98616,1,8,0:0:0:0:
256,192,98961,1,4,0:0:0:0:
256,192,99305,1,4,0:0:0:0:
256,192,99650,1,12,0:0:0:0:
256,192,99995,1,12,0:0:0:0:
256,192,100340,1,12,0:0:0:0:
256,192,100685,1,8,0:0:0:0:
256,192,101030,1,0,0:0:0:0:
256,192,101202,1,8,0:0:0:0:
256,192,101374,1,8,0:0:0:0:
256,192,101719,1,8,0:0:0:0:
256,192,101978,1,0,0:0:0:0:
256,192,102236,1,0,0:0:0:0:
256,192,102409,1,8,0:0:0:0:
256,192,102754,1,0,0:0:0:0:
256,192,103098,1,8,0:0:0:0:
256,192,103443,1,8,0:0:0:0:
256,192,103788,1,0,0:0:0:0:
256,192,103961,1,0,0:0:0:0:
256,192,104133,1,8,0:0:0:0:
256,192,104478,1,8,0:0:0:0:
256,192,104736,1,8,0:0:0:0:
256,192,104995,1,0,0:0:0:0:
256,192,105167,1,0,0:0:0:0:
256,192,105512,1,8,0:0:0:0:
256,192,105857,1,0,0:0:0:0:
256,192,106202,1,0,0:0:0:0:
256,192,106547,1,0,0:0:0:0:
256,192,106719,1,8,0:0:0:0:
256,192,106892,1,8,0:0:0:0:
256,192,107236,1,8,0:0:0:0:
256,192,107495,1,0,0:0:0:0:
256,192,107754,1,0,0:0:0:0:
256,192,107926,1,8,0:0:0:0:
256,192,108271,1,0,0:0:0:0:
256,192,108616,1,8,0:0:0:0:
256,192,109133,1,8,0:0:0:0:
256,192,109478,1,0,0:0:0:0:
256,192,109650,1,8,0:0:0:0:
256,192,109823,1,0,0:0:0:0:
256,192,109995,1,8,0:0:0:0:
256,192,110254,1,0,0:0:0:0:
256,192,110512,1,0,0:0:0:0:
256,192,110685,1,8,0:0:0:0:
256,192,110857,1,0,0:0:0:0:
256,192,110943,1,0,0:0:0:0:
256,192,111030,1,0,0:0:0:0:
256,192,111202,1,0,0:0:0:0:
256,192,111374,1,4,0:0:0:0:
