osu file format v13

[General]
AudioFilename: 12-Cemetery of Onbashira - Grave of Being.mp3
AudioLeadIn: 0
PreviewTime: 34133
Countdown: 0
SampleSet: Normal
StackLeniency: 0.7
Mode: 0
LetterboxInBreaks: 1
SkinPreference:Default
WidescreenStoryboard: 0

[Editor]
DistanceSpacing: 1.7
BeatDivisor: 4
GridSize: 4
TimelineZoom: 1.7

[Metadata]
Title:Onbashira no Hakaba ~ Grave of Being
TitleUnicode:御柱の墓場 ~ Grave of Being
Artist:ZUN
ArtistUnicode:ZUN
Creator:Totoro le Pacha
Version:Lunatic
Source:Touhou
Tags:th10 mof kanako yasaka stage 6 theme kenterz th 10 Mountain of Faith 東方風神録 Fuujinroku 東方プロジェクト team shanghai alice 上海アリス幻樂団 cemetery gengakudan
BeatmapID:360302
BeatmapSetID:120094

[Difficulty]
HPDrainRate:7
CircleSize:4
OverallDifficulty:7
ApproachRate:9
SliderMultiplier:1.7
SliderTickRate:2

[Events]
//Background and Video events
0,0,"konachan-com-79088-purple_hair-red_eyes-short_hair-touhou-yasaka_kanako.jpg",0,0
//Break Periods
2,56401,66292
//Storyboard Layer 0 (Background)
//Storyboard Layer 1 (Fail)
//Storyboard Layer 2 (Pass)
//Storyboard Layer 3 (Foreground)
//Storyboard Sound Samples
//Background Colour Transformations
3,100,163,162,255

[TimingPoints]
1030,344.827586206897,4,1,1,50,1,0
1030,-133.333333333333,4,1,1,50,0,0
8961,-100,4,1,1,50,0,0
9133,-133.333333333333,4,1,1,50,0,0
10685,-133.333333333333,4,1,1,30,0,0
11202,-133.333333333333,4,1,1,50,0,0
11719,-100,4,1,1,50,0,0
23098,-133.333333333333,4,1,1,50,0,0
31374,-100,4,1,1,50,0,0
32754,-83.3333333333333,4,1,1,50,0,0
34133,-100,4,1,1,50,0,1
56202,-100,4,1,1,50,0,0
78271,-133.333333333333,4,1,1,50,0,0
86547,-100,4,1,1,50,0,0
87926,-83.3333333333333,4,1,1,50,0,0
89305,-100,4,1,1,50,0,1
111374,-100,4,1,1,50,0,0

[Colours]
Combo1 : 200,140,188
Combo2 : 0,128,192
Combo3 : 216,105,39
Combo4 : 134,64,120
Combo5 : 167,46,16
Combo6 : 255,0,0
Combo7 : 125,213,255
Combo8 : 232,166,125

[HitObjects]
128,152,1030,5,0,0:0:0:0:
168,80,1202,1,0,0:0:0:0:
244,112,1374,2,0,P|260:176|240:252,1,127.500004863739,2|0,0:2|0:0,0:0:0:0:
196,300,1892,2,0,L|64:304,1,127.500004863739,2|0,0:2|0:0,0:0:0:0:
60,312,2409,1,0,0:0:0:0:
60,312,2754,6,0,P|88:249|68:181,1,127.500004863739,2|0,0:2|0:0,0:0:0:0:
124,112,3271,2,0,L|268:104,1,127.500004863739,4|0,0:2|0:0,0:0:0:0:
256,116,3788,1,0,0:0:0:0:
256,116,4133,6,0,B|241:204|241:204|277:244,1,127.500004863739,2|0,0:2|0:0,0:0:0:0:
312,288,4650,2,0,P|368:280|440:336,1,127.500004863739,2|0,0:2|0:0,0:0:0:0:
427,314,5081,1,2,0:2:0:0:
427,314,5167,1,0,0:0:0:0:
472,244,5340,5,0,0:0:0:0:
420,180,5512,1,0,0:0:0:0:
468,112,5685,2,0,P|412:96|344:132,1,127.500004863739,2|4,0:2|0:2,0:0:0:0:
312,196,6202,1,0,0:0:0:0:
332,276,6374,70,0,L|184:272,1,127.500004863739,4|0,0:2|0:0,0:0:0:0:
136,224,6892,2,0,L|128:144,2,63.7500024318696,6|0|0,0:2|0:0|0:0,0:0:0:0:
208,184,7409,2,0,L|220:112,2,63.7500024318696,2|0|0,0:2|0:0|0:0,0:0:0:0:
212,272,7926,1,4,0:2:0:0:
288,224,8098,5,0,0:0:0:0:
292,312,8271,1,0,0:0:0:0:
204,260,8443,1,6,0:2:0:0:
296,212,8616,1,0,0:0:0:0:
304,312,8788,1,0,0:0:0:0:
192,248,8961,38,0,L|188:152,1,85,2|0,0:2|0:0,0:0:0:0:
156,96,9219,1,0,0:0:0:0:
156,96,9305,86,0,B|196:80|236:108|236:108|296:100,1,127.500004863739,0|2,0:0|0:2,0:0:0:0:
352,132,9823,1,0,0:0:0:0:
336,208,9995,1,0,0:0:0:0:
264,232,10167,2,0,P|224:216|152:256,1,127.500004863739,2|0,0:2|0:0,0:0:0:0:
153,252,10598,1,0,0:0:0:0:
153,252,10685,5,0,0:0:0:0:
140,328,10857,1,0,0:0:0:0:
220,296,11030,1,0,0:0:0:0:
284,344,11202,1,0,0:0:0:0:
348,292,11374,2,0,L|352:216,1,63.7500024318696,0|0,0:0|0:0,0:0:0:0:
296,144,11719,5,2,0:2:0:0:
296,144,11805,1,0,0:0:0:0:
296,144,11892,1,0,0:0:0:0:
296,144,11978,1,0,0:0:0:0:
296,144,12064,54,0,B|256:120|212:132|212:132|176:92|128:92,1,170,4|0,0:2|0:0,0:0:0:0:
52,140,12581,1,2,0:2:0:0:
76,236,12754,2,0,L|72:336,1,85
240,308,13098,2,0,L|244:220,1,85,2|0,0:2|0:0,0:0:0:0:
220,124,13443,6,0,B|268:116|304:144|304:144|392:132,1,170,4|0,0:2|0:0,0:0:0:0:
456,56,13961,1,0,0:0:0:0:
456,56,14047,1,2,0:2:0:0:
456,56,14133,1,0,0:0:0:0:
480,156,14305,1,2,0:2:0:0:
480,156,14392,2,0,L|472:260,1,85,0|2,0:0|0:2,0:0:0:0:
480,280,14650,1,0,0:0:0:0:
384,312,14823,6,0,P|336:296|280:320,1,85,4|0,0:2|0:0,0:0:0:0:
232,364,15167,1,2,0:2:0:0:
152,312,15340,1,0,0:0:0:0:
168,212,15512,1,0,0:0:0:0:
272,212,15685,1,0,0:0:0:0:
303,303,15857,2,0,P|344:296|384:312,1,85,2|0,0:2|0:0,0:0:0:0:
460,244,16202,21,0,0:0:0:0:
479,219,16288,1,2,0:2:0:0:
488,188,16374,1,2,0:2:0:0:
484,156,16460,1,0,0:0:0:0:
468,130,16547,2,0,L|416:124,3,42.5,2|0|2|0,0:2|0:0|0:2|0:0,0:0:0:0:
448,52,16892,2,0,L|392:44,3,42.5,0|2|2|0,0:0|0:2|0:2|0:0,0:0:0:0:
389,84,17236,1,0,0:0:0:0:
356,110,17322,1,0,0:0:0:0:
315,117,17408,1,0,0:0:0:0:
276,102,17494,1,0,0:0:0:0:
248,68,17581,54,0,L|236:244,1,170,4|0,0:2|0:0,0:0:0:0:
164,312,18098,1,2,0:2:0:0:
76,360,18271,2,0,P|56:312|76:260,1,85
132,132,18616,2,0,P|152:180|132:232,1,85,2|0,0:2|0:0,0:0:0:0:
76,360,18961,6,0,P|116:300|212:320,1,170,4|0,0:2|0:0,0:0:0:0:
292,360,19478,1,0,0:0:0:0:
292,360,19564,1,2,0:2:0:0:
292,360,19650,2,0,L|408:344,1,85
444,320,19909,2,0,P|456:272|436:220,1,85,2|0,0:2|0:0,0:0:0:0:
392,192,20167,1,0,0:0:0:0:
384,204,20340,6,0,L|280:212,1,85,4|0,0:2|0:0,0:0:0:0:
220,276,20685,1,2,0:2:0:0:
144,208,20857,1,0,0:0:0:0:
172,108,21030,2,0,P|120:100|72:132,1,85
120,312,21374,2,0,P|172:320|220:288,1,85,2|0,0:2|0:0,0:0:0:0:
220,276,21633,1,0,0:0:0:0:
228,240,21719,6,0,L|216:124,1,85,2|0,0:2|0:0,0:0:0:0:
236,56,22064,1,0,0:0:0:0:
236,56,22150,2,0,L|320:56,1,85,2|2,0:2|0:2,0:0:0:0:
384,92,22409,1,0,0:0:0:0:
424,212,22581,1,2,0:2:0:0:
320,128,22754,1,0,0:0:0:0:
380,280,22926,1,2,0:2:0:0:
256,176,23098,22,0,L|124:168,1,127.5,4|2,0:2|0:2,0:0:0:0:
76,224,23616,1,0,0:0:0:0:
232,96,23961,1,0,0:0:0:0:
256,176,24133,2,0,L|248:264,1,63.7500024318696,2|0,0:2|0:0,0:0:0:0:
296,308,24478,6,0,P|360:264|424:288,1,127.500004863739,4|2,0:2|0:2,0:0:0:0:
468,324,24995,1,0,0:0:0:0:
264,384,25340,1,0,0:0:0:0:
296,308,25512,2,0,P|304:256|288:220,1,63.7500024318696,2|0,0:2|0:0,0:0:0:0:
192,176,25857,6,0,L|80:184,2,95.6250036478044,4|2|0,0:2|0:2|0:0,0:0:0:0:
344,100,26547,2,0,L|456:108,2,95.6250036478044,0|2|0,0:0|0:2|0:0,0:0:0:0:
268,144,27236,86,0,P|232:200|260:268,1,127.500004863739,4|0,0:2|0:0,0:0:0:0:
405,266,27754,2,0,B|407:245|375:217|375:217|308:208,1,127.500004863739,0|0,0:2|0:0,0:0:0:0:
308,208,28185,1,0,0:0:0:0:
308,208,28271,1,0,0:0:0:0:
292,220,28616,6,0,P|328:156|312:88,1,127.500004863739,4|0,0:2|0:0,0:0:0:0:
188,204,29133,2,0,P|188:264|240:316,1,127.500004863739,0|0,0:0|0:0,0:0:0:0:
344,316,29650,2,0,L|424:304,1,63.7500024318696,2|0,0:2|0:0,0:0:0:0:
420,204,29995,6,0,L|293:219,1,127.500004863739,4|0,0:2|0:0,0:0:0:0:
152,112,30512,2,0,L|278:96,1,127.500004863739,0|0,0:0|0:0,0:0:0:0:
416,140,31030,2,0,L|420:204,1,63.7500024318696,2|0,0:2|0:0,0:0:0:0:
360,308,31374,6,0,P|336:260|288:240,1,85,4|0,0:2|0:0,0:0:0:0:
264,232,31633,2,0,P|212:248|188:280,1,85,2|0,0:2|0:0,0:0:0:0:
184,312,31892,1,0,0:0:0:0:
92,236,32064,6,0,L|96:136,1,85,4|0,0:2|0:0,0:0:0:0:
120,112,32323,2,0,L|208:100,1,85,2|0,0:2|0:0,0:0:0:0:
248,112,32581,1,0,0:0:0:0:
248,24,32754,37,0,0:0:0:0:
336,0,32926,1,0,0:0:0:0:
404,60,33098,1,0,0:0:0:0:
390,81,33184,1,0,0:0:0:0:
384,106,33270,1,0,0:0:0:0:
385,131,33356,1,0,0:0:0:0:
395,155,33443,1,2,0:2:0:0:
368,137,33529,1,0,0:0:0:0:
337,128,33615,1,0,0:0:0:0:
306,129,33701,1,0,0:0:0:0:
276,139,33787,1,0,0:0:0:0:
250,157,33874,1,0,0:0:0:0:
230,182,33960,1,0,0:0:0:0:
219,212,34046,1,0,0:0:0:0:
217,244,34133,54,0,L|392:256,1,170,4|2,0:2|0:2,0:0:0:0:
476,140,34650,1,0,0:0:0:0:
364,48,34823,2,0,L|272:52,1,85,0|2,0:0|0:2,0:0:0:0:
148,112,35167,2,0,P|136:156|152:204,1,85,2|0,0:2|0:0,0:0:0:0:
204,324,35512,6,0,P|268:308|296:220,2,127.5,4|2|0,0:2|0:2|0:0,0:0:0:0:
76,256,36202,2,0,L|80:68,1,170,2|0,0:2|0:0,0:0:0:0:
220,52,36719,1,0,0:0:0:0:
273,193,36892,6,0,P|206:241|204:324,1,170,4|2,0:2|0:2,0:0:0:0:
344,360,37409,1,0,0:0:0:0:
360,208,37581,2,0,P|360:164|324:124,1,85,0|2,0:0|0:2,0:0:0:0:
220,52,37926,2,0,P|168:52|124:100,1,85,2|0,0:2|0:0,0:0:0:0:
80,200,38271,6,0,P|72:260|112:336,2,127.5,4|2|0,0:2|0:2|0:0,0:0:0:0:
212,136,38961,2,0,B|272:128|272:128|320:144|320:144|404:136,1,170,0|0,0:0|0:0,0:0:0:0:
496,56,39478,1,0,0:0:0:0:
440,212,39650,70,0,B|356:224|356:224|336:276|276:272,1,170,4|2,0:2|0:2,0:0:0:0:
156,224,40167,1,0,0:0:0:0:
196,84,40340,1,0,0:0:0:0:
288,200,40512,1,0,0:0:0:0:
152,244,40685,2,0,L|40:256,1,85,2|0,0:2|0:0,0:0:0:0:
64,108,41030,6,0,L|208:96,1,127.5,4|2,0:2|0:2,0:0:0:0:
372,220,41547,1,0,0:0:0:0:
372,220,41633,1,0,0:0:0:0:
372,220,41719,2,0,L|184:208,1,170,2|0,0:2|0:0,0:0:0:0:
68,260,42236,1,0,0:0:0:0:
120,124,42409,6,0,B|156:100|152:48|152:48|188:88|260:84,1,170,4|2,0:2|0:2,0:0:0:0:
368,52,42926,1,0,0:0:0:0:
368,52,43012,1,0,0:0:0:0:
368,52,43098,2,0,P|404:68|408:136,1,85
412,128,43357,1,0,0:0:0:0:
396,140,43443,1,2,0:2:0:0:
366,128,43529,1,0,0:0:0:0:
334,130,43615,1,0,0:0:0:0:
306,143,43701,1,0,0:0:0:0:
285,167,43788,6,0,L|280:352,1,170,4|4,0:2|0:2,0:0:0:0:
368,224,44305,1,0,0:0:0:0:
208,128,44478,2,0,L|202:312,1,170,4|4,0:2|0:2,0:0:0:0:
408,288,44995,1,0,0:0:0:0:
408,288,45081,1,0,0:0:0:0:
408,288,45167,70,0,B|452:260|456:204|420:168|420:168|436:104,1,170,4|2,0:2|0:2,0:0:0:0:
504,12,45685,1,0,0:0:0:0:
364,40,45857,2,0,P|312:28|256:40,1,85
208,64,46116,1,0,0:0:0:0:
208,64,46202,2,0,P|165:66|125:55,1,85,2|0,0:2|0:0,0:0:0:0:
40,172,46547,6,0,P|16:220|32:284,1,85,4|2,0:2|0:2,0:0:0:0:
68,308,46805,2,0,P|124:304|156:268,1,85,0|0,0:0|0:0,0:0:0:0:
168,212,47064,2,0,L|180:136,2,42.5,0|0|2,0:0|0:0|0:2,0:0:0:0:
244,332,47409,1,0,0:0:0:0:
376,272,47581,2,0,L|472:280,1,85
496,140,47926,6,0,B|448:108|448:108|312:96,1,170,4|2,0:2|0:2,0:0:0:0:
192,84,48443,1,0,0:0:0:0:
92,188,48616,2,0,L|96:304,1,85,0|2,0:0|0:2,0:0:0:0:
236,304,48961,2,0,L|233:219,1,85,2|0,0:2|0:0,0:0:0:0:
192,84,49305,6,0,P|140:40|48:52,2,127.5,4|2|0,0:2|0:2|0:0,0:0:0:0:
184,228,49995,2,0,P|164:280|244:348,1,170
368,308,50512,1,0,0:0:0:0:
372,296,50598,1,0,0:0:0:0:
376,284,50685,70,0,B|388:240|356:196|356:196|368:100,1,170,4|2,0:2|0:2,0:0:0:0:
264,16,51202,1,0,0:0:0:0:
136,80,51374,2,0,L|28:92,1,85,0|2,0:0|0:2,0:0:0:0:
88,228,51719,2,0,L|196:240,1,85,2|0,0:2|0:0,0:0:0:0:
304,180,52064,6,0,B|316:128|316:128|308:88|308:88|324:28,2,127.5,4|0|0,0:2|0:0|0:0,0:0:0:0:
240,308,52754,2,0,B|312:288|356:328|356:328|420:320,1,170,2|0,0:2|0:0,0:0:0:0:
480,200,53271,1,0,0:0:0:0:
368,108,53443,6,0,L|268:104,1,85,4|0,0:2|0:0,0:0:0:0:
148,48,53788,1,2,0:2:0:0:
68,180,53961,1,0,0:0:0:0:
192,272,54133,2,0,P|240:248|296:264,1,85
292,260,54392,1,0,0:0:0:0:
312,280,54478,1,2,0:2:0:0:
335,258,54564,1,0,0:0:0:0:
350,230,54650,1,0,0:0:0:0:
354,199,54736,1,0,0:0:0:0:
347,168,54823,6,0,B|332:120|288:104|288:104|272:32,2,127.5,4|2|0,0:2|0:2|0:0,0:0:0:0:
401,307,55512,5,4,0:2:0:0:
374,289,55598,1,0,0:0:0:0:
344,280,55684,1,0,0:0:0:0:
312,280,55770,1,0,0:0:0:0:
282,289,55857,1,0,0:0:0:0:
240,321,55943,1,0,0:0:0:0:
188,328,56029,1,0,0:0:0:0:
139,309,56115,1,0,0:0:0:0:
106,268,56201,1,4,0:0:0:0:
128,112,66892,117,2,0:2:0:0:
128,112,66978,1,0,0:0:0:0:
128,112,67064,1,0,0:0:0:0:
128,112,67150,1,0,0:0:0:0:
128,112,67236,54,0,B|168:100|208:128|208:128|232:92|284:88,1,170,4|2,0:2|0:2,0:0:0:0:
376,124,67754,1,0,0:0:0:0:
400,224,67926,2,0,P|416:264|392:332,1,85
236,360,68271,2,0,P|220:320|244:252,1,85,2|0,0:2|0:0,0:0:0:0:
276,168,68616,6,0,B|300:124|272:76|272:76|180:64,1,170,4|0,0:2|0:0,0:0:0:0:
108,112,69133,1,0,0:0:0:0:
108,112,69219,1,2,0:2:0:0:
108,112,69305,1,0,0:0:0:0:
64,204,69478,1,2,0:2:0:0:
64,204,69564,1,0,0:0:0:0:
64,204,69650,1,0,0:0:0:0:
152,260,69823,1,0,0:0:0:0:
184,80,69995,6,0,L|372:68,1,170,4|2,0:2|0:2,0:0:0:0:
432,132,70512,1,0,0:0:0:0:
380,220,70685,2,0,L|384:312,1,85
216,280,71030,2,0,L|212:188,1,85,2|0,0:2|0:0,0:0:0:0:
248,68,71374,21,0,0:0:0:0:
275,52,71460,1,2,0:2:0:0:
307,47,71546,1,2,0:2:0:0:
338,51,71632,1,0,0:0:0:0:
367,65,71719,2,0,L|424:60,3,42.5,2|0|2|0,0:2|0:0|0:2|0:0,0:0:0:0:
400,136,72064,2,0,L|357:139,3,42.5,0|2|2|0,0:0|0:2|0:2|0:0,0:0:0:0:
355,173,72409,1,2,0:2:0:0:
352,207,72495,1,0,0:0:0:0:
349,241,72581,1,0,0:0:0:0:
347,275,72667,1,0,0:0:0:0:
344,309,72754,54,0,B|312:264|248:284|248:284|172:276,1,170,4|0,0:2|0:0,0:0:0:0:
92,312,73271,1,2,0:2:0:0:
32,228,73443,2,0,L|36:132,1,85
168,96,73788,2,0,L|164:180,1,85,2|0,0:2|0:0,0:0:0:0:
186,277,74133,6,0,P|200:324|324:324,1,170,4|0,0:2|0:0,0:0:0:0:
368,260,74650,1,0,0:0:0:0:
368,260,74736,1,2,0:2:0:0:
368,260,74823,2,0,L|372:144,1,85,0|2,0:0|0:2,0:0:0:0:
360,160,75081,2,0,P|404:108|372:40,1,127.5
288,24,75512,6,0,L|92:32,1,170,4|2,0:2|0:2,0:0:0:0:
52,108,76030,1,0,0:0:0:0:
96,208,76202,2,0,L|92:312,1,85
232,316,76547,2,0,L|235:231,1,85,2|0,0:2|0:0,0:0:0:0:
228,192,76805,1,0,0:0:0:0:
224,160,76892,6,0,P|256:132|316:144,1,85,2|0,0:2|0:0,0:0:0:0:
404,180,77236,1,0,0:0:0:0:
404,180,77323,2,0,L|416:340,1,127.5,2|0,0:2|0:0,0:0:0:0:
308,364,77754,1,2,0:2:0:0:
200,288,77926,1,0,0:0:0:0:
104,364,78098,1,2,0:2:0:0:
8,292,78271,22,0,L|16:160,1,127.5,4|2,0:2|0:2,0:0:0:0:
60,96,78788,1,0,0:0:0:0:
8,292,79133,1,0,0:0:0:0:
80,268,79305,2,0,P|116:256|156:264,1,63.7500024318696,2|0,0:2|0:0,0:0:0:0:
272,216,79650,6,0,P|296:252|392:244,1,127.500004863739,4|2,0:2|0:2,0:0:0:0:
436,208,80167,1,0,0:0:0:0:
272,216,80512,1,0,0:0:0:0:
224,144,80684,2,0,L|228:72,1,63.7500024318696,2|0,0:2|0:0,0:0:0:0:
308,32,81030,6,0,P|360:16|416:32,2,95.6250036478044,4|2|0,0:2|0:2|0:0,0:0:0:0:
364,100,81719,2,0,P|408:112|440:172,2,95.6250036478044,0|2|0,0:0|0:2|0:0,0:0:0:0:
280,112,82409,6,0,L|136:120,1,127.500004863739,4|0,0:2|0:0,0:0:0:0:
92,176,82926,1,2,0:2:0:0:
188,312,83271,1,0,0:0:0:0:
188,312,83357,1,2,0:2:0:0:
188,312,83443,1,0,0:0:0:0:
248,252,83616,1,0,0:0:0:0:
328,272,83788,6,0,P|392:240|396:168,1,127.500004863739,4|0,0:2|0:0,0:0:0:0:
380,112,84305,1,2,0:2:0:0:
328,272,84650,1,0,0:0:0:0:
268,332,84823,2,0,P|220:332|188:308,1,63.7500024318696,2|0,0:2|0:0,0:0:0:0:
140,276,85167,6,0,L|132:124,1,127.500004863739,4|0,0:2|0:0,0:0:0:0:
160,68,85685,1,2,0:2:0:0:
140,276,86030,1,0,0:0:0:0:
220,236,86202,2,0,P|252:248|300:236,1,63.7500024318696,2|0,0:2|0:0,0:0:0:0:
372,164,86547,6,0,P|384:116|340:40,2,127.5,4|2|0,0:2|0:2|0:0,0:0:0:0:
264,120,87236,2,0,P|208:92|120:108,2,127.5,4|2|0,0:2|0:2|0:0,0:0:0:0:
372,164,87926,5,4,0:2:0:0:
424,264,88098,1,0,0:0:0:0:
328,248,88271,1,0,0:0:0:0:
311,267,88357,1,0,0:0:0:0:
289,280,88443,1,0,0:0:0:0:
264,285,88529,1,0,0:0:0:0:
240,280,88616,1,2,0:2:0:0:
254,245,88702,1,0,0:0:0:0:
255,207,88788,1,0,0:0:0:0:
242,171,88874,1,0,0:0:0:0:
217,143,88961,1,0,0:0:0:0:
196,175,89047,1,0,0:0:0:0:
164,195,89133,1,0,0:0:0:0:
127,199,89219,1,0,0:0:0:0:
91,187,89305,54,0,B|64:136|104:92|104:92|76:56|88:8,1,170,4|2,0:2|0:2,0:0:0:0:
228,0,89823,1,0,0:0:0:0:
308,120,89995,2,0,L|304:216,1,85,0|2,0:0|0:2,0:0:0:0:
440,252,90340,2,0,L|443:167,1,85,2|0,0:2|0:0,0:0:0:0:
356,52,90685,6,0,B|308:28|260:52|260:52|208:40,2,127.5,4|2|0,0:2|0:2|0:0,0:0:0:0:
424,180,91374,2,0,L|244:196,1,170,2|0,0:2|0:0,0:0:0:0:
140,284,91892,1,0,0:0:0:0:
24,364,92064,6,0,B|0:304|28:232|28:232|12:176,1,170,4|2,0:2|0:2,0:0:0:0:
56,60,92581,1,0,0:0:0:0:
200,80,92754,2,0,L|304:72,1,85,0|2,0:0|0:2,0:0:0:0:
244,212,93098,2,0,L|159:218,1,85,2|0,0:2|0:0,0:0:0:0:
20,264,93443,6,0,L|24:116,2,127.5,4|2|0,0:2|0:2|0:0,0:0:0:0:
140,344,94133,2,0,P|184:360|256:272,1,170
192,152,94650,1,0,0:0:0:0:
276,36,94823,70,0,B|404:40|404:40|452:68,1,170,4|2,0:2|0:2,0:0:0:0:
480,200,95340,1,0,0:0:0:0:
368,288,95512,2,0,P|324:304|256:280,1,85
232,164,95857,2,0,P|276:148|344:172,1,85,2|0,0:2|0:0,0:0:0:0:
388,276,96202,6,0,P|372:328|272:344,2,127.5,4|2|0,0:2|0:2|0:0,0:0:0:0:
312,152,96892,2,0,B|244:140|244:140|208:148|208:148|128:132,1,170,2|0,0:2|0:0,0:0:0:0:
28,48,97409,1,0,0:0:0:0:
28,192,97581,6,0,B|44:256|44:256|28:304|36:356|76:380,1,170,4|2,0:2|0:2,0:0:0:0:
196,376,98098,1,0,0:0:0:0:
304,280,98271,2,0,L|308:180,1,85
320,168,98530,1,0,0:0:0:0:
336,136,98616,1,0,0:0:0:0:
328,103,98702,1,0,0:0:0:0:
306,77,98788,1,0,0:0:0:0:
275,64,98875,1,0,0:0:0:0:
244,64,98961,6,0,L|68:72,1,170,4|4,0:2|0:2,0:0:0:0:
24,208,99478,1,0,0:0:0:0:
120,316,99650,2,0,L|289:308,1,170,4|4,0:2|0:2,0:0:0:0:
384,208,100167,1,0,0:0:0:0:
384,208,100254,1,0,0:0:0:0:
384,208,100340,70,0,B|408:160|368:124|368:124|392:76|376:32,1,170,4|2,0:2|0:2,0:0:0:0:
244,4,100857,1,0,0:0:0:0:
124,88,101030,2,0,L|32:92,1,85,0|2,0:0|0:2,0:0:0:0:
56,236,101374,2,0,L|140:239,1,85,2|0,0:2|0:0,0:0:0:0:
260,320,101719,6,0,L|256:176,2,127.5,4|2|0,0:2|0:2|0:0,0:0:0:0:
388,248,102409,2,0,B|384:196|384:196|408:140|384:60,1,170,2|0,0:2|0:0,0:0:0:0:
256,24,102926,1,0,0:0:0:0:
132,100,103098,6,0,L|124:220,1,85,4|0,0:2|0:0,0:0:0:0:
244,272,103443,2,0,L|238:187,1,85,2|0,0:2|0:0,0:0:0:0:
148,88,103788,1,0,0:0:0:0:
68,240,103961,1,0,0:0:0:0:
232,288,104133,2,0,P|284:280|324:320,1,85,2|0,0:2|0:0,0:0:0:0:
428,212,104478,6,0,P|408:152|448:72,2,127.5,4|2|0,0:2|0:2|0:0,0:0:0:0:
340,328,105167,2,0,B|300:336|264:300|264:300|224:336|184:324,1,170,0|0,0:0|0:0,0:0:0:0:
64,248,105685,1,0,0:0:0:0:
64,248,105771,1,0,0:0:0:0:
64,248,105857,70,0,L|72:44,1,170,4|2,0:2|0:2,0:0:0:0:
200,16,106374,1,0,0:0:0:0:
300,120,106547,2,0,L|304:220,1,85,0|2,0:0|0:2,0:0:0:0:
224,328,106892,2,0,P|180:348|116:328,1,85,2|0,0:2|0:0,0:0:0:0:
48,236,107236,6,0,L|44:104,1,127.5,4|0,0:2|0:0,0:0:0:0:
256,52,107754,1,0,0:0:0:0:
256,52,107840,1,0,0:0:0:0:
256,52,107926,2,0,B|300:48|300:48|380:68|380:68|440:64,1,170,2|0,0:2|0:0,0:0:0:0:
488,196,108443,1,0,0:0:0:0:
400,312,108616,6,0,L|284:304,1,85,4|0,0:2|0:0,0:0:0:0:
276,168,108961,2,0,L|360:173,1,85,2|0,0:2|0:0,0:0:0:0:
420,308,109305,1,0,0:0:0:0:
280,348,109478,1,0,0:0:0:0:
160,268,109650,1,0,0:0:0:0:
156,236,109736,1,0,0:0:0:0:
152,204,109823,1,0,0:0:0:0:
148,176,109909,1,0,0:0:0:0:
144,148,109995,6,0,L|280:160,2,127.5,4|2|0,0:2|0:2|0:0,0:0:0:0:
88,288,110685,5,4,0:2:0:0:
102,316,110771,1,0,0:0:0:0:
127,335,110857,1,0,0:0:0:0:
157,343,110943,1,0,0:0:0:0:
188,338,111030,1,0,0:0:0:0:
222,298,111116,1,0,0:0:0:0:
271,279,111202,1,0,0:0:0:0:
323,285,111288,1,0,0:0:0:0:
365,317,111374,1,4,0:0:0:0:
