osu file format v13

[General]
AudioFilename: 12-Cemetery of Onbashira - Grave of Being.mp3
AudioLeadIn: 0
PreviewTime: 34133
Countdown: 0
SampleSet: Normal
StackLeniency: 0.7
Mode: 1
LetterboxInBreaks: 0
SkinPreference:Default
WidescreenStoryboard: 0

[Editor]
DistanceSpacing: 1
BeatDivisor: 1
GridSize: 16
TimelineZoom: 0.4999999

[Metadata]
Title:Onbashira no Hakaba ~ Grave of Being
TitleUnicode:御柱の墓場 ~ Grave of Being
Artist:ZUN
ArtistUnicode:ZUN
Creator:Totoro le Pacha
Version:Kantan
Source:Touhou
Tags:th10 mof kanako yasaka stage 6 theme kenterz th 10 Mountain of Faith 東方風神録 Fuujinroku 東方プロジェクト team shanghai alice 上海アリス幻樂団 cemetery gengakudan
BeatmapID:310166
BeatmapSetID:120094

[Difficulty]
HPDrainRate:4
CircleSize:3
OverallDifficulty:3
ApproachRate:3
SliderMultiplier:1.2
SliderTickRate:2

[Events]
//Background and Video events
0,0,"Konachan.com - 43931 etogami_kazuya sky touhou yasaka_kanako2.jpg",0,20
//Break Periods
//Storyboard Layer 0 (Background)
//Storyboard Layer 1 (Fail)
//Storyboard Layer 2 (Pass)
//Storyboard Layer 3 (Foreground)
//Storyboard Sound Samples
//Background Colour Transformations
3,100,163,162,255

[TimingPoints]
1030,344.827586206897,4,1,0,70,1,0
34133,-100,4,1,0,70,0,1
56202,-100,4,1,0,70,0,0
89305,-100,4,1,0,70,0,1
111374,-100,4,1,0,70,0,0

[HitObjects]
256,192,1374,5,8,0:0:0:0:
256,192,2754,1,8,0:0:0:0:
240,96,4133,1,8,0:0:0:0:
240,96,5167,1,0,0:0:0:0:
240,96,5857,1,0,0:0:0:0:
240,96,6547,1,0,0:0:0:0:
240,96,6892,1,8,0:0:0:0:
240,96,7926,1,8,0:0:0:0:
256,192,8961,1,8,0:0:0:0:
256,192,9650,5,0,0:0:0:0:
256,192,10685,1,0,0:0:0:0:
256,192,11719,1,8,0:0:0:0:
256,192,12064,1,0,0:0:0:0:
256,192,12754,1,8,0:0:0:0:
256,192,13443,1,0,0:0:0:0:
256,192,14133,1,8,0:0:0:0:
256,192,14478,1,0,0:0:0:0:
256,192,14823,1,8,0:0:0:0:
256,192,16202,1,0,0:0:0:0:
256,192,16892,1,0,0:0:0:0:
256,192,17236,1,8,0:0:0:0:
256,192,17581,1,0,0:0:0:0:
256,192,18271,1,8,0:0:0:0:
256,192,18961,1,0,0:0:0:0:
208,192,19650,1,8,0:0:0:0:
208,192,19995,1,0,0:0:0:0:
208,192,20340,1,8,0:0:0:0:
208,192,21719,1,0,0:0:0:0:
208,192,22409,1,0,0:0:0:0:
208,192,22754,1,0,0:0:0:0:
208,192,23098,1,0,0:0:0:0:
208,192,24478,1,8,0:0:0:0:
208,192,25857,1,8,0:0:0:0:
208,192,26547,1,8,0:0:0:0:
208,192,27236,1,8,0:0:0:0:
208,192,28616,1,0,0:0:0:0:
208,192,29995,1,8,0:0:0:0:
208,192,31374,1,8,0:0:0:0:
208,192,32064,1,8,0:0:0:0:
208,192,32754,1,0,0:0:0:0:
208,192,33098,1,0,0:0:0:0:
208,192,33443,1,8,0:0:0:0:
208,192,34133,1,4,0:0:0:0:
208,192,35512,1,8,0:0:0:0:
208,192,35857,1,0,0:0:0:0:
208,192,36202,1,8,0:0:0:0:
208,192,36892,1,8,0:0:0:0:
208,192,38271,1,8,0:0:0:0:
208,192,38961,1,0,0:0:0:0:
208,192,39650,1,0,0:0:0:0:
208,192,41030,1,8,0:0:0:0:
208,192,41374,1,0,0:0:0:0:
208,192,41719,1,8,0:0:0:0:
208,192,42409,1,8,0:0:0:0:
208,192,43443,1,8,0:0:0:0:
208,192,43788,1,4,0:0:0:0:
208,192,44478,1,12,0:0:0:0:
208,192,45167,1,12,0:0:0:0:
208,192,46547,1,8,0:0:0:0:
208,192,46892,1,0,0:0:0:0:
208,192,47236,1,8,0:0:0:0:
208,192,47926,1,8,0:0:0:0:
208,192,49305,1,8,0:0:0:0:
208,192,49995,1,0,0:0:0:0:
208,192,50685,1,0,0:0:0:0:
208,192,52064,1,8,0:0:0:0:
208,192,52409,1,0,0:0:0:0:
208,192,52754,1,8,0:0:0:0:
208,192,53443,1,8,0:0:0:0:
208,192,54823,1,8,0:0:0:0:
208,192,55512,1,0,0:0:0:0:
256,192,56202,1,0,0:0:0:0:
256,192,56547,5,8,0:0:0:0:
256,192,57927,1,8,0:0:0:0:
240,96,59306,1,8,0:0:0:0:
240,96,60340,1,0,0:0:0:0:
240,96,61030,1,0,0:0:0:0:
240,96,61720,1,0,0:0:0:0:
240,96,62065,1,8,0:0:0:0:
240,96,63099,1,8,0:0:0:0:
256,192,64134,1,8,0:0:0:0:
256,192,64823,5,0,0:0:0:0:
256,192,65858,1,0,0:0:0:0:
256,192,66892,1,8,0:0:0:0:
256,192,67237,1,0,0:0:0:0:
256,192,67927,1,8,0:0:0:0:
256,192,68616,1,0,0:0:0:0:
256,192,69306,1,8,0:0:0:0:
256,192,69651,1,0,0:0:0:0:
256,192,69996,1,8,0:0:0:0:
256,192,71375,1,0,0:0:0:0:
256,192,72065,1,0,0:0:0:0:
256,192,72409,1,8,0:0:0:0:
256,192,72754,1,0,0:0:0:0:
256,192,73444,1,8,0:0:0:0:
256,192,74134,1,0,0:0:0:0:
208,192,74823,1,8,0:0:0:0:
208,192,75168,1,0,0:0:0:0:
208,192,75513,1,8,0:0:0:0:
208,192,76892,1,0,0:0:0:0:
208,192,77582,1,0,0:0:0:0:
208,192,77927,1,0,0:0:0:0:
208,192,78271,1,0,0:0:0:0:
208,192,79651,1,8,0:0:0:0:
208,192,81030,1,8,0:0:0:0:
208,192,81720,1,8,0:0:0:0:
208,192,82409,1,8,0:0:0:0:
208,192,83789,1,0,0:0:0:0:
208,192,85168,1,8,0:0:0:0:
208,192,86547,1,8,0:0:0:0:
208,192,87237,1,8,0:0:0:0:
208,192,87927,1,0,0:0:0:0:
208,192,88271,1,0,0:0:0:0:
208,192,88616,1,8,0:0:0:0:
208,192,89306,1,4,0:0:0:0:
208,192,90685,1,8,0:0:0:0:
208,192,91030,1,0,0:0:0:0:
208,192,91375,1,8,0:0:0:0:
208,192,92065,1,8,0:0:0:0:
208,192,93444,1,8,0:0:0:0:
208,192,94134,1,0,0:0:0:0:
208,192,94823,1,0,0:0:0:0:
208,192,96203,1,8,0:0:0:0:
208,192,96547,1,0,0:0:0:0:
208,192,96892,1,8,0:0:0:0:
208,192,97582,1,8,0:0:0:0:
208,192,98616,1,8,0:0:0:0:
208,192,98961,1,4,0:0:0:0:
208,192,99651,1,12,0:0:0:0:
208,192,100340,1,12,0:0:0:0:
208,192,101720,1,8,0:0:0:0:
208,192,102065,1,0,0:0:0:0:
208,192,102409,1,8,0:0:0:0:
208,192,103099,1,8,0:0:0:0:
208,192,104478,1,8,0:0:0:0:
208,192,105168,1,0,0:0:0:0:
208,192,105858,1,0,0:0:0:0:
208,192,107237,1,8,0:0:0:0:
208,192,107582,1,0,0:0:0:0:
208,192,107927,1,8,0:0:0:0:
208,192,108616,1,8,0:0:0:0:
208,192,109996,1,8,0:0:0:0:
208,192,110685,1,0,0:0:0:0:
256,192,111375,1,0,0:0:0:0:
