osu file format v9

[General]
AudioFilename: Touhou 13 Ten Desires Music - 2 - New.mp3
AudioLeadIn: 2000
PreviewTime: 39693
Countdown: 0
SampleSet: Soft
StackLeniency: 0.7
Mode: 0
LetterboxInBreaks: 1

[Editor]
Bookmarks: 7072
DistanceSpacing: 1
BeatDivisor: 4
GridSize: 4

[Metadata]
Title:Night Sakura of Dead Spirits
Artist:ZUN
Creator:Elly-chan
Version:Eternal Wandering
Source:Touhou
Tags:Ten Desires Yuyuko Saigyouji Saigyouzi Pereira006 Rikers Kite _LRJ_

[Difficulty]
HPDrainRate:6
CircleSize:4
OverallDifficulty:6
ApproachRate:8
SliderMultiplier:1.6
SliderTickRate:2

[Events]
//Background and Video events
0,0,"Eternal Wandering.jpg"
//Break Periods
//Storyboard Layer 0 (Background)
//Storyboard Layer 1 (Fail)
//Storyboard Layer 2 (Pass)
//Storyboard Layer 3 (Foreground)
//Storyboard Sound Samples
//Background Colour Transformations
3,100,163,162,255

[TimingPoints]
20,425.531914893617,4,2,1,36,1,0
126,-133.333333333333,4,2,1,36,0,0
11722,410.958904109589,4,2,1,36,1,0
13468,-100,4,2,1,36,0,0
13571,408.163265306122,4,2,1,36,1,0
13571,-125,4,2,1,27,0,0
13979,-125,4,2,1,36,0,0
14387,-125,4,2,1,27,0,0
14795,-125,4,2,1,36,0,0
15203,-125,4,2,1,27,0,0
15407,-125,4,2,1,36,0,0
16019,-125,4,2,1,27,0,0
16224,-125,4,2,1,36,0,0
16836,-125,4,2,1,27,0,0
17244,-125,4,2,1,36,0,0
17652,-125,4,2,2,17,0,0
17703,-125,4,2,1,36,0,0
18468,-125,4,2,1,27,0,0
18673,-125,4,2,1,36,0,0
19285,-125,4,2,1,27,0,0
19387,-125,4,2,1,36,0,0
20101,-125,4,2,1,27,0,0
20407,-125,4,2,1,36,0,0
20917,-125,4,2,2,17,0,0
21019,-125,4,2,1,36,0,0
22550,-125,4,2,1,27,0,0
22652,-125,4,2,1,36,0,0
23366,-125,4,2,1,27,0,0
23468,-125,4,2,1,36,0,0
24183,-125,4,2,1,27,0,0
24591,-125,4,2,1,36,0,0
24999,-125,4,2,1,27,0,0
25203,-125,4,2,1,36,0,0
25815,-125,4,2,1,27,0,0
25917,-125,4,2,1,36,0,0
26428,-125,4,2,1,19,0,0
26632,-111.111111111111,4,2,1,28,0,0
27040,-111.111111111111,4,2,1,36,0,0
27448,-111.111111111111,4,2,1,28,0,0
27856,-111.111111111111,4,2,1,36,0,0
28264,-111.111111111111,4,2,1,28,0,0
28673,-111.111111111111,4,2,1,36,0,0
29081,-111.111111111111,4,2,1,28,0,0
29489,-111.111111111111,4,2,1,36,0,0
30101,-111.111111111111,4,2,1,36,0,0
30713,-111.111111111111,4,2,1,28,0,0
31122,-111.111111111111,4,2,1,36,0,0
31326,-111.111111111111,4,2,1,22,0,0
31428,-111.111111111111,4,2,1,36,0,0
32346,-111.111111111111,4,2,1,28,0,0
32448,-111.111111111111,4,2,1,36,0,0
33162,-105.263157894737,4,2,1,45,0,0
39693,-100,4,2,1,45,0,1
40509,-100,4,2,2,30,0,1
40611,-100,4,2,1,45,0,1
41326,-100,4,2,1,45,0,1
41530,-100,4,2,1,40,0,1
41734,-100,4,2,1,36,0,1
41938,-100,4,2,1,40,0,1
42142,-100,4,2,1,45,0,1
42346,-100,4,2,1,40,0,1
42550,-100,4,2,1,45,0,1
43775,-100,4,2,2,30,0,1
43877,-100,4,2,1,45,0,1
44591,-100,4,2,2,30,0,1
44693,-100,4,2,1,45,0,1
47040,-100,4,2,2,30,0,1
47142,-100,4,2,1,45,0,1
50305,-100,4,2,2,30,0,1
50407,-100,4,2,1,45,0,1
56836,-100,4,2,2,30,0,1
56938,-100,4,2,1,45,0,1
57652,-100,4,2,2,30,0,1
57754,-100,4,2,1,45,0,1
60101,-100,4,2,2,30,0,1
60203,-100,4,2,1,45,0,1
60917,-100,4,2,2,30,0,1
61019,-100,4,2,1,45,0,1
63366,-100,4,2,2,30,0,1
63468,-100,4,2,1,45,0,1
65815,-111.111111111111,4,2,1,45,0,0
72142,-105.263157894737,4,2,1,45,0,0
78060,-105.263157894737,4,2,1,45,0,0
78877,-100,4,2,1,46,0,1
91938,-100,4,2,1,36,0,0

[Colours]
Combo1 : 196,0,196
Combo2 : 117,186,255

[HitObjects]
336,328,19,1,2
336,328,658,2,0,B|452:320|496:200|444:100,1,299.999991059304,2|0
404,68,1934,1,0
352,76,2147,1,2
200,152,2573,5,0
180,100,2785,1,2
132,80,2998,1,0
80,84,3211,1,0
80,84,3317,1,0
80,84,3424,2,0,B|36:136|76:200,1,119.999996423721,2|0
124,180,4062,2,0,B|168:232|128:296,2,119.999996423721,2|0|2
160,140,5126,5,0
200,104,5339,1,0
252,96,5551,1,0
304,108,5764,1,2
424,164,5977,5,0
384,200,6190,1,0
332,208,6402,1,0
280,196,6615,1,2
240,160,6828,2,0,B|220:112|248:76,1,89.9999973177911,0|0
324,44,7466,2,0,B|392:28|448:64|452:132,1,179.999994635582,2|0
392,264,8530,5,2
352,300,8743,1,0
300,312,8956,1,0
248,308,9168,1,0
132,280,9381,5,2
172,244,9594,1,0
224,232,9807,1,2
276,236,10020,1,0
328,256,10232,2,0,B|384:220|372:152,1,119.999996423721,2|0
320,156,10871,2,0,B|308:92|364:52,2,119.999996423721,2|0|2
208,72,12132,1,2
88,168,12543,5,0
88,168,12646,1,0
88,168,12749,1,2
48,248,12954,1,0
112,316,13160,1,2
192,268,13365,1,0
176,180,13571,6,0,B|208:120|168:56,1,128,8|2
256,40,14183,1,0
342,58,14387,2,0,B|304:120|336:180,1,128,8|2
352,204,14897,1,0
376,220,14999,1,0
404,220,15101,1,0
432,212,15203,6,0,B|460:232|468:264,1,64,8|0
444,352,15611,2,0,B|416:332|408:300,1,64,2|0
336,272,16019,1,8
280,328,16224,1,0
256,252,16428,1,2
204,312,16632,5,0
204,312,16734,1,0
204,312,16836,2,0,B|136:304|100:240,1,128,8|2
68,148,17448,2,0,B|136:156|172:220,1,128
244,216,18060,1,2
268,204,18162,1,0
288,184,18264,1,0
296,156,18366,1,0
292,128,18468,1,8
188,76,18877,1,2
100,72,19081,5,0
56,112,19285,1,8
40,168,19489,1,0
44,224,19693,1,2
72,272,19897,1,0
124,300,20101,2,0,B|180:288|216:328,1,96,8|2
288,284,20713,2,0,B|228:248|236:176,1,128,2|0
236,175,21326,1,2
236,175,21530,1,0
296,76,21938,5,0
296,76,22040,1,0
296,76,22142,1,2
372,52,22346,1,0
356,132,22550,1,8
432,108,22754,1,0
452,128,22856,1,0
460,156,22958,1,2
456,184,23060,1,0
440,208,23162,1,0
416,220,23264,1,0
388,228,23366,6,0,B|332:264|344:324|364:352,1,128,8|2
424,296,23979,1,0
424,296,24183,2,0,B|480:260|468:200|448:172,1,128,8|2
408,124,24795,1,0
332,140,24999,1,8
288,212,25203,2,0,B|300:288|228:336|160:312,1,192,0|8
140,300,25917,1,0
120,280,26019,1,0
108,252,26122,1,0
108,224,26224,1,2
200,228,26428,1,4
156,136,26632,6,0,B|120:124|100:88,2,71.9999965667726,8|0|2
176,60,27244,1,0
232,120,27448,2,0,B|268:132|288:168,2,71.9999965667726,8|0|2
216,196,28060,1,0
136,212,28264,2,0,B|96:208|68:232,2,71.9999965667726,8|0|2
120,288,28877,1,0
196,272,29081,2,0,B|236:268|264:292,2,71.9999965667726,8|0|2
212,348,29693,1,0
404,336,30101,5,0
432,312,30203,1,0
444,280,30305,1,2
404,212,30509,1,0
452,148,30713,2,0,B|484:124|480:84,2,71.9999965667726,8|0|2
404,92,31326,6,0,B|388:48|356:32|320:28|280:48,1,143.999993133545,4|2
286,44,31938,1,2
328,116,32142,1,0
328,116,32244,1,0
328,116,32346,1,8
280,184,32550,1,0
204,156,32754,1,0
204,72,32958,5,0
204,72,33060,1,0
204,72,33162,2,0,B|180:36|136:40,2,75.9999972820283,8|0|2
144,120,33775,1,0
164,192,33979,2,0,B|188:228|232:224,2,75.9999972820283,8|0|2
228,148,34591,1,0
288,100,34795,2,0,B|324:80|360:92,2,75.9999972820283,8|0|2
332,164,35407,1,0
416,184,35611,5,8
464,280,35815,1,0
372,348,36019,1,2
372,260,36224,1,0
372,260,36326,1,0
372,260,36428,1,8
280,284,36632,5,0
280,284,36734,1,0
280,284,36836,1,2
316,188,37040,1,0
268,96,37244,1,8
180,40,37448,1,0
68,60,37652,1,2
68,60,37856,1,4
124,132,38060,5,8
108,220,38264,1,0
40,276,38468,1,2
40,276,38571,1,0
40,276,38673,1,0
120,304,38877,1,8
132,312,38979,1,0
144,320,39081,1,0
156,328,39183,1,0
168,336,39285,2,0,B|200:356,3,37.9999986410141,2|0|0|0
200,356,39693,6,0,B|288:364|344:300,1,160,8|2
432,196,40305,2,0,B|344:188|288:252,1,160
208,260,40917,1,2
188,244,41019,1,0
168,224,41122,1,0
132,156,41326,5,8
224,148,41530,1,0
128,64,41734,1,2
260,32,41938,1,0
340,120,42142,1,8
448,52,42346,1,0
460,184,42550,5,2
448,276,42754,1,0
448,276,42856,1,0
448,276,42958,2,0,B|384:332|296:312,1,160,8|2
176,276,43571,2,0,B|240:220|328:240,1,160
392,184,44183,1,2
412,164,44285,1,0
416,136,44387,2,0,B|400:80|348:56|288:80,1,160
288,79,44999,1,2
176,68,45203,5,0
176,68,45305,1,0
176,68,45407,1,8
100,128,45611,1,0
196,160,45815,1,2
48,208,46019,1,0
144,244,46224,6,0,B|120:304|156:360|212:364,1,160,8|2
368,244,46836,2,0,B|392:304|356:360|300:364,1,160,0|2
256,264,47448,1,2
256,236,47550,1,0
256,208,47652,1,0
256,120,47856,1,8
208,48,48060,6,0,B|172:68,2,40,0|0|2
304,48,48468,2,0,B|340:68,2,40,0|0|8
256,120,48877,1,0
208,48,49081,1,2
304,48,49285,1,0
256,120,49489,2,0,B|248:168|212:196|176:200|132:184,1,160,8|2
56,184,50101,2,0,B|64:136|100:108|136:104|180:120,1,160
177,119,50611,1,0
177,119,50713,1,2
288,56,50917,5,0
420,72,51122,1,8
452,208,51326,1,2
452,208,51530,1,2
340,172,51734,5,0
340,172,51836,1,0
340,172,51938,1,8
256,228,52142,1,2
172,172,52346,1,2
256,132,52550,1,0
316,68,52754,6,0,B|344:36|388:40,2,80,8|0|0
196,68,53366,2,0,B|168:36|124:40,2,80,0|8|0
256,132,53979,1,2
256,160,54081,1,0
256,188,54183,1,0
364,208,54387,5,8
320,300,54591,1,0
148,208,54795,5,2
192,300,54999,1,0
204,152,55203,5,8
160,60,55407,1,2
308,152,55611,5,2
352,60,55815,1,0
352,60,55917,1,0
352,60,56019,2,0,B|404:36|464:68|468:128,1,160,8|2
392,128,56632,2,0,B|340:152|280:120|276:60,1,160
184,32,57244,1,2
104,72,57448,2,0,B|48:104|48:168|96:208,1,160
120,216,57958,1,0
148,212,58060,1,2
200,144,58264,1,2
272,204,58468,5,8
328,120,58673,1,0
328,120,58877,1,2
432,112,59081,1,2
376,220,59285,2,0,B|388:280|356:332|308:356,1,160,8|2
136,220,59897,2,0,B|124:280|156:332|204:356,1,160
256,248,60509,1,2
184,156,60713,6,0,B|228:116|284:116|328:156,1,160
328,156,61224,1,0
328,156,61326,1,2
256,248,61530,1,2
184,156,61734,1,8
104,60,61938,1,0
84,80,62040,1,0
76,108,62142,1,2
80,136,62244,1,0
92,164,62346,1,2
96,192,62448,1,0
80,216,62550,6,0,B|67:275|115:323|172:314,1,160,8|2
155,237,63162,2,0,B|212:228|260:276|248:336,1,160
264,356,63673,1,0
288,368,63775,1,0
316,364,63877,1,0
340,352,63979,2,0,B|376:328|416:336,2,80,2|8|0
300,280,64591,1,8
388,248,64795,5,2
396,236,64897,1,0
404,224,64999,1,2
412,212,65101,1,0
420,200,65203,1,0
428,188,65305,1,0
436,176,65407,1,12
476,100,65611,1,2
376,56,65815,6,0,B|368:96|332:112,2,71.9999965667726,8|0|2
300,40,66428,1,0
256,104,66632,2,0,B|222:119|214:159,2,71.9999965667726,12|0|2
292,172,67244,1,12
284,248,67448,2,0,B|291:287|325:302,2,71.9999965667726,8|0|2
359,232,68060,1,0
403,296,68264,2,0,B|436:311|444:350,2,71.9999965667726,4|0|6
367,364,68877,1,0
367,364,68979,1,0
367,364,69081,1,12
288,352,69285,6,0,B|248:360|220:332,2,71.9999965667726,0|0|0
272,276,69897,1,12
240,200,70101,1,0
176,144,70305,1,2
104,104,70509,2,0,B|144:44|204:4|308:4|368:44|408:104,1,359.999982833863,12|12
408,104,71938,1,12
452,184,72142,5,0
448,196,72244,1,0
444,208,72346,1,8
392,284,72550,1,0
344,208,72754,1,6
260,180,72958,1,0
236,48,73162,5,8
172,112,73366,1,0
164,208,73570,1,4
196,296,73775,1,0
284,344,73979,6,0,B|324:340|356:320,1,75.9999972820283,8|0
444,216,74387,2,0,B|404:220|372:240,1,75.9999972820283,6|0
280,248,74795,1,8
244,152,74999,1,0
300,64,75203,1,4
408,60,75407,6,0,B|472:68|488:124|464:176,1,151.999994564057
416,260,76019,1,6
308,288,76224,1,0
200,276,76428,1,0
104,208,76632,1,0
72,100,76836,5,2
72,100,77040,2,0,B|184:52|256:52|328:52|440:100,1,379.999986410141,12|8
439,99,78162,1,0
439,99,78264,1,0
439,99,78366,1,0
440,100,78468,1,12
432,184,78673,5,0
436,200,78775,1,0
436,216,78877,2,0,B|436:260|408:292,2,80,0|0|6
256,248,79489,1,0
75,216,79693,2,0,B|76:260|102:289,2,80,0|0|4
256,248,80305,1,0
152,104,80509,6,0,B|136:60|100:48,2,80,0|0|6
256,248,81122,1,0
360,104,81326,2,0,B|376:60|412:48,2,80,0|0|4
256,88,81938,2,0,B|256:252,1,160,2|0
368,264,82550,5,6
256,336,82754,1,0
144,264,82958,1,0
256,248,83162,1,0
196,168,83366,1,0
316,168,83570,6,0,B|308:104|332:40|400:28|436:88|420:128|372:124,1,240,6|0
256,64,84387,1,0
138,124,84591,2,0,B|92:128|76:88|112:28|180:40|204:104|196:168,1,240,6|0
196,167,85305,1,0
196,167,85407,1,2
96,220,85611,6,0,B|52:236|48:280,2,80,0|12|0
152,328,86224,1,2
256,244,86428,1,0
360,328,86632,1,12
416,220,86836,6,0,B|460:236|464:280,2,80,0|2|0
324,120,87448,1,12
188,120,87652,1,0
96,220,87856,2,0,B|52:236|48:280,2,80,2|0|12
180,256,88468,6,0,B|224:284|288:284|332:256,1,160
344,176,89081,1,12
344,176,89285,1,0
256,116,89489,1,2
256,116,89693,1,0
168,176,89897,1,2
168,176,90101,1,12
256,192,90305,12,4,91938
