osu file format v9

[General]
AudioFilename: Touhou 13 Ten Desires Music - 2 - New.mp3
AudioLeadIn: 2000
PreviewTime: 39693
Countdown: 0
SampleSet: Soft
StackLeniency: 0.7
Mode: 0
LetterboxInBreaks: 1

[Editor]
DistanceSpacing: 1
BeatDivisor: 4
GridSize: 4

[Metadata]
Title:Night Sakura of Dead Spirits
Artist:ZUN
Creator:Elly-chan
Version:Easy
Source:Touhou
Tags:Ten Desires Yuyuko Saigyouji Saigyouzi Pereira006 Rikers Kite _LRJ_

[Difficulty]
HPDrainRate:2
CircleSize:3
OverallDifficulty:2
ApproachRate:3
SliderMultiplier:0.7
SliderTickRate:2

[Events]
//Background and Video events
0,0,"Easy.jpg"
//Break Periods
//Storyboard Layer 0 (Background)
//Storyboard Layer 1 (Fail)
//Storyboard Layer 2 (Pass)
//Storyboard Layer 3 (Foreground)
//Storyboard Sound Samples
//Background Colour Transformations
3,100,163,162,255

[TimingPoints]
20,425.531914893617,4,2,0,75,1,0
11722,413.793103448276,4,2,0,75,1,0
13571,408.163265306122,4,1,0,50,1,0
39693,-100,4,1,0,50,0,1
65815,-100,4,1,0,50,0,0
78877,-100,4,1,0,50,0,1
91938,-100,4,1,0,50,0,0

[Colours]
Combo1 : 226,226,226
Combo2 : 117,186,255
Combo3 : 196,0,196

[HitObjects]
468,64,19,2,0,B|348:64,1,105,0|2
263,163,1722,6,0,B|183:163,1,70
122,163,2573,2,0,B|78:231,1,70
83,291,3424,6,0,B|200:328|200:328|320:284,1,245,0|2
456,184,5977,2,0,B|456:108,1,70,0|0
456,57,6828,1,0
372,57,7466,1,2
372,197,8530,6,0,B|372:317,2,105,0|0|0
315,197,10232,2,0,B|267:157|216:200,1,105,0|2
111,194,11722,6,0,B|43:194,1,70,0|0
41,299,12756,1,0
90,348,13170,1,2
161,348,13571,6,0,B|193:352|221:328|221:328|241:328|313:360|333:296|345:264|345:264|377:248|385:212,1,280,0|2
264,252,16019,1,2
363,152,16836,6,0,B|331:148|303:172|303:172|282:172|211:140|191:203|179:235|179:235|147:252|139:287,1,280,0|2
272,324,19285,6,0,B|321:372|409:368,1,140,0|0
505,368,20713,1,0
505,192,21734,5,0
406,93,22550,1,0
266,93,23366,2,0,B|212:131|160:91,1,105,0|0
44,220,24999,1,0
183,220,25815,2,0,B|331:220,1,140
422,120,27448,6,0,B|270:120,2,140,0|0|0
492,240,29897,1,0
393,338,30713,1,0
293,238,31530,1,0
192,136,32346,2,0,B|152:208|196:276,1,140,2|0
300,356,33979,5,0
376,240,34795,1,0
376,100,35611,2,0,B|448:64|524:108,1,140,0|0
510,241,37244,1,0
435,315,37856,1,4
256,192,38060,12,2,39693
256,192,40305,5,2
340,348,41326,2,0,B|432:364|460:284,1,140
456,154,42958,1,2
351,154,43571,1,2
210,154,44387,1,4
152,320,45407,1,0
220,196,46224,6,0,B|300:116|420:148,1,210,2|0
413,216,47856,2,0,B|413:336,2,105,0|0|0
413,145,49489,1,2
308,145,50101,1,2
168,145,50917,6,0,B|168:73,1,70,0|0
62,75,51938,1,0
24,136,52346,1,0
28,204,52754,2,0,B|56:315|204:307,1,210,2|0
244,264,54387,6,0,B|245:183,1,70
314,194,55203,2,0,B|314:122,1,70
314,54,56019,1,2
208,54,56632,1,2
138,54,57040,2,0,B|138:138,1,70,0|4
312,120,58468,6,0,B|312:232,1,105
312,260,59285,2,0,B|324:316|384:340,2,105,2|2|0
242,260,60917,5,4
101,260,61734,2,0,B|34:218|100:173|100:173|100:145,1,140,0|2
100,40,63162,1,2
240,40,63979,2,0,B|240:140,1,70,0|4
416,285,65815,6,0,B|499:285,2,70,8|0|8
345,285,67040,2,8,B|344:368,2,70,0|8|0
296,236,68264,1,8
225,236,68673,2,0,B|145:236,1,70,0|8
85,236,69489,1,0
15,236,69897,2,8,B|-34:180|42:124,1,105,8|8
194,143,71530,5,0
259,119,71938,1,0
324,144,72346,1,8
422,242,73162,6,8,B|350:270|282:242,1,140
186,144,74795,1,8
87,242,75611,1,8
186,341,76428,2,8,B|326:341,1,140
424,242,78060,1,8
424,101,78877,5,8
284,101,79693,2,8,B|283:246,1,140
389,332,81326,2,8,B|277:236,1,140
175,330,82958,2,8,B|288:236,1,140,8|8
381,339,84591,1,4
476,236,85407,6,8,B|528:176|468:104,1,140
332,109,87040,1,8
192,109,87856,1,8
92,208,88673,1,8
190,306,89489,1,8
294,306,90101,1,2
256,192,90305,12,4,91938
