osu file format v8

[General]
AudioFilename: Yukari's Theme - Necrofantasia.mp3
AudioLeadIn: 500
PreviewTime: 73382
Countdown: 0
SampleSet: Soft
StackLeniency: 0.7
Mode: 0
LetterboxInBreaks: 1

[Editor]
DistanceSpacing: 1
BeatDivisor: 4
GridSize: 8

[Metadata]
Title:Necrofantasia
Artist:ZUN
Creator:Fight69
Version:Normal
Source:Touhou
Tags:Yukari Yakumo Neethime LRJ _LRJ_ wmfchris Phantasm Perfect Cherry Blossom

[Difficulty]
HPDrainRate:3
CircleSize:3
OverallDifficulty:3
ApproachRate:3
SliderMultiplier:1
SliderTickRate:1

[Events]
//Background and Video events
0,0,"BG.jpg"
//Break Periods
2,48710,52923
2,71759,71948
//Storyboard Layer 0 (Background)
//Storyboard Layer 1 (Fail)
//Storyboard Layer 2 (Pass)
//Storyboard Layer 3 (Foreground)
//Storyboard Sound Samples
//Background Colour Transformations
3,100,163,162,255

[TimingPoints]
1681,365.853658536585,4,2,0,100,1,0
54175,-100,4,1,0,50,0,0
54541,-100,4,2,0,100,0,0
54907,-100,4,1,0,60,0,0
55455,-100,4,2,0,100,0,0
56370,-100,4,1,0,60,0,0
56919,-100,4,2,0,100,0,0
57833,-100,4,1,0,60,0,0
58382,-100,4,2,0,100,0,0
60760,-100,4,1,0,50,0,0
61126,-100,4,2,0,100,0,0
62224,-100,4,1,0,50,0,0
62772,-100,4,2,0,100,0,0
66614,-100,4,1,0,50,0,0
67162,-100,4,2,0,100,0,0
68077,-100,4,1,0,50,0,0
68626,-100,4,2,0,100,0,0
69175,-100,4,1,0,50,0,0
69902,-100,4,1,0,50,0,0
70268,-100,4,2,0,100,0,0
73357,-100,4,2,0,100,0,1
96798,-100,4,2,0,100,0,0

[Colours]
Combo1 : 103,56,146
Combo2 : 255,150,100
Combo3 : 254,210,107
Combo4 : 252,125,122

[HitObjects]
64,176,1681,2,0,B|80:96|168:72,1,150,4|2
264,72,2595,2,2,B|382:71,1,100
368,168,3327,2,2,B|250:167,1,100
168,176,4059,1,0
168,224,4241,1,0
232,304,4607,6,2,B|336:312|352:208,1,150
424,296,5522,2,2,B|456:256|440:200,1,100
456,104,6254,2,0,B|336:104,1,100,2|0
304,104,6802,2,0,B|200:104|200:192|112:192,1,200,0|4
80,208,7717,6,0,B|80:308,1,100,2|0
176,272,8449,2,0,B|248:344,1,100,2|0
280,248,9180,2,0,B|352:248,5,50,2|0|0|2|0|2
432,248,10461,6,2,B|480:192|472:104,1,150
370,107,11376,2,2,B|370:35,2,50,0|0|4
72,136,12839,6,0,B|72:232|104:248,1,100
128,272,13388,2,2,B|200:320|272:264,1,150
336,200,14302,2,2,B|296:160|232:184,1,100
192,96,15034,2,2,B|240:64|304:80,1,100
384,88,15766,6,2,B|384:144|424:144|424:232,1,150
432,280,16498,2,2,B|376:304|328:280,1,100
336,184,17229,2,2,B|294:163|238:187,1,100
208,280,17961,2,2,B|152:304|104:280,1,100
72,256,18510,2,0,B|72:152|120:152|120:48,1,200,0|4
168,48,19424,6,2,B|272:48,1,100
368,48,20156,2,2,B|368:104|304:136,1,100
216,128,20888,2,0,B|160:128,5,50,2|0|0|2|0|2
64,112,22168,6,2,B|64:192|96:216,1,100
128,240,22717,2,2,B|208:312,1,100
296,336,23449,2,2,B|416:352|464:232,1,200,2|0
224,144,25095,6,0,B|72:144,2,150,0|0|8
304,80,26559,2,0,B|456:80,2,150,0|0|8
256,176,28022,6,0,B|312:240|400:240,2,150,0|0|8
256,176,29485,2,0,B|200:240|112:240,2,150,0|0|8
256,72,30949,6,0,B|168:72|112:128,2,150,0|0|8
352,72,32412,2,2,B|456:72,1,100,2|8
400,160,33144,2,2,B|488:248,1,100,2|8
376,264,33876,6,0,B|320:320|224:336,1,150
96,312,34973,1,8
112,216,35339,2,0,B|168:160|264:144,1,150
384,88,36437,1,8
400,184,36802,6,0,B|448:248|400:328,2,150,4|0|8
296,184,38266,2,0,B|250:107|298:43,2,150,0|0|8
320,224,39546,1,0
344,272,39729,6,0,B|267:317|203:269,2,150,0|0|8
416,200,41193,2,0,B|461:123|413:59,2,150,0|0|8
320,176,42656,6,0,B|264:176|264:120|176:112,1,150,4|0
40,112,43754,1,8
40,208,44120,2,2,B|40:312,1,100,2|8
120,248,44851,2,2,B|192:320,1,100,2|8
216,224,45583,6,0,B|368:224,2,150,0|0|8
256,192,47046,12,4,48510
408,128,54363,6,0,B|336:72|256:72,2,150
408,232,55827,2,0,B|336:288|256:288,2,150
328,176,57290,2,0,B|160:176,2,150
428,176,58754,1,2
328,64,59302,1,2
176,64,59851,1,2
72,64,60217,6,0,B|72:160|176:176,2,150
176,64,61681,2,0,B|260:76|260:172,2,150
72,64,63144,1,2
72,216,63693,1,2
192,304,64241,1,4
440,88,66071,6,0,B|368:56|280:88,2,150
360,152,67534,2,0,B|288:184|200:152,2,150
400,248,68998,6,0,B|336:280|232:264,1,150
112,208,70095,1,0
56,96,70461,1,6
200,64,71010,1,6
344,96,71559,1,6
416,328,73388,6,0,B|312:328|240:240,1,200
248,144,74485,1,0
248,144,74668,2,0,B|136:112|40:152,2,200
296,168,76315,6,0,B|400:208,1,100
344,296,77046,2,0,B|296:320|232:320,1,100
200,320,77595,2,0,B|151:320|103:296,1,100
72,256,78144,2,0,B|16:160|80:56,1,200
120,48,79059,6,0,B|200:48|200:96|280:96,1,150,4|0
360,94,79973,2,2,B|464:96,1,100
456,96,80522,2,0,B|512:176|456:256,1,150,4|0
384,296,81437,6,2,B|336:328|280:296,1,100
248,272,81985,2,0,B|128:272,1,100,4|0
96,272,82534,2,0,B|64:216|104:160,1,100
152,96,83266,2,0,B|224:96,1,50,0|4
432,224,84912,5,0
432,224,85095,2,0,B|384:272|320:256,1,100,4|0
336,160,85827,2,0,B|232:160,1,100
184,160,86376,2,0,B|120:248|184:360,1,200,4|0
376,352,87839,5,0
376,352,88022,2,0,B|376:296|312:264,1,100,4|0
224,272,88754,2,0,B|224:216|288:184,1,100
328,192,89302,2,0,B|376:120|320:32,1,150,4|0
256,120,90217,2,0,B|144:120,1,100
104,120,90766,6,0,B|104:192|56:192|56:280,1,150,4|0
128,328,91680,2,2,B|192:328|224:280,1,100
256,256,92229,2,0,B|328:184,1,100,4|0
360,152,92778,2,0,B|360:96|304:64,1,100,0|2
216,40,93510,1,2
216,40,93693,1,4
256,192,93876,12,2,96071
256,104,96802,6,0,B|208:80|152:104,2,100
336,168,97900,1,0
336,168,98083,2,0,B|376:240|336:328,1,150,4|0
240,312,98998,2,2,B|136:312,1,100
104,272,99546,1,0
72,232,99729,6,2,B|48:176|80:112,1,100
136,64,100461,2,2,B|248:64,1,100
280,96,101010,2,0,B|368:168,1,100,4|0
360,208,101559,1,0
336,304,101924,1,2
232,304,102290,1,2
232,304,102473,6,0,B|192:224|232:144,1,150,4|0
280,80,103388,2,2,B|384:80,1,100
432,80,103937,2,0,B|465:145|425:225,1,150,4|0
328,256,104851,2,2,B|216:256,1,100
176,256,105400,6,0,B|80:256|80:160,1,150,4|0
184,160,106315,2,2,B|264:80,1,100
288,56,106863,2,0,B|400:56,4,100,4|0|0|0|0
240,56,108510,6,0,B|128:56,1,100,4|0
40,56,109241,2,0,B|40:176,1,100
40,208,109790,2,0,B|112:256|192:208,1,150,4|0
248,136,110705,2,0,B|360:136,1,100
400,136,111254,6,2,B|448:208|408:280,1,150
312,280,112168,2,2,B|192:280,1,100
168,256,112717,2,2,B|88:184,1,100,4|2
56,160,113266,1,0
128,88,113632,1,2
216,48,113998,1,0
216,48,114180,6,0,B|368:48,1,150,4|2
312,128,115095,1,2
368,208,115461,1,0
368,208,115644,2,0,B|216:208,1,150,4|2
280,288,116559,1,0
184,288,116924,1,0
184,288,117107,1,4
256,192,117290,12,2,119485
392,192,120217,6,0,B|376:88|248:56,1,200,4|0
160,56,121315,1,0
160,56,121498,1,0
160,56,121680,2,0,B|80:136,1,100,4|0
176,176,122412,2,2,B|176:288,1,100
176,320,122961,2,0,B|264:376|376:320,1,200,4|0
416,128,124424,5,0
416,128,124607,1,0
344,56,124973,2,0,B|240:56,1,100
168,120,125705,1,0
168,120,125888,2,0,B|168:192|216:224,1,100,4|0
240,248,126437,5,2
336,248,126802,1,2
432,216,127168,1,0
432,216,127351,2,0,B|464:196|464:124,1,100,4|0
464,72,127900,5,2
368,64,128266,1,2
264,64,128632,1,0
264,64,128815,2,0,B|184:48|112:104,1,150,4|2
88,192,129729,6,2,B|88:304,1,100
88,344,130278,1,4
432,56,131924,6,0,B|352:56|352:128|232:128,1,200,4|0
98,127,133205,2,0,B|58:199|98:287,1,150
192,272,134120,2,2,B|296:272,1,100
344,272,134668,2,2,B|416:200,1,100,4|2
416,152,135217,1,0
344,80,135583,2,2,B|240:80,1,100
192,80,136132,1,4
256,320,137595,6,0,B|352:320|400:272,1,150,4|2
395,175,138510,1,2
395,74,138876,1,0
394,74,139059,2,0,B|350:30|254:30,1,150,4|2
154,29,139973,1,2
80,104,140339,1,0
80,104,140522,1,4
256,192,140705,12,2,142900
416,88,143632,6,0,B|296:88,1,100,4|0
215,88,144363,2,2,B|103:88,1,100
64,88,144912,2,0,B|16:160|64:240,1,150,4|0
152,280,145827,2,2,B|256:280,1,100
304,280,146376,2,0,B|368:184|304:80,1,200,4|0
264,72,147290,6,2,B|152:72,1,100
112,72,147839,1,0
112,72,148022,1,0
72,168,148388,1,0
160,224,148754,1,0
248,168,149120,1,0
248,168,149302,6,0,B|400:168,1,150,4|2
336,248,150217,1,2
392,328,150583,1,0
392,328,150766,2,0,B|240:328,1,150,4|2
184,248,151680,1,2
184,152,152046,1,0
184,152,152229,6,0,B|184:64|280:40,1,150,4|0
368,40,153144,2,2,B|416:40|464:96,1,100
488,128,153693,1,4
40,56,155339,6,0,B|256:56,1,200,4|0
392,56,156620,2,2,B|456:56,3,50
392,144,157534,6,4,B|280:144,1,100,4|0
240,144,158083,1,2
128,240,158632,1,0
232,240,158998,2,2,B|352:240,1,100,4|2
384,240,159546,1,2
80,320,161010,6,0,B|80:248|128:248|128:176,1,150,4|0
32,168,161924,2,0,B|32:64|144:64,1,150,2|4
256,120,163022,1,0
256,224,163388,2,0,B|264:312|360:312,1,150,2|4
256,192,164120,12,4,167046
