osu file format v8

[General]
AudioFilename: Yukari's Theme - Necrofantasia.mp3
AudioLeadIn: 500
PreviewTime: 73382
Countdown: 0
SampleSet: Soft
StackLeniency: 0.7
Mode: 0
LetterboxInBreaks: 1

[Editor]
DistanceSpacing: 1
BeatDivisor: 4
GridSize: 8

[Metadata]
Title:Necrofantasia
Artist:ZUN
Creator:Fight69
Version:Lunatic
Source:Touhou
Tags:Yukari Yakumo Neethime LRJ _LRJ_ wmfchris Phantasm Perfect Cherry Blossom

[Difficulty]
HPDrainRate:7
CircleSize:4
OverallDifficulty:7
ApproachRate:7
SliderMultiplier:2
SliderTickRate:1

[Events]
//Background and Video events
0,0,"BG.jpg"
//Break Periods
2,48710,53463
2,71759,72488
//Storyboard Layer 0 (Background)
//Storyboard Layer 1 (Fail)
//Storyboard Layer 2 (Pass)
//Storyboard Layer 3 (Foreground)
//Storyboard Sound Samples
//Background Colour Transformations
3,100,163,162,255

[TimingPoints]
1681,365.853658536585,4,2,0,100,1,0
54175,-100,4,1,0,50,0,0
54541,-100,4,2,0,100,0,0
54907,-100,4,1,0,60,0,0
55455,-100,4,2,0,100,0,0
56370,-100,4,1,0,60,0,0
56919,-100,4,2,0,100,0,0
57833,-100,4,1,0,60,0,0
58382,-100,4,2,0,100,0,0
60760,-100,4,1,0,50,0,0
61126,-100,4,2,0,100,0,0
62224,-100,4,1,0,50,0,0
62772,-100,4,2,0,100,0,0
66614,-100,4,1,0,50,0,0
67162,-100,4,2,0,100,0,0
68077,-100,4,1,0,50,0,0
68626,-100,4,2,0,100,0,0
69175,-100,4,1,0,50,0,0
69540,-100,4,2,0,100,0,0
69723,-100,4,1,0,50,0,0
70089,-100,4,2,0,100,0,0
73388,-100,4,2,0,100,0,1
96798,-100,4,2,0,100,0,0

[Colours]
Combo1 : 103,56,146
Combo2 : 255,150,100
Combo3 : 254,210,107
Combo4 : 252,125,122

[HitObjects]
96,80,1681,1,0
192,80,1863,2,0,B|320:80,2,100,0|2|0
144,168,2412,1,0
248,168,2595,2,0,B|376:168,2,100,0|2|0
192,248,3144,1,0
288,248,3327,2,0,B|416:248,2,100,0|2|0
192,248,3876,1,0
120,176,4059,6,0,B|40:96,1,100,0|2
144,72,4424,2,0,B|264:72,1,100,0|2
344,72,4790,2,0,B|456:72,2,100,2|0|2
296,160,5339,1,2
192,160,5522,2,0,B|80:160,2,100,0|2|0
248,248,6071,1,0
352,248,6254,2,0,B|432:248|432:160,1,100,0|2
432,96,6620,1,0
328,96,6802,2,0,B|328:40,4,50,0|0|0|0|2
224,96,7351,2,0,B|120:96,1,100,0|2
160,192,7717,6,0,B|32:192,2,100,2|2|2
264,192,8266,1,0
368,192,8449,2,0,B|496:192,2,100,0|2|0
264,192,8998,1,0
336,264,9180,6,0,B|264:192,1,100
264,296,9546,2,0,B|264:192,1,100,0|2
192,264,9912,2,0,B|266:197,1,100,0|2
192,264,10278,1,0
120,336,10461,1,0
32,288,10644,5,2
104,224,10827,2,0,B|104:112,1,100,2|0
176,56,11193,1,0
280,56,11376,2,0,B|400:56,2,100,0|2|0
424,232,12839,6,0,B|408:296|320:304,1,100,0|2
344,200,13205,2,0,B|285:187|256:248,1,100
256,336,13571,2,0,B|136:336,1,100,0|2
88,272,13937,1,0
88,272,14120,1,0
88,168,14302,2,0,B|88:96|152:80,1,100,0|2
232,80,14668,1,0
232,80,14851,1,0
336,80,15034,2,0,B|408:160,1,100,0|2
408,256,15400,1,0
408,256,15583,1,0
328,312,15766,6,0,B|224:312,1,100,0|2
152,240,16132,2,0,B|280:240,1,100,0|2
344,200,16498,2,0,B|320:144|256:144,1,100,0|2
168,144,16863,1,0
168,144,17046,1,2
72,112,17229,2,2,B|96:56|160:56,1,100,0|2
248,56,17595,5,0
248,56,17778,1,2
352,56,17961,2,0,B|456:56,2,100,0|2|0
344,160,18510,1,0
344,168,18601,1,0
344,176,18693,1,0
344,184,18784,1,0
344,192,18876,1,2
336,288,19059,2,0,B|304:336|248:336,1,100,2|2
152,336,19424,6,0,B|80:336|48:288,1,100,2|2
56,200,19790,2,0,B|56:88,2,100,2|0|0
160,200,20339,1,2
264,200,20522,2,0,B|264:88,2,100
368,200,21071,2,0,B|296:280,1,100,2|0
232,344,21437,2,0,B|128:344,1,100,2|0
64,272,21802,2,0,B|64:168,1,100,2|0
152,120,22168,6,2,B|136:64|48:64,2,100,2|0|2
256,120,22717,1,0
256,120,22900,1,0
360,120,23083,2,0,B|376:64|464:64,2,100,0|2|0
256,192,23632,12,0,24729
64,72,25095,6,0,B|272:72,1,200,4|8
368,72,25644,1,0
472,72,25827,1,0
472,272,26193,1,8
272,272,26559,2,8,B|56:272,1,200,0|8
72,168,27107,1,0
464,72,27656,5,10
464,72,27839,1,2
360,72,28022,2,0,B|144:72,1,200,2|8
56,72,28571,1,2
256,296,29120,1,10
424,192,29485,2,0,B|208:192,1,200,2|8
120,192,30034,1,2
296,24,30400,6,2,B|352:48|352:120,1,100,2|10
352,200,30766,1,2
352,304,30949,1,4
152,264,31315,2,0,B|24:264,1,100,8|2
144,88,31863,1,2
240,88,32046,1,8
192,176,32229,1,2
288,176,32412,5,2
464,272,32778,1,8
464,72,33144,1,2
288,176,33510,1,8
288,176,33876,5,2
288,176,34241,1,8
288,176,34424,2,0,B|80:176,1,200,2|2
88,176,34973,1,8
256,72,35339,2,0,B|488:72,2,200,2|8|2
224,264,36437,5,8
240,360,36620,1,2
152,320,36802,2,0,B|84:330|32:256|56:176,1,200,0|8
152,184,37351,2,0,B|141:116|216:64|296:88,1,200,2|2
384,120,37900,1,8
384,320,38266,2,0,B|310:342|235:290|240:216,1,200,2|8
240,128,38815,2,0,B|244:62|169:10|95:32,1,200,2|2
64,128,39363,1,2
64,232,39546,1,8
160,240,39729,6,0,B|264:304|384:216,1,200,2|8
344,136,40278,2,0,B|240:72|120:160,1,200,2|0
240,192,40827,1,8
64,136,41193,2,0,B|56:72|125:10|224:24,1,200,2|8
272,88,41741,2,0,B|280:152|210:213|112:200,1,200,2|0
208,272,42290,1,8
208,272,42656,6,0,B|328:272,2,100,4|0|8
152,192,43205,1,2
256,24,43571,1,2
352,24,43754,1,8
304,112,43937,1,0
208,112,44120,2,0,B|96:112,1,100,2|0
56,192,44485,2,0,B|160:192,1,100,8|0
208,272,44851,2,0,B|96:272,1,100,2|0
168,352,45217,2,0,B|272:352,1,100,8|0
304,256,45583,6,0,B|384:256|408:320,2,100,4|0|8
256,168,46132,1,2
456,168,46498,2,2,B|368:88,1,100,2|8
296,48,46863,1,0
192,48,47046,1,4
256,192,47229,12,4,48510
384,64,54363,5,0
384,264,54729,2,0,B|344:304|264:256,1,100
104,192,55278,2,0,B|0:192,1,100
208,192,55827,1,0
408,200,56193,2,0,B|368:160|288:208,1,100
152,304,56741,2,0,B|192:344|272:296,1,100
440,264,57290,2,0,B|440:152,2,100
352,320,57839,1,0
152,304,58205,2,0,B|152:192,1,100
256,56,58754,6,0,B|136:56,2,100
312,144,59302,2,0,B|432:144,2,100
256,224,59851,2,0,B|136:224,2,100
280,320,60400,5,0
384,320,60583,2,0,B|384:208,1,100
256,64,61132,2,0,B|256:176,1,100
152,168,61498,1,0
88,240,61681,1,0
152,312,61863,1,0
216,240,62046,2,0,B|336:240,1,100
408,64,62595,6,0,B|480:64|480:160,1,100
472,224,62961,2,0,B|472:328,1,100
256,120,63693,1,0
40,336,64241,1,0
192,64,66071,6,0,B|80:64,2,100
296,64,66620,2,0,B|408:64,1,100
344,152,66985,1,0
344,152,67168,1,0
176,256,67534,2,0,B|112:256|64:304,2,100
280,248,68083,2,0,B|392:248,1,100
344,152,68449,1,0
344,152,68632,1,0
144,192,68998,6,0,B|64:128,1,100
136,56,69363,2,0,B|224:128,1,100
288,56,69729,2,0,B|400:56,2,100
440,312,70461,1,4
64,48,71010,1,4
440,312,71559,1,4
440,128,73388,6,0,B|408:16|256:40,1,200,4|8
168,40,73937,1,2
168,144,74120,2,0,B|168:248,1,100,2|0
256,192,74485,2,0,B|344:264,1,100,8|0
400,328,74851,1,0
296,328,75034,2,0,B|184:328,2,100,0|8|0
224,256,75583,1,0
128,256,75766,2,0,B|16:256,2,100,0|0|4
80,160,76315,5,0
240,48,76681,2,2,B|344:8|480:56,1,200,8|0
376,128,77229,2,0,B|376:240,1,100,0|8
376,328,77595,2,0,B|456:328|464:240,2,100,4|0|0
272,328,78144,2,0,B|144:328,1,100,8|0
232,248,78510,2,0,B|160:176,1,100
264,168,78876,2,0,B|264:48,2,100,8|4|0
328,248,79424,1,0
392,328,79607,6,0,B|392:256|456:256|456:136,1,200,8|0
400,64,80156,2,0,B|288:64,1,100,0|8
200,64,80522,1,4
200,64,80705,1,0
104,64,80888,1,0
48,144,81071,6,0,B|47:257|111:257|111:329,1,200,8|0
216,328,81620,2,0,B|320:328,1,100,0|8
368,240,81985,1,4
408,152,82168,2,0,B|512:152,2,100,0|0|8
368,240,82717,1,0
328,152,82900,2,0,B|228:152,3,100,0|0|8|4
256,192,83632,12,8,84729
256,192,84912,5,0
256,96,85095,1,4
168,144,85278,1,0
168,248,85461,1,8
256,288,85644,1,0
344,240,85827,1,0
344,136,86010,2,0,B|448:72,2,100,0|8|0
256,192,86559,6,2,B|192:192,2,50
256,192,86924,2,2,B|320:192,2,50,8|2|2
256,192,87290,2,2,B|256:256,2,50
256,192,87656,1,8
160,192,87839,6,0,B|160:136|216:104,1,100,0|4
304,112,88205,2,0,B|351:138|351:194,1,100,0|8
256,192,88571,2,0,B|256:296,1,100
344,344,88937,2,0,B|408:344|432:288,1,100,0|8
424,200,89302,2,0,B|424:64|320:40,1,200,4|0
232,40,89851,2,0,B|112:40,1,100,8|0
184,128,90217,2,0,B|104:216,1,100
216,224,90583,1,8
136,280,90766,2,0,B|200:344|264:248|328:328,1,200,4|0
336,216,91315,6,0,B|448:216,1,100,8|0
288,152,91680,2,0,B|176:152,1,100
136,64,92046,1,8
40,96,92229,2,0,B|104:160|8:224|88:288,1,200,4|0
184,280,92778,1,8
272,232,92961,2,0,B|384:232,2,100
184,184,93510,1,8
272,136,93693,1,4
256,192,93876,12,4,96437
256,192,96802,6,0,B|360:192,1,100
344,96,97168,2,0,B|448:96,1,100,8|0
256,192,97534,2,0,B|144:192,1,100
176,96,97900,2,0,B|56:96,1,100,8|0
256,96,98266,2,0,B|312:96,2,50
216,192,98632,2,0,B|166:192,2,50,8|0|0
256,280,98998,2,0,B|320:280,2,50
152,288,99363,2,0,B|96:288|64:224,1,100,8|0
64,144,99729,6,0,B|112:64|200:120|248:40,1,200,4|8
336,56,100278,1,0
440,56,100461,2,0,B|440:168,1,100
336,128,100827,2,0,B|336:240,1,100,8|4
336,328,101193,2,0,B|216:328,1,100
144,296,101559,2,0,B|88:192|144:64,1,200,8|0
256,192,102107,1,0
256,192,102290,1,8
368,296,102473,2,0,B|424:192|368:64,1,200,4|0
256,64,103022,6,0,B|152:64,1,100,8|0
256,136,103388,2,0,B|356:136,1,100
256,208,103754,1,8
256,296,103937,2,0,B|136:296|88:192,1,200,4|0
88,104,104485,2,0,B|160:32,1,100,8|0
232,104,104851,2,0,B|304:32,1,100
408,32,105217,1,8
408,128,105400,2,0,B|408:240|288:288,1,200,4|0
200,288,105949,2,0,B|200:344,2,50,8|0|0
96,288,106315,2,0,B|96:192|176:192|176:64,1,200,0|8
272,104,106863,1,4
352,48,107046,6,0,B|472:48,1,100
272,104,107412,2,0,B|144:104,1,100,8|0
168,208,107778,2,0,B|68:208,2,100,0|0|8
256,80,108327,5,0
352,192,108510,1,4
208,224,108693,1,0
304,136,108876,1,8
256,280,109059,1,0
160,168,109241,1,0
304,136,109424,2,0,B|384:56,2,100,0|8|4
184,48,109973,6,2,B|128:48,2,50
304,136,110339,2,0,B|354:136,2,50,8|2|0
192,240,110705,2,0,B|136:240,2,50,2|2|2
304,336,111071,1,8
400,336,111254,1,8
400,240,111437,6,0,B|400:32,1,200,4|8
296,40,111985,1,0
296,40,112168,1,0
192,40,112351,2,0,B|128:136,1,100,0|8
240,128,112717,2,0,B|176:224,1,100,4|0
80,208,113083,1,0
80,304,113266,2,0,B|176:344|288:296,1,200,8|0
368,264,113815,2,8,B|464:216,2,100,0|8|4
288,208,114363,5,0
352,136,114546,1,0
416,64,114729,2,0,B|304:24|200:72,1,200,8|0
136,104,115278,2,0,B|40:160,1,100,0|8
144,184,115644,2,0,B|240:240,1,100,4|0
184,328,116010,6,0,B|136:360|72:320,2,100,0|8|0
272,280,116559,2,0,B|384:240|408:120,1,200,0|8
336,64,117107,1,4
256,192,117290,12,2,119851
104,192,120217,6,0,B|136:72|272:48,1,200,0|8
384,192,120949,2,0,B|352:312|216:336,1,200,0|8
160,328,121498,2,0,B|40:328,2,100,0|2|0
216,248,122046,1,8
272,160,122229,2,0,B|392:160,2,100,0|2|2
192,96,122778,2,0,B|64:96,1,100,8|0
120,192,123144,2,0,B|56:192,2,50,2|0|0
159,288,123510,2,0,B|114:333,2,50,8|0|0
255,328,123876,2,0,B|255:392,2,50,2|0|0
352,288,124241,1,8
392,192,124424,1,0
392,80,124607,6,0,B|304:80|304:152|168:152,1,200,0|8
144,72,125156,1,0
88,152,125339,2,0,B|32:240,1,100,2|0
136,248,125705,2,0,B|192:336,1,100,8|0
288,328,126071,1,4
288,328,126254,1,0
392,328,126437,2,2,B|424:224|384:120,1,200,8|2
336,48,126985,2,2,B|448:48,2,100,2|8|2
224,48,127534,2,0,B|160:48|144:104,1,100,4|0
232,152,127900,6,0,B|217:202|153:202,1,100,8|0
80,136,128266,2,0,B|80:240,1,100,2|0
128,328,128632,2,0,B|80:360|24:328,2,100,8|2|4
208,272,129180,2,0,B|304:200,1,100,0|8
368,160,129546,2,0,B|272:88,2,100,2|2|0
440,88,130095,2,0,B|352:24,1,100,8|4
256,192,130461,12,0,131741
256,136,131924,6,0,B|256:72|312:48,1,100,4|0
312,192,132290,2,0,B|376:192|400:248,1,100,8|0
256,248,132656,2,0,B|256:312|200:336,1,100
200,192,133022,2,0,B|136:192|112:136,1,100,8|0
112,48,133388,1,0
112,48,133571,1,0
216,48,133754,1,8
216,48,133937,1,0
320,48,134120,6,0,B|384:128,1,100
320,200,134485,2,0,B|384:280,1,100,8|0
216,256,134851,1,0
216,152,135034,1,0
216,48,135217,1,8
216,48,135400,1,0
112,48,135583,2,0,B|48:128,1,100
112,200,135949,2,0,B|48:280,1,100,8|0
152,288,136315,6,0,B|224:376,1,100
256,264,136680,2,0,B|336:192,1,100,8|0
424,176,137046,2,0,B|424:288,2,100,0|0|8
352,104,137595,6,0,B|248:104|248:176|136:176,1,200
64,176,138144,1,8
224,64,138510,1,2
408,136,138876,1,8
488,192,139059,2,0,B|384:192|384:264|272:264,1,200
200,264,139607,1,8
224,64,139973,1,2
200,264,140339,2,0,B|144:264|112:200,1,100,8|4
256,192,140613,12,0,142900
256,320,143632,5,4
104,192,143998,1,8
256,64,144363,1,0
400,192,144729,1,8
336,272,144912,2,0,B|232:272,1,100
304,200,145278,2,0,B|304:100,1,100,0|8
232,168,145644,2,0,B|128:168,2,100
232,64,146193,2,0,B|336:64,1,100,8|0
376,152,146559,5,0
288,328,146924,1,8
88,328,147290,1,0
208,160,147656,1,8
208,160,147839,1,0
256,72,148022,2,0,B|368:72,1,100
208,160,148388,2,0,B|108:160,1,100,8|0
256,248,148754,2,0,B|368:248,1,100
408,160,149120,1,8
360,72,149302,2,0,B|144:72,1,200,4|0
96,160,149851,6,0,B|24:240,1,100,8|0
128,256,150217,2,0,B|128:360,1,100,0|0
232,352,150583,1,8
328,352,150766,2,0,B|448:352|448:216,1,200,4|0
448,120,151315,6,0,B|376:48,1,100,8|0
304,120,151680,2,0,B|224:200,1,100
160,120,152046,1,8
96,48,152229,2,0,B|32:144|88:248,1,200,4|0
152,312,152778,6,0,B|112:352|48:344,2,100,8|0|0
248,312,153327,2,0,B|288:352|352:344,1,100,0|8
440,328,153693,1,4
256,192,153876,12,0,155156
320,176,155339,6,0,B|208:176,1,100,4|0
160,256,155705,2,0,B|264:256,1,100,8|0
424,256,156071,2,0,B|320:256,1,100
216,176,156437,1,8
136,112,156620,2,0,B|192:72|264:88,1,100,4|0
328,80,156985,2,0,B|365:68|421:108,1,100,0|8
360,192,157351,2,0,B|472:192,2,100
376,288,157900,5,8
288,336,158083,2,0,B|168:368|56:328,1,200,4|0
56,240,158632,2,0,B|8:264,2,50,8|0|0
64,136,158998,1,0
136,72,159180,1,0
232,40,159363,2,0,B|320:16|368:48,1,100,0|4
256,192,159729,12,0,160827
256,192,161010,5,0
152,192,161193,2,0,B|80:96|176:0,1,200,4|8
256,56,161741,1,0
368,56,161924,2,0,B|304:64|344:144|184:128,1,200
96,136,162473,2,0,B|24:232|120:328,1,200,4|0
216,312,163022,2,0,B|336:312,1,100,8|0
392,248,163388,1,0
392,144,163571,2,0,B|360:96|304:112,2,100,0|0|4
256,192,164028,12,4,167046
